1

(0 replies, posted in Verifications)

Match: http://redump.org/disc/32015/
Logs: https://drive.google.com/file/d/1vZxDey … sp=sharing

Common Disc Info:
    Title: Die by the Sword
    Foreign Title (Non-latin): 
    Disc Number / Letter: (OPTIONAL)
    Disc Title: (OPTIONAL)
    System: IBM PC Compatible
    Media Type: CD-ROM
    Category: Games
    Matching IDs: 32015
    Region: Europe
    Languages: English, French, Italian, Spanish
    Disc Serial: CD-W95-519-M24

    Ringcode Information:
        Mastering Code (laser branded/etched): DURECO FR CD2-W955519M24
        Mastering SID Code: IFPI L373
        Data-Side Mould SID Code: (REQUIRED, IF EXISTS)
        Label-Side Mould SID Code: (REQUIRED, IF EXISTS)
        Additional Mould: (REQUIRED, IF EXISTS)
        Toolstamp or Mastering Code (engraved/stamped): (REQUIRED, IF EXISTS)
    Barcode: 5 026102 000637
    Error Count: 0
    Comments: [T:ISBN] (OPTIONAL)
    Contents: (OPTIONAL)

Version and Editions:
    Version: 1.0
    Edition/Release: Original

Extras:
    Primary Volume Descriptor (PVD):

0320 : 20 20 20 20 20 20 20 20  20 20 20 20 20 31 39 39                199
0330 : 38 30 33 31 35 32 30 31  37 31 31 39 30 8C 31 39   8031520171190.19
0340 : 39 38 30 33 31 35 32 30  31 38 32 37 37 35 01 00   98031520182775..
0350 : 00 00 00 00 00 00 00 00  00 00 00 00 00 00 00 00   ................
0360 : 00 00 00 00 00 00 00 00  00 00 00 00 00 00 00 00   ................
0370 : 00 01 00 00 00 00 00 00  00 00 00 00 00 00 00 00   ................

Copy Protection:
    Copy Protection: 

Tracks and Write Offsets:
    DAT:

<rom name="DBTS.bin" size="766862544" crc="6a044e9d" md5="a5a7c5bda4c167af95a5e5cfa260d49f" sha1="8ce9307a5fc8f73ed5f3787289f4e47eea7e826c" />

    Cuesheet:

FILE "DBTS.bin" BINARY
  TRACK 01 MODE2/2352
    INDEX 01 00:00:00

    Write Offset: -22

2

(0 replies, posted in Verifications)

Match: http://redump.org/disc/18333/
Logs: https://drive.google.com/file/d/1Hxf0qx … sp=sharing

Common Disc Info:
    Title: Destruction Derby 2
    Foreign Title (Non-latin): 
    Disc Number / Letter: (OPTIONAL)
    Disc Title: (OPTIONAL)
    System: IBM PC Compatible
    Media Type: CD-ROM
    Category: Games
    Matching IDs: 18333
    Region: Europe
    Languages: English
    Disc Serial: (REQUIRED, IF EXISTS)

    Ringcode Information:
        Mastering Code (laser branded/etched): 83209    DESTRUCTION DERBY 2 PC DOS & WINDOWS 95
        Mastering SID Code: IFPI L042
        Data-Side Mould SID Code: (REQUIRED, IF EXISTS)
        Label-Side Mould SID Code: (REQUIRED, IF EXISTS)
        Additional Mould: (REQUIRED, IF EXISTS)
        Toolstamp or Mastering Code (engraved/stamped): 1:2:2
    Barcode: 5 016597 023082
    Error Count: 1
    Comments: Last data track sector contains ECC.
    Contents: (OPTIONAL)

Version and Editions:
    Version: (REQUIRED, IF EXISTS)
    Edition/Release: Original

Extras:
    Primary Volume Descriptor (PVD):

0320 : 20 20 20 20 20 20 20 20  20 20 20 20 20 31 39 39                199
0330 : 36 31 31 31 36 31 38 30  30 30 30 30 30 24 30 30   6111618000000$00
0340 : 30 30 30 30 30 30 30 30  30 30 30 30 30 30 00 30   00000000000000.0
0350 : 30 30 30 30 30 30 30 30  30 30 30 30 30 30 30 00   000000000000000.
0360 : 30 30 30 30 30 30 30 30  30 30 30 30 30 30 30 30   0000000000000000
0370 : 00 01 00 00 00 00 00 00  00 00 00 00 00 00 00 00   ................

Copy Protection:
    Copy Protection: 

Tracks and Write Offsets:
    DAT:

<rom name="DD2_PC (Track 01).bin" size="106228080" crc="81854b44" md5="8bd7a27899bf90d818850a0af8138014" sha1="a1d2e8c47e48b1e9f478d5f65312bc2ae8a55ce3" />
<rom name="DD2_PC (Track 02).bin" size="29176560" crc="4b561912" md5="ab58a8bdfad64bf1c1c90a689deef8d0" sha1="034fd65b900f5bc220d020610667de6d208229cf" />
<rom name="DD2_PC (Track 03).bin" size="40630800" crc="0940876a" md5="36d44044ca3d2193b130adf961fc6dfc" sha1="d68cf9531668879c0a39a176126f8dbaaeb9e5af" />
<rom name="DD2_PC (Track 04).bin" size="39454800" crc="061788f0" md5="2baa24408e76f205eb6e82dab9271723" sha1="ad17cf9bc9ea9ea897394b803a2214d06e5e002e" />
<rom name="DD2_PC (Track 05).bin" size="29698704" crc="6cbb0ac1" md5="059f7540bcc9dbdf22de84a67759e3c0" sha1="1f3f3f50fe709c452f788ac9cff77293bfc49f75" />
<rom name="DD2_PC (Track 06).bin" size="29741040" crc="1ada3526" md5="3c7d5500b191929dafb3740384280c4b" sha1="2957311b95477dc44b39de4b2f1f628198c9cd26" />
<rom name="DD2_PC (Track 07).bin" size="24032736" crc="9132f650" md5="5343198a1b8f0a2ed678a24a0db6505d" sha1="b6f6dfc0cc04bdcc74aa7b7b4e94dd7a000b9013" />
<rom name="DD2_PC (Track 08).bin" size="37862496" crc="87c0a581" md5="f2708cc0700335ec7df05fa3da92e0cc" sha1="fc1054ef011857c8c29e88a1305b2050acd2d5c7" />
<rom name="DD2_PC (Track 09).bin" size="40139232" crc="29b02604" md5="fed98ee1ab88e3cea56c1f3b94fb708e" sha1="9540965bcb658b974a7a060a9ee48ef522bbca34" />
<rom name="DD2_PC (Track 10).bin" size="37239216" crc="3978643f" md5="c930bdbf8a2d87e93b27a8d3993f0ce4" sha1="d457f5b53512c4b3a2a608ca8208b4f3c3c64248" />
<rom name="DD2_PC (Track 11).bin" size="19984944" crc="d4c8a3d7" md5="5487ca0cd085222547bd8789357b2485" sha1="56c23a1d08ad96db1f6cae19555c96ee7639fcc9" />
<rom name="DD2_PC (Track 12).bin" size="17494176" crc="b0a98d30" md5="7f424ab16d7ede3a53f005025df79172" sha1="4e1e0184ec092a70ce5ec7c809323cfb4c5781f8" />
<rom name="DD2_PC (Track 13).bin" size="30578352" crc="5e3afd2e" md5="08ec9a49f73171d932a03eba626fd87b" sha1="2a679d28a0c1abf710335f7ddecb7cfe23d00ae4" />
<rom name="DD2_PC (Track 14).bin" size="63130032" crc="e87c5d1e" md5="f03ac5595741efa5710433b8eff4da89" sha1="aa437ebca436c47d8be618774da2383096838600" />
<rom name="DD2_PC (Track 15).bin" size="19921440" crc="9a64e619" md5="9ef039d1b4057cb7ac1a897364e590d7" sha1="041590e68071440eb11b617ea032bd852b042a02" />
<rom name="DD2_PC (Track 16).bin" size="12778416" crc="72c21bae" md5="bb5f60e4387cb3e204bd336223211cb8" sha1="e20c9883d1d3462b7a231b663d6a76978e9262d9" />
<rom name="DD2_PC (Track 17).bin" size="36333696" crc="f5fd7e95" md5="75abe899d1372e1433648080f6c1ac23" sha1="89782d4a64c20e4b9996834010132533d23f79bc" />
<rom name="DD2_PC (Track 18).bin" size="32848032" crc="b9b39082" md5="3237b105a2c8106d468ad39fb818ba58" sha1="b46f101a84785e9621d04c83f2ee2492473d4062" />
<rom name="DD2_PC (Track 19).bin" size="36211392" crc="bf8a1413" md5="0d2f7c89a749db9a03302b86e25270c2" sha1="947710b363989f36d424c622d7c8374fa4848755" />

    Cuesheet:

FILE "DD2_PC (Track 01).bin" BINARY
  TRACK 01 MODE2/2352
    INDEX 01 00:00:00
FILE "DD2_PC (Track 02).bin" BINARY
  TRACK 02 AUDIO
    INDEX 00 00:00:00
    INDEX 01 00:02:00
FILE "DD2_PC (Track 03).bin" BINARY
  TRACK 03 AUDIO
    INDEX 00 00:00:00
    INDEX 01 00:02:00
FILE "DD2_PC (Track 04).bin" BINARY
  TRACK 04 AUDIO
    INDEX 00 00:00:00
    INDEX 01 00:02:00
FILE "DD2_PC (Track 05).bin" BINARY
  TRACK 05 AUDIO
    INDEX 00 00:00:00
    INDEX 01 00:02:00
FILE "DD2_PC (Track 06).bin" BINARY
  TRACK 06 AUDIO
    INDEX 00 00:00:00
    INDEX 01 00:02:00
FILE "DD2_PC (Track 07).bin" BINARY
  TRACK 07 AUDIO
    INDEX 00 00:00:00
    INDEX 01 00:02:00
FILE "DD2_PC (Track 08).bin" BINARY
  TRACK 08 AUDIO
    INDEX 00 00:00:00
    INDEX 01 00:02:00
FILE "DD2_PC (Track 09).bin" BINARY
  TRACK 09 AUDIO
    INDEX 00 00:00:00
    INDEX 01 00:02:00
FILE "DD2_PC (Track 10).bin" BINARY
  TRACK 10 AUDIO
    INDEX 00 00:00:00
    INDEX 01 00:02:00
FILE "DD2_PC (Track 11).bin" BINARY
  TRACK 11 AUDIO
    INDEX 00 00:00:00
    INDEX 01 00:02:00
FILE "DD2_PC (Track 12).bin" BINARY
  TRACK 12 AUDIO
    INDEX 00 00:00:00
    INDEX 01 00:02:00
FILE "DD2_PC (Track 13).bin" BINARY
  TRACK 13 AUDIO
    INDEX 00 00:00:00
    INDEX 01 00:02:00
FILE "DD2_PC (Track 14).bin" BINARY
  TRACK 14 AUDIO
    INDEX 00 00:00:00
    INDEX 01 00:02:00
FILE "DD2_PC (Track 15).bin" BINARY
  TRACK 15 AUDIO
    INDEX 00 00:00:00
    INDEX 01 00:02:00
FILE "DD2_PC (Track 16).bin" BINARY
  TRACK 16 AUDIO
    INDEX 00 00:00:00
    INDEX 01 00:02:00
FILE "DD2_PC (Track 17).bin" BINARY
  TRACK 17 AUDIO
    INDEX 00 00:00:00
    INDEX 01 00:02:00
FILE "DD2_PC (Track 18).bin" BINARY
  TRACK 18 AUDIO
    INDEX 00 00:00:00
    INDEX 01 00:02:00
FILE "DD2_PC (Track 19).bin" BINARY
  TRACK 19 AUDIO
    INDEX 00 00:00:00
    INDEX 01 00:02:00

    Write Offset: 588

3

(0 replies, posted in Verifications)

Match: http://redump.org/disc/31546/
Logs: https://drive.google.com/file/d/1WmSmAB … sp=sharing

(I have multiple copies of this game, I've sent the other one for verification. this is not a repost)

Common Disc Info:
    Title: Crimson Skies
    Foreign Title (Non-latin): 
    Disc Number / Letter: (OPTIONAL)
    Disc Title: (OPTIONAL)
    System: IBM PC Compatible
    Media Type: CD-ROM
    Category: Games
    Matching IDs: 31546
    Region: Europe
    Languages: English
    Disc Serial: 0700 Part No. X05-69220

    Ringcode Information:
        Mastering Code (laser branded/etched): BM16536-061 ZOMAX X05-69219
        Mastering SID Code: IFPI L981
        Data-Side Mould SID Code: IFPI 3P62
        Label-Side Mould SID Code: (REQUIRED, IF EXISTS)
        Additional Mould: (REQUIRED, IF EXISTS)
        Toolstamp or Mastering Code (engraved/stamped): (REQUIRED, IF EXISTS)
    Barcode: 6 59556 45965 9
    Error Count: 579
    Comments: [T:ISBN] (OPTIONAL)
    Contents: (OPTIONAL)

Version and Editions:
    Version: 1.0.0.1
    Edition/Release: Original

Extras:
    Primary Volume Descriptor (PVD):

0320 : 20 20 20 20 20 20 20 20  20 20 20 20 20 32 30 30                200
0330 : 30 30 38 32 37 31 33 31  30 35 35 30 30 00 32 30   0082713105500.20
0340 : 30 30 30 38 32 37 31 33  31 30 35 35 30 30 00 30   00082713105500.0
0350 : 30 30 30 30 30 30 30 30  30 30 30 30 30 30 30 00   000000000000000.
0360 : 30 30 30 30 30 30 30 30  30 30 30 30 30 30 30 30   0000000000000000
0370 : 00 01 00 00 00 00 00 00  00 00 00 00 00 00 00 00   ................

Copy Protection:
    Copy Protection:

J:\: SafeDisc 1.5x
J:\00000001.TMP: SafeDisc 1 or greater
J:\00000409.016: SafeDisc 1
J:\00000409.256: SafeDisc 1
J:\CLCD16.DLL: SafeDisc 1
J:\CLCD32.DLL: SafeDisc 1
J:\CLOKSPL.EXE: SafeDisc 1, CD Check
J:\DPLAYERX.DLL: SafeDisc 1.5x, SafeDisc 1.50.020
J:\DRVMGT.DLL: SafeDisc 1.5x-2.40
J:\SECDRV.SYS: SafeDisc 2 or greater
J:\GAME\CRIMSON.EXE: CD Check, SafeDisc 1.50.020
J:\GAME\CRIMSON.ICD: SafeDisc 1, SafeDisc 1.50.020

Tracks and Write Offsets:
    DAT:

<rom name="C_SKIES.bin" size="692958000" crc="969c7255" md5="340c6e86c601b10eac8ffb12005d97d7" sha1="0ed516a628be4a17eda7354482d7ad2e15ed3d5e" />

    Cuesheet:

FILE "C_SKIES.bin" BINARY
  TRACK 01 MODE1/2352
    INDEX 01 00:00:00

    Write Offset: -12

4

(0 replies, posted in Verifications)

Match: http://redump.org/disc/35349/
Logs: https://drive.google.com/file/d/1Q0z5yc … sp=sharing

Common Disc Info:
    Title: Atomic Bomberman
    Foreign Title (Non-latin): 
    Disc Number / Letter: (OPTIONAL)
    Disc Title: (OPTIONAL)
    System: IBM PC Compatible
    Media Type: CD-ROM
    Category: Games
    Matching IDs: 35349
    Region: Europe
    Languages: English
    Disc Serial: CD-W95-410-EU

    Ringcode Information:
        Mastering Code (laser branded/etched): DADC AUSTRIA    A0100221649-0101    13
        Mastering SID Code: IFPI L553
        Data-Side Mould SID Code: IFPI 94F1
        Label-Side Mould SID Code: (REQUIRED, IF EXISTS)
        Additional Mould: (REQUIRED, IF EXISTS)
        Toolstamp or Mastering Code (engraved/stamped): A4
    Barcode: 5 026102 216687 >
    Error Count: 0
    Comments: [T:ISBN] (OPTIONAL)
    Contents: Atomic Bomberman Desktop Theme for Microsoft Plus!

Version and Editions:
    Version: 1.0
    Edition/Release: Original

Extras:
    Primary Volume Descriptor (PVD):

0320 : 20 20 20 20 20 20 20 20  20 20 20 20 20 31 39 39                199
0330 : 37 30 37 31 35 30 30 33  34 34 32 30 30 00 31 39   7071500344200.19
0340 : 39 37 30 37 31 35 30 30  33 34 34 32 30 30 00 30   97071500344200.0
0350 : 30 30 30 30 30 30 30 30  30 30 30 30 30 30 30 00   000000000000000.
0360 : 30 30 30 30 30 30 30 30  30 30 30 30 30 30 30 30   0000000000000000
0370 : 00 01 00 00 00 00 00 00  00 00 00 00 00 00 00 00   ................

Copy Protection:
    Copy Protection: 

Tracks and Write Offsets:
    DAT:

<rom name="BOMBRMAN.bin" size="603979488" crc="1c5080c0" md5="6f9c24cf32bfa4ff7e332bd0466879a2" sha1="26991af22019b43c01b0465f37d7765ed6004731" />

    Cuesheet:

CATALOG 0000000000000
FILE "BOMBRMAN.bin" BINARY
  TRACK 01 MODE2/2352
    INDEX 01 00:00:00

    Write Offset: 0

Match: http://redump.org/disc/2086/
Logs: https://drive.google.com/file/d/1Qg_7w1 … sp=sharing

Common Disc Info:
    Title: Diablo II: Lord of Destruction
    Foreign Title (Non-latin): 
    Disc Number / Letter: (OPTIONAL)
    Disc Title: Expansion Set
    System: IBM PC Compatible
    Media Type: CD-ROM
    Category: Add-Ons
    Matching IDs: 2086
    Region: Europe
    Languages: English
    Disc Serial: S0022821

    Ringcode Information:
        Mastering Code (laser branded/etched): 00095    51141 331    01 + 51141336
        Mastering SID Code: IFPI L002
        Data-Side Mould SID Code: (REQUIRED, IF EXISTS)
        Label-Side Mould SID Code: (REQUIRED, IF EXISTS)
        Additional Mould: MADE IN GERMANY BY UNIVERSAL M & L D
        Toolstamp or Mastering Code (engraved/stamped): (REQUIRED, IF EXISTS)
    Barcode: 
    Error Count: 1
    Comments: PC/Mac Hybrid
    Contents: (OPTIONAL)

Version and Editions:
    Version: 1.07
    Edition/Release: Original

Extras:
    Primary Volume Descriptor (PVD):

0320 : 20 20 20 20 20 20 20 20  20 20 20 20 20 32 30 30                200
0330 : 31 30 35 32 33 31 35 31  36 34 37 30 30 00 32 30   1052315164700.20
0340 : 30 31 30 35 32 33 31 35  31 36 35 39 30 30 00 00   01052315165900..
0350 : 00 00 00 00 00 00 00 00  00 00 00 00 00 00 00 00   ................
0360 : 00 00 00 00 00 00 00 00  00 00 00 00 00 00 00 00   ................
0370 : 00 01 00 00 00 00 00 00  00 00 00 00 00 00 00 00   ................

Copy Protection:
    Copy Protection: 
    SubIntention Data (SecuROM/LibCrypt):

MSF: 00:01:74 Q-Data: 410100 37:10:45 00 00:02:00 0793
MSF: 00:02:00 Q-Data: 410101 00:00:00 00 00:02:01 3813
MSF: 00:02:01 Q-Data: 410101 00:00:01 00 00:02:02 a221
MSF: 00:02:02 Q-Data: 410101 00:00:02 00 00:02:03 5cd2
MSF: 00:02:03 Q-Data: 410101 00:00:03 00 00:02:04 8664
MSF: 00:02:04 Q-Data: 410101 00:00:04 00 00:02:05 f191
MSF: 00:02:05 Q-Data: 410101 00:00:05 00 00:02:06 6ba3
MSF: 00:02:06 Q-Data: 410101 00:00:06 00 00:02:07 9550
MSF: 00:02:07 Q-Data: 410101 00:08:06 00 00:12:07 1551
MSF: 01:08:50 Q-Data: 410101 01:06:50 00 01:08:51 9aaf
MSF: 01:08:51 Q-Data: 410101 01:06:51 00 01:08:52 009d
MSF: 01:08:52 Q-Data: 410101 01:06:52 00 01:08:53 fe6e
MSF: 01:08:53 Q-Data: 410101 01:06:53 00 01:08:54 24d8
MSF: 01:08:54 Q-Data: 410101 01:06:54 00 01:08:55 532d
MSF: 01:08:55 Q-Data: 410101 01:06:55 00 01:08:56 c91f
MSF: 01:08:56 Q-Data: 410101 01:06:56 00 01:08:57 37ec
MSF: 01:08:57 Q-Data: 410101 01:06:57 00 01:08:58 6c52
MSF: 01:08:58 Q-Data: 410101 05:06:57 00 21:08:58 ec53
MSF: 01:28:68 Q-Data: 410101 01:26:68 00 01:28:69 10d9
MSF: 01:28:69 Q-Data: 410101 01:26:69 00 01:28:70 3990
MSF: 01:28:70 Q-Data: 410101 01:26:70 00 01:28:71 8597
MSF: 01:28:71 Q-Data: 410101 01:26:71 00 01:28:72 1fa5
MSF: 01:28:72 Q-Data: 410101 01:26:72 00 01:28:73 e156
MSF: 01:28:73 Q-Data: 410101 01:26:73 00 01:28:74 3be0
MSF: 01:28:74 Q-Data: 410101 01:26:74 00 01:29:00 5116
MSF: 01:29:00 Q-Data: 410101 01:27:00 00 01:29:01 9017
MSF: 01:29:01 Q-Data: 410101 01:27:01 00 01:29:81 1016
MSF: 01:41:27 Q-Data: 410101 01:39:27 00 01:41:28 5298
MSF: 01:41:28 Q-Data: 410101 01:39:28 00 01:41:29 2740
MSF: 01:41:29 Q-Data: 410101 01:39:29 00 01:41:30 0e09
MSF: 01:41:30 Q-Data: 410101 01:39:30 00 01:41:31 b20e
MSF: 01:41:31 Q-Data: 410101 01:39:31 00 01:41:32 283c
MSF: 01:41:32 Q-Data: 410101 01:39:32 00 01:41:33 d6cf
MSF: 01:41:33 Q-Data: 410101 01:39:33 00 01:41:34 0c79
MSF: 01:41:34 Q-Data: 410101 01:39:34 00 01:41:35 7b8c
MSF: 01:41:35 Q-Data: 410101 01:29:34 00 01:49:35 fb8d
MSF: 01:42:46 Q-Data: 410101 01:40:46 00 01:42:47 2471
MSF: 01:42:47 Q-Data: 410101 01:40:47 00 01:42:48 7fcf
MSF: 01:42:48 Q-Data: 410101 01:40:48 00 01:42:49 0a17
MSF: 01:42:49 Q-Data: 410101 01:40:49 00 01:42:50 235e
MSF: 01:42:50 Q-Data: 410101 01:40:50 00 01:42:51 9f59
MSF: 01:42:51 Q-Data: 410101 01:40:51 00 01:42:52 056b
MSF: 01:42:52 Q-Data: 410101 01:40:52 00 01:42:53 fb98
MSF: 01:42:53 Q-Data: 410101 01:40:53 00 01:42:54 212e
MSF: 01:42:54 Q-Data: 410101 00:40:53 00 81:42:54 a12f
MSF: 02:39:31 Q-Data: 410101 02:37:31 00 02:39:32 a8bd
MSF: 02:39:32 Q-Data: 410101 02:37:32 00 02:39:33 564e
MSF: 02:39:33 Q-Data: 410101 02:37:33 00 02:39:34 8cf8
MSF: 02:39:34 Q-Data: 410101 02:37:34 00 02:39:35 fb0d
MSF: 02:39:35 Q-Data: 410101 02:37:35 00 02:39:36 613f
MSF: 02:39:36 Q-Data: 410101 02:37:36 00 02:39:37 9fcc
MSF: 02:39:37 Q-Data: 410101 02:37:37 00 02:39:38 c472
MSF: 02:39:38 Q-Data: 410101 02:37:38 00 02:39:39 b1aa
MSF: 02:39:39 Q-Data: 410101 02:35:38 00 02:79:39 31ab
MSF: 02:41:29 Q-Data: 410101 02:39:29 00 02:41:30 8fdb
MSF: 02:41:30 Q-Data: 410101 02:39:30 00 02:41:31 33dc
MSF: 02:41:31 Q-Data: 410101 02:39:31 00 02:41:32 a9ee
MSF: 02:41:32 Q-Data: 410101 02:39:32 00 02:41:33 571d
MSF: 02:41:33 Q-Data: 410101 02:39:33 00 02:41:34 8dab
MSF: 02:41:34 Q-Data: 410101 02:39:34 00 02:41:35 fa5e
MSF: 02:41:35 Q-Data: 410101 02:39:35 00 02:41:36 606c
MSF: 02:41:36 Q-Data: 410101 02:39:36 00 02:41:37 9e9f
MSF: 02:41:37 Q-Data: 410101 02:39:34 00 02:41:77 1e9e
MSF: 02:55:21 Q-Data: 410101 02:53:21 00 02:55:22 a928
MSF: 02:55:22 Q-Data: 410101 02:53:22 00 02:55:23 57db
MSF: 02:55:23 Q-Data: 410101 02:53:23 00 02:55:24 8d6d
MSF: 02:55:24 Q-Data: 410101 02:53:24 00 02:55:25 fa98
MSF: 02:55:25 Q-Data: 410101 02:53:25 00 02:55:26 60aa
MSF: 02:55:26 Q-Data: 410101 02:53:26 00 02:55:27 9e59
MSF: 02:55:27 Q-Data: 410101 02:53:27 00 02:55:28 c5e7
MSF: 02:55:28 Q-Data: 410101 02:53:28 00 02:55:29 b03f
MSF: 02:55:29 Q-Data: 410101 02:43:28 00 02:5d:29 303e
MSF: 02:56:06 Q-Data: 410101 02:54:06 00 02:56:07 2f9d
MSF: 02:56:07 Q-Data: 410101 02:54:07 00 02:56:08 7423
MSF: 02:56:08 Q-Data: 410101 02:54:08 00 02:56:09 01fb
MSF: 02:56:09 Q-Data: 410101 02:54:09 00 02:56:10 28b2
MSF: 02:56:10 Q-Data: 410101 02:54:10 00 02:56:11 94b5
MSF: 02:56:11 Q-Data: 410101 02:54:11 00 02:56:12 0e87
MSF: 02:56:12 Q-Data: 410101 02:54:12 00 02:56:13 f074
MSF: 02:56:13 Q-Data: 410101 02:54:13 00 02:56:14 2ac2
MSF: 02:56:14 Q-Data: 410101 22:54:13 00 06:56:14 aac3
MSF: 02:58:64 Q-Data: 410101 02:56:64 00 02:58:65 9669
MSF: 02:58:65 Q-Data: 410101 02:56:65 00 02:58:66 0c5b
MSF: 02:58:66 Q-Data: 410101 02:56:66 00 02:58:67 f2a8
MSF: 02:58:67 Q-Data: 410101 02:56:67 00 02:58:68 a916
MSF: 02:58:68 Q-Data: 410101 02:56:68 00 02:58:69 dcce
MSF: 02:58:69 Q-Data: 410101 02:56:69 00 02:58:70 f587
MSF: 02:58:70 Q-Data: 410101 02:56:70 00 02:58:71 4980
MSF: 02:58:71 Q-Data: 410101 02:56:71 00 02:58:72 d3b2
MSF: 02:58:72 Q-Data: 410101 02:76:71 00 02:5c:72 53b3
MSF: 04:05:62 Q-Data: 410101 04:03:62 00 04:05:63 63d9
MSF: 04:05:63 Q-Data: 410101 04:03:63 00 04:05:64 b96f
MSF: 04:05:64 Q-Data: 410101 04:03:64 00 04:05:65 ce9a
MSF: 04:05:65 Q-Data: 410101 04:03:65 00 04:05:66 54a8
MSF: 04:05:66 Q-Data: 410101 04:03:66 00 04:05:67 aa5b
MSF: 04:05:67 Q-Data: 410101 04:03:67 00 04:05:68 f1e5
MSF: 04:05:68 Q-Data: 410101 04:03:68 00 04:05:69 843d
MSF: 04:05:69 Q-Data: 410101 04:03:69 00 04:05:70 ad74
MSF: 04:05:70 Q-Data: 410101 04:13:69 00 04:0d:70 2d75

Tracks and Write Offsets:
    DAT:

<rom name="DIILOD.bin" size="618082080" crc="763c5cc9" md5="5807d73e7fbaa39a2ecf27cfc9b956a1" sha1="89ac33992cfa25f9c6c1f8c082a6582518e74fdb" />

    Cuesheet:

FILE "DIILOD.bin" BINARY
  TRACK 01 MODE1/2352
    INDEX 01 00:00:00

    Write Offset: -59

CD3

Match: http://redump.org/disc/29039/
Logs: https://drive.google.com/file/d/1J2RC2l … sp=sharing

Common Disc Info:
    Title: Max Payne 2: The Fall of Max Payne
    Foreign Title (Non-latin): 
    Disc Number / Letter: (OPTIONAL)
    Disc Title: Play
    System: IBM PC Compatible
    Media Type: CD-ROM
    Category: Games
    Matching IDs: 29039
    Region: Europe
    Languages: English
    Disc Serial: (REQUIRED, IF EXISTS)

    Ringcode Information:
        Mastering Code (laser branded/etched): DISCTRONICS MAXP2DISC3E 01
        Mastering SID Code: IFPI L136
        Data-Side Mould SID Code: IFPI L0431
        Label-Side Mould SID Code: (REQUIRED, IF EXISTS)
        Additional Mould: MADE IN THE UK BY DISCTRONICS
        Toolstamp or Mastering Code (engraved/stamped): (REQUIRED, IF EXISTS)
    Barcode: 5 026555 037228
    Error Count: 1
    Comments: [T:ISBN] (OPTIONAL)
    Contents: (OPTIONAL)

Version and Editions:
    Version: 1.0.98
    Edition/Release: Original

Extras:
    Primary Volume Descriptor (PVD):

0320 : 20 20 20 20 20 20 20 20  20 20 20 20 20 32 30 30                200
0330 : 33 31 30 30 35 31 34 35  36 33 34 30 30 34 32 30   3100514563400420
0340 : 30 33 31 30 30 35 31 34  35 36 33 34 30 30 34 31   0310051456340041
0350 : 36 30 31 30 31 30 31 30  31 30 30 30 30 30 30 34   6010101010000004
0360 : 31 36 30 31 30 31 30 31  30 31 30 30 30 30 30 30   1601010101000000
0370 : 34 01 00 00 00 00 00 00  00 00 00 00 00 00 00 00   4...............

Copy Protection:
    Copy Protection: 
    SubIntention Data (SecuROM/LibCrypt):

MSF: 00:01:74 Q-Data: 410100 00:40:01 00 00:03:74 2ef1
MSF: 01:08:50 Q-Data: 410101 21:06:50 00 05:08:50 0a8f
MSF: 01:14:31 Q-Data: 410101 03:12:31 00 41:14:31 9fbe
MSF: 01:46:29 Q-Data: 410101 01:45:29 00 01:c6:29 9f58
MSF: 01:56:05 Q-Data: 410101 09:54:05 00 11:56:05 e0de
MSF: 02:34:74 Q-Data: 410101 02:3a:74 00 02:24:74 07dc
MSF: 02:56:44 Q-Data: 410101 02:50:44 00 02:76:44 82d0
MSF: 02:58:70 Q-Data: 410101 42:56:70 00 00:58:70 d9a0
MSF: 03:12:12 Q-Data: 410101 03:00:12 00 03:1a:12 42bc
MSF: 03:22:35 Q-Data: 410101 43:20:35 00 01:22:35 5340
MSF: 03:34:29 Q-Data: 410101 03:36:29 00 03:14:29 379d

Tracks and Write Offsets:
    DAT:

<rom name="MaxPayne2-CD3.bin" size="408349536" crc="a78cb021" md5="8b22939af8e5555e8ac9c7406b11d6a1" sha1="be4f2b1c448296ebb3413c8501809f4223f8147d" />

    Cuesheet:

FILE "MaxPayne2-CD3.bin" BINARY
  TRACK 01 MODE2/2352
    INDEX 01 00:00:00

    Write Offset: -12

CD2

Match: http://redump.org/disc/15815/
Logs: https://drive.google.com/file/d/1iRLWnL … sp=sharing

Common Disc Info:
    Title: Max Payne 2: The Fall of Max Payne
    Foreign Title (Non-latin): 
    Disc Number / Letter: (OPTIONAL)
    Disc Title: Install 2
    System: IBM PC Compatible
    Media Type: CD-ROM
    Category: Games
    Matching IDs: 15815
    Region: Europe
    Languages: English
    Disc Serial: (REQUIRED, IF EXISTS)

    Ringcode Information:
        Mastering Code (laser branded/etched): DISCTRONICS MAXP2DICS2E 01
        Mastering SID Code: IFPI L135
        Data-Side Mould SID Code: IFPI 04H7
        Label-Side Mould SID Code: (REQUIRED, IF EXISTS)
        Additional Mould: (REQUIRED, IF EXISTS)
        Toolstamp or Mastering Code (engraved/stamped): (REQUIRED, IF EXISTS)
    Barcode: 5 026555 037228
    Error Count: 0
    Comments: [T:ISBN] (OPTIONAL)
    Contents: (OPTIONAL)

Version and Editions:
    Version: 1.0.98
    Edition/Release: Original

Extras:
    Primary Volume Descriptor (PVD):

0320 : 20 20 20 20 20 20 20 20  20 20 20 20 20 32 30 30                200
0330 : 33 31 30 30 35 31 34 32  34 31 38 30 30 34 32 30   3100514241800420
0340 : 30 33 31 30 30 35 31 34  32 34 31 38 30 30 34 31   0310051424180041
0350 : 36 30 31 30 31 30 31 30  31 30 30 30 30 30 30 34   6010101010000004
0360 : 31 36 30 31 30 31 30 31  30 31 30 30 30 30 30 30   1601010101000000
0370 : 34 01 00 00 00 00 00 00  00 00 00 00 00 00 00 00   4...............

Copy Protection:
    Copy Protection: None found

Tracks and Write Offsets:
    DAT:

<rom name="MaxPayne2-CD2.bin" size="588493920" crc="e8277adb" md5="35703cce5a0d34456316d437a9fa28d6" sha1="234800585721895046e71580ff40912462930b96" />

    Cuesheet:

FILE "MaxPayne2-CD2.bin" BINARY
  TRACK 01 MODE2/2352
    INDEX 01 00:00:00

    Write Offset: -12

CD1

Match: http://redump.org/disc/15814/
Logs: https://drive.google.com/file/d/1rN_UMX … sp=sharing

Common Disc Info:
    Title: Max Payne 2: The Fall of Max Payne
    Foreign Title (Non-latin): 
    Disc Number / Letter: (OPTIONAL)
    Disc Title: Install 1
    System: IBM PC Compatible
    Media Type: CD-ROM
    Category: Games
    Matching IDs: 15814
    Region: Europe
    Languages: English
    Disc Serial: (REQUIRED, IF EXISTS)

    Ringcode Information:
        Mastering Code (laser branded/etched): DISCTRONICS MAXP2DISC1E 01
        Mastering SID Code: IFPI L135
        Data-Side Mould SID Code: IFPI 04AB
        Label-Side Mould SID Code: (REQUIRED, IF EXISTS)
        Additional Mould: MADE IN THE UK BY UNIVERSAL M&L
        Toolstamp or Mastering Code (engraved/stamped): (REQUIRED, IF EXISTS)
    Barcode: 5 026555 037228
    Error Count: 0
    Comments: [T:ISBN] (OPTIONAL)
    Contents: (OPTIONAL)

Version and Editions:
    Version: 1.0.98
    Edition/Release: Original

Extras:
    Primary Volume Descriptor (PVD):

0320 : 20 20 20 20 20 20 20 20  20 20 20 20 20 32 30 30                200
0330 : 33 31 30 30 35 31 33 34  34 35 38 30 30 34 32 30   3100513445800420
0340 : 30 33 31 30 30 35 31 33  34 34 35 38 30 30 34 31   0310051344580041
0350 : 36 30 31 30 31 30 31 30  31 30 30 30 30 30 30 34   6010101010000004
0360 : 31 36 30 31 30 31 30 31  30 31 30 30 30 30 30 30   1601010101000000
0370 : 34 01 00 00 00 00 00 00  00 00 00 00 00 00 00 00   4...............

Copy Protection:
    Copy Protection: J:\data1.hdr: CD Check, SecuROM 4.85.04.0021, CD Check, CD Check

Tracks and Write Offsets:
    DAT:

<rom name="MaxPayne2-CD1.bin" size="587553120" crc="095fb59c" md5="53f5b5ac6beec2dd734a001e42a63b07" sha1="e5c746ded66fddb10d90479d4b40ecf02e2f5e7e" />

    Cuesheet:

FILE "MaxPayne2-CD1.bin" BINARY
  TRACK 01 MODE2/2352
    INDEX 01 00:00:00

    Write Offset: -12

9

(0 replies, posted in Verifications)

Match: http://redump.org/disc/9819/
Logs: https://drive.google.com/file/d/1LCpYhH … sp=sharing

Common Disc Info:
    Title: Max Payne
    Foreign Title (Non-latin): 
    Disc Number / Letter: (OPTIONAL)
    Disc Title: (OPTIONAL)
    System: IBM PC Compatible
    Media Type: CD-ROM
    Category: Games
    Matching IDs: 9819
    Region: USA, Europe
    Languages: English
    Disc Serial: (REQUIRED, IF EXISTS)

    Ringcode Information:
        Mastering Code (laser branded/etched): DISCTRONICS    MAXP/CD/E 03
        Mastering SID Code: IFPI L503
        Data-Side Mould SID Code: IFPI 8729
        Label-Side Mould SID Code: (REQUIRED, IF EXISTS)
        Additional Mould: (REQUIRED, IF EXISTS)
        Toolstamp or Mastering Code (engraved/stamped): (REQUIRED, IF EXISTS)
    Barcode: 5 026555 031226
    Error Count: 577
    Comments: Regions: USA + Canada + Europe
    Contents: (OPTIONAL)

Version and Editions:
    Version: 1.0.161
    Edition/Release: Original

Extras:
    Primary Volume Descriptor (PVD):

0320 : 20 20 20 20 20 20 20 20  20 20 20 20 20 32 30 30                200
0330 : 31 30 37 31 34 31 36 33  37 30 34 30 30 00 32 30   1071416370400.20
0340 : 30 31 30 37 31 34 31 36  33 37 30 34 30 30 00 30   01071416370400.0
0350 : 30 30 30 30 30 30 30 30  30 30 30 30 30 30 30 00   000000000000000.
0360 : 30 30 30 30 30 30 30 30  30 30 30 30 30 30 30 30   0000000000000000
0370 : 00 01 00 00 00 00 00 00  00 00 00 00 00 00 00 00   ................

Copy Protection:
    Copy Protection:

J:\: SafeDisc 1.5x-2.40
J:\00000001.TMP: SafeDisc 1 or greater
J:\00000409.016: SafeDisc 1
J:\00000409.256: SafeDisc 1
J:\drvmgt.dll: SafeDisc 1.5x-2.40
J:\secdrv.sys: SafeDisc 2.30
J:\MAX-FX\setup\data1.hdr: CD Check, CD Check, CD Check, CD Check, CD Check, CD Check, CD Check, CD Check

Tracks and Write Offsets:
    DAT:

<rom name="MaxPayne.bin" size="842789808" crc="3eba0fb1" md5="5adcf306b0de169dc332d8427e79245a" sha1="485e756abf57d8bf45a1b04f04712e049c51b9b2" />

    Cuesheet:

FILE "MaxPayne.bin" BINARY
  TRACK 01 MODE1/2352
    INDEX 01 00:00:00

    Write Offset: -12

Match: http://redump.org/disc/19980/
Logs: https://drive.google.com/file/d/1cjRl_r … sp=sharing

Common Disc Info:
    Title: Age of Empires II: The Age of Kings
    Foreign Title (Non-latin): 
    Disc Number / Letter: (OPTIONAL)
    Disc Title: (OPTIONAL)
    System: IBM PC Compatible
    Media Type: CD-ROM
    Category: Games
    Matching IDs: 19980
    Region: USA
    Languages: English
    Disc Serial: 0799 Part No. x04-78904

    Ringcode Information:
        Mastering Code (laser branded/etched): Sono Press X04-78919 02
        Mastering SID Code: IFPI L023
        Data-Side Mould SID Code: IFPI D703
        Label-Side Mould SID Code: (REQUIRED, IF EXISTS)
        Additional Mould: (REQUIRED, IF EXISTS)
        Toolstamp or Mastering Code (engraved/stamped): (REQUIRED, IF EXISTS)
    Barcode: 6 59556 13802 8
    Error Count: 812
    Comments: [T:ISBN] (OPTIONAL)
    Contents: (OPTIONAL)

Version and Editions:
    Version: 2.0
    Edition/Release: Original

Extras:
    Primary Volume Descriptor (PVD):

0320 : 20 20 20 20 20 20 20 20  20 20 20 20 20 31 39 39                199
0330 : 39 30 39 31 34 31 37 34  33 35 37 30 30 00 31 39   9091417435700.19
0340 : 39 39 30 39 31 34 31 37  34 33 35 37 30 30 00 30   99091417435700.0
0350 : 30 30 30 30 30 30 30 30  30 30 30 30 30 30 30 00   000000000000000.
0360 : 30 30 30 30 30 30 30 30  30 30 30 30 30 30 30 30   0000000000000000
0370 : 00 01 00 00 00 00 00 00  00 00 00 00 00 00 00 00   ................

Copy Protection:
    Copy Protection:

J:\: SafeDisc 1.3x
J:\00000001.TMP: SafeDisc 1 or greater
J:\00000409.016: SafeDisc 1
J:\00000409.256: SafeDisc 1
J:\CLCD16.DLL: SafeDisc 1
J:\CLCD32.DLL: SafeDisc 1
J:\CLOKSPL.EXE: SafeDisc 1, CD Check
J:\DPLAYERX.DLL: SafeDisc 1.3x, SafeDisc 1.30.010
J:\DRVMGT.DLL: SafeDisc 1.1x-1.3x
J:\SECDRV.SYS: SafeDisc 2 or greater
J:\GAME\EMPIRES2.EXE: CD Check, SafeDisc 1.30.010
J:\GAME\EMPIRES2.ICD: SafeDisc 1, SafeDisc 1.30.010

Tracks and Write Offsets:
    DAT:

<rom name="AOE2 (Track 1).bin" size="384258000" crc="cd8bd3e8" md5="e3896a4c1a7087be8dcfbee8b04b222a" sha1="eeaf057ea5da8622bcd37faec80169f0dbf6f8c5" />
<rom name="AOE2 (Track 2).bin" size="320276544" crc="3170e90a" md5="bc8200230f91965264d39495eb1e5072" sha1="27e9c1796e56d50be3dd52bf299d0da73652184c" />

    Cuesheet:

FILE "AOE2 (Track 1).bin" BINARY
  TRACK 01 MODE1/2352
    INDEX 01 00:00:00
FILE "AOE2 (Track 2).bin" BINARY
  TRACK 02 AUDIO
    FLAGS DCP
    INDEX 00 00:00:00
    INDEX 01 00:02:00

    Write Offset: -12

Match 1: http://redump.org/disc/12111/
Match 2: http://redump.org/disc/66495/
Logs: https://drive.google.com/file/d/1EH-jw1 … sp=sharing

Matches with 2 different dump. Box or the CD doesn't have any indication saying this is the "Collectors Edition". CD Serial
and barcode matches with the Original. However md5 hashes matches with Collectors Edition one. I can't see any version information in game or in readme file. Logs include pictures, if you have any questions please contact me.

Common Disc Info:
    Title: Sid Meier's Civilization II
    Foreign Title (Non-latin): 
    Disc Number / Letter: (OPTIONAL)
    Disc Title: (OPTIONAL)
    System: IBM PC Compatible
    Media Type: CD-ROM
    Category: Games
    Matching IDs: 12111
    Region: Europe
    Languages: English, French, German
    Disc Serial: MPX91260DO1R

    Ringcode Information:
        Mastering Code (laser branded/etched): -MASTERED BY NIMBUS-    CDD11083 CIV 2000 :
        Mastering SID Code: IFPI L122
        Data-Side Mould SID Code: IFPI 2323
        Label-Side Mould SID Code: (REQUIRED, IF EXISTS)
        Additional Mould: (REQUIRED, IF EXISTS)
        Toolstamp or Mastering Code (engraved/stamped): 1:3
    Barcode: 5 015352 191318 >
    Error Count: 0
    Comments: [T:ISBN] (OPTIONAL)
    Contents: (OPTIONAL)

Version and Editions:
    Version: 
    Edition/Release: Original

Extras:
    Primary Volume Descriptor (PVD):

0320 : 20 20 20 20 20 20 20 20  20 20 20 20 20 30 30 30                000
0330 : 30 30 30 30 30 30 30 30  30 30 30 30 30 00 30 30   0000000000000.00
0340 : 30 30 30 30 30 30 30 30  30 30 30 30 30 30 00 30   00000000000000.0
0350 : 30 30 30 30 30 30 30 30  30 30 30 30 30 30 30 00   000000000000000.
0360 : 30 30 30 30 30 30 30 30  30 30 30 30 30 30 30 30   0000000000000000
0370 : 00 01 00 00 00 00 00 00  00 00 00 00 00 00 00 00   ................

Copy Protection:
    Copy Protection: None found

Tracks and Write Offsets:
    DAT:

<rom name="civ2 (Track 01).bin" size="430679424" crc="d4c893cd" md5="bcd0358cf07bb7ec94733bd5b714b025" sha1="b4c2d1d68d4f2b918bdeb46216b4386e91ede832" />
<rom name="civ2 (Track 02).bin" size="6983088" crc="e83793f4" md5="0c5b76732add0ef2f5fe8b8d8f1f41d8" sha1="4fcd071386f572ea3ba1b6f841400bff7142f19a" />
<rom name="civ2 (Track 03).bin" size="8326080" crc="30a70cf8" md5="c3b922ac8fe54f00c0f597419f242dbf" sha1="7f8155e4a861d3f8f82565db2a87386f5a16141f" />
<rom name="civ2 (Track 04).bin" size="18061008" crc="14c3957c" md5="bec1ad19a87aef8a827b66ff5764739d" sha1="ed285ab96d3715e05fed5ef239c08d7e692801e1" />
<rom name="civ2 (Track 05).bin" size="22515696" crc="8a86dbcc" md5="3cc95a1c5d1a82f386d0e421806195e7" sha1="c0e2333c3a1e69d0d6d4f218dcc2272172c05fc3" />
<rom name="civ2 (Track 06).bin" size="22141728" crc="d8ae393d" md5="378460d62c8cd5a24f114824b825a6bb" sha1="6c1818128f093c97a374c2d50c290c31aa46cd67" />
<rom name="civ2 (Track 07).bin" size="29691648" crc="e1519256" md5="191840844edce12544dc8638a6afc556" sha1="70a05c8310f2aa4fb5ac03f10d94699d41e662d1" />
<rom name="civ2 (Track 08).bin" size="28520352" crc="e6797197" md5="5961a6644ab8699f6b7249e3b25c7fc4" sha1="7108b0f4ad310d30020b63b826cf545cae05e1c8" />
<rom name="civ2 (Track 09).bin" size="19474560" crc="c6133d87" md5="e54df90002c60fc85e31e2b10a7667e6" sha1="ad38fb0926f8932f706865e141289c56ba760dcb" />
<rom name="civ2 (Track 10).bin" size="26257728" crc="e01a19db" md5="f6380d0abde0baacaccb218605c41760" sha1="d23c22c2e4a740bbb0b70d398d6f848b733cc200" />

    Cuesheet:

CATALOG 0000000000000
FILE "civ2 (Track 01).bin" BINARY
  TRACK 01 MODE1/2352
    INDEX 01 00:00:00
FILE "civ2 (Track 02).bin" BINARY
  TRACK 02 AUDIO
    INDEX 00 00:00:00
    INDEX 01 00:02:00
FILE "civ2 (Track 03).bin" BINARY
  TRACK 03 AUDIO
    INDEX 01 00:00:00
FILE "civ2 (Track 04).bin" BINARY
  TRACK 04 AUDIO
    INDEX 01 00:00:00
FILE "civ2 (Track 05).bin" BINARY
  TRACK 05 AUDIO
    INDEX 01 00:00:00
FILE "civ2 (Track 06).bin" BINARY
  TRACK 06 AUDIO
    INDEX 01 00:00:00
FILE "civ2 (Track 07).bin" BINARY
  TRACK 07 AUDIO
    INDEX 01 00:00:00
FILE "civ2 (Track 08).bin" BINARY
  TRACK 08 AUDIO
    INDEX 01 00:00:00
FILE "civ2 (Track 09).bin" BINARY
  TRACK 09 AUDIO
    INDEX 01 00:00:00
FILE "civ2 (Track 10).bin" BINARY
  TRACK 10 AUDIO
    INDEX 01 00:00:00

    Write Offset: 0

Match: http://redump.org/disc/66315/
Logs: https://drive.google.com/file/d/1O3VjiU … sp=sharing

Common Disc Info:
    Title: Age of Empires: Gold Edition
    Foreign Title (Non-latin): 
    Disc Number / Letter: (OPTIONAL)
    Disc Title: (OPTIONAL)
    System: IBM PC Compatible
    Media Type: CD-ROM
    Category: Games
    Matching IDs: 66315
    Region: Europe
    Languages: English
    Disc Serial: 1298 Part No. X04-03878

    Ringcode Information:
        Mastering Code (laser branded/etched): DADC    X04-03881    12
        Mastering SID Code: IFPI L552
        Data-Side Mould SID Code: IFPI 9415
        Label-Side Mould SID Code: (REQUIRED, IF EXISTS)
        Additional Mould: (REQUIRED, IF EXISTS)
        Toolstamp or Mastering Code (engraved/stamped): B2
    Barcode: 6 59556 09860 5
    Error Count: 0
    Comments: [T:ISBN] (OPTIONAL)
    Contents: (OPTIONAL)

Version and Editions:
    Version: 1.0b
    Edition/Release: Original

Extras:
    Primary Volume Descriptor (PVD):

0320 : 20 20 20 20 20 20 20 20  20 20 20 20 20 31 39 39                199
0330 : 38 31 32 31 39 32 30 31  34 34 34 30 30 00 31 39   8121920144400.19
0340 : 39 38 31 32 31 39 32 30  31 34 34 34 30 30 00 32   98121920144400.2
0350 : 30 30 38 31 32 31 36 32  30 31 34 34 34 30 30 00   008121620144400.
0360 : 31 39 39 38 31 32 31 39  32 30 31 34 34 34 30 30   1998121920144400
0370 : 00 01 00 00 00 00 00 00  00 00 00 00 00 00 00 00   ................

Copy Protection:
    Copy Protection: 

Tracks and Write Offsets:
    DAT:

<rom name="AOEGold (Track 01).bin" size="323581104" crc="f910d0e4" md5="e96c7d88777e77201d8d6a1ba8625fa1" sha1="a6c3943ab2b802022f6af121f15f1c4976180e07" />
<rom name="AOEGold (Track 02).bin" size="12110448" crc="e70d9189" md5="878a03a4876aecfa5d4295cd8da1e615" sha1="c9f54c85d52476d56ca9f21f48b0ab2e5b1009f0" />
<rom name="AOEGold (Track 03).bin" size="3913728" crc="e9c3a24e" md5="009504b846a503404ced529cf4e89d7d" sha1="a1111a28f7c99606e64501e9c43184ebd8a077f4" />
<rom name="AOEGold (Track 04).bin" size="9273936" crc="29ed7428" md5="35bd05bf3242a03cddd9cdc7ab0cc9fc" sha1="36cfadfd393094dc467231d3b49a60cca64041c3" />
<rom name="AOEGold (Track 05).bin" size="22120560" crc="029d10e4" md5="0655cb796c44f755b77f383ce98b4c07" sha1="2ee4641e8db63e4ede4e6f3a31b41d81042a3c2e" />
<rom name="AOEGold (Track 06).bin" size="24274992" crc="428152b9" md5="386d98b3043ed5f206e268bd14bd7a5f" sha1="9f51e68c97cb5200893b472628ea4e894e949b43" />
<rom name="AOEGold (Track 07).bin" size="36912288" crc="9b90a20a" md5="7d381c6e9901ce9ee3468576e03a4380" sha1="b15328c0941a2f2ed4187d3981ae82d56f5d6f8c" />
<rom name="AOEGold (Track 08).bin" size="27553680" crc="9a0ff875" md5="7655df7538d51149ec6ffca6b885683a" sha1="87e2531a44f86904daa6bad12d6f49a11fa0ba49" />
<rom name="AOEGold (Track 09).bin" size="32457600" crc="7e758f1d" md5="94124610d0738b5e1bbdc96c91e58c9b" sha1="71e96005b05641f054c3ae57666828bac96ced79" />
<rom name="AOEGold (Track 10).bin" size="32866848" crc="6a5912a6" md5="cd37d11caa9208fae4b5c22bb391f57d" sha1="2ce25ee941bf5f93348676bcb25fa495bdced256" />
<rom name="AOEGold (Track 11).bin" size="33457200" crc="4815d84e" md5="7b3c62757850c10ce8d2de25bb6f89cb" sha1="28821933f522c51c1533d2bc01f129663271d3f2" />
<rom name="AOEGold (Track 12).bin" size="29649312" crc="0cdfa2da" md5="2a90d24073745388bb21a61a14a4fcfd" sha1="55c3d025a34a2c148d532d711fc9a382f9da1c65" />
<rom name="AOEGold (Track 13).bin" size="32252976" crc="2f8066b2" md5="17bf2334ae72e84950e65f4eb660110c" sha1="bece531fbba0b3c4b5903e7a914338905da74fdd" />
<rom name="AOEGold (Track 14).bin" size="29665776" crc="0c28f74a" md5="920c47a72da2178b869155a6b825db6d" sha1="724526beca456510dd443dc89acf1fd438237634" />
<rom name="AOEGold (Track 15).bin" size="15631392" crc="e799c5b7" md5="f0c830e1539124ec3625ce03386f6f0c" sha1="b41d8c0cb38dc3d56c6c9afc6c5afa559e233f03" />

    Cuesheet:

CATALOG 0000000000000
FILE "AOEGold (Track 01).bin" BINARY
  TRACK 01 MODE1/2352
    INDEX 01 00:00:00
FILE "AOEGold (Track 02).bin" BINARY
  TRACK 02 AUDIO
    INDEX 00 00:00:00
    INDEX 01 00:02:00
FILE "AOEGold (Track 03).bin" BINARY
  TRACK 03 AUDIO
    INDEX 01 00:00:00
FILE "AOEGold (Track 04).bin" BINARY
  TRACK 04 AUDIO
    INDEX 01 00:00:00
FILE "AOEGold (Track 05).bin" BINARY
  TRACK 05 AUDIO
    INDEX 01 00:00:00
FILE "AOEGold (Track 06).bin" BINARY
  TRACK 06 AUDIO
    INDEX 01 00:00:00
FILE "AOEGold (Track 07).bin" BINARY
  TRACK 07 AUDIO
    INDEX 01 00:00:00
FILE "AOEGold (Track 08).bin" BINARY
  TRACK 08 AUDIO
    INDEX 01 00:00:00
FILE "AOEGold (Track 09).bin" BINARY
  TRACK 09 AUDIO
    INDEX 01 00:00:00
FILE "AOEGold (Track 10).bin" BINARY
  TRACK 10 AUDIO
    INDEX 01 00:00:00
FILE "AOEGold (Track 11).bin" BINARY
  TRACK 11 AUDIO
    INDEX 01 00:00:00
FILE "AOEGold (Track 12).bin" BINARY
  TRACK 12 AUDIO
    INDEX 01 00:00:00
FILE "AOEGold (Track 13).bin" BINARY
  TRACK 13 AUDIO
    INDEX 01 00:00:00
FILE "AOEGold (Track 14).bin" BINARY
  TRACK 14 AUDIO
    INDEX 01 00:00:00
FILE "AOEGold (Track 15).bin" BINARY
  TRACK 15 AUDIO
    INDEX 01 00:00:00

    Write Offset: 0

Match: http://redump.org/disc/38098/
Logs: https://drive.google.com/file/d/14KI6_C … sp=sharing

Common Disc Info:
    Title: Settlers II, The: Veni, Vidi, Vici
    Foreign Title (Non-latin): 
    Disc Number / Letter: (OPTIONAL)
    Disc Title: (OPTIONAL)
    System: IBM PC Compatible
    Media Type: CD-ROM
    Category: Games
    Matching IDs: 38098
    Region: Europe
    Languages: English
    Disc Serial: (REQUIRED, IF EXISTS)

    Ringcode Information:
        Mastering Code (laser branded/etched): SONOPRESS CD-ROM M R-0427 C
        Mastering SID Code: IFPI L021
        Data-Side Mould SID Code: IFPI 0781
        Label-Side Mould SID Code: (REQUIRED, IF EXISTS)
        Additional Mould: (REQUIRED, IF EXISTS)
        Toolstamp or Mastering Code (engraved/stamped): (REQUIRED, IF EXISTS)
    Barcode: 4 014092 001438
    Error Count: 0
    Comments: [T:ISBN] (OPTIONAL)
    Contents: (OPTIONAL)

Version and Editions:
    Version: 1.02
    Edition/Release: Original

Extras:
    Primary Volume Descriptor (PVD):

0320 : 20 20 20 20 20 20 20 20  20 20 20 20 20 31 39 39                199
0330 : 36 30 35 30 39 30 39 33  32 30 35 30 30 00 31 39   6050909320500.19
0340 : 39 36 30 35 30 39 30 39  33 32 30 35 30 30 00 00   96050909320500..
0350 : 00 00 00 00 00 00 00 00  00 00 00 00 00 00 00 00   ................
0360 : 00 00 00 00 00 00 00 00  00 00 00 00 00 00 00 00   ................
0370 : 00 01 00 00 00 00 00 00  00 00 00 00 00 00 00 00   ................

Copy Protection:
    Copy Protection: 

Tracks and Write Offsets:
    DAT:

<rom name="SETTLERS2 (Track 1).bin" size="370891584" crc="99eb49bf" md5="8a1fde87a743d16026ee3a36a56de436" sha1="fd7ec0e0145a939e30447dc5648c44325dcad3bb" />
<rom name="SETTLERS2 (Track 2).bin" size="27499584" crc="2e104181" md5="3c3be232eca94fd6a69fff688f3be53b" sha1="9f6a80d998af8f9aef5b3338d6d71422ab5a7a3a" />
<rom name="SETTLERS2 (Track 3).bin" size="31582656" crc="50cd1d4d" md5="5f9ccf587a2debeb27cc2f6a6f6502d4" sha1="f8175bed350b0b5ac1bd872771a1a9819cddaaea" />
<rom name="SETTLERS2 (Track 4).bin" size="30785328" crc="6c7ff652" md5="949df6604075c5149111a8bc7c0bd5d6" sha1="31adaf133234b75a291fcd4967935e7707174a25" />
<rom name="SETTLERS2 (Track 5).bin" size="30641856" crc="3a73885c" md5="c1a3d1c905b47d6b3d882681b7140727" sha1="b2dcfebb1507cfce63456cb3cdc4d0bee158b22c" />
<rom name="SETTLERS2 (Track 6).bin" size="39553584" crc="d221a896" md5="9b8e88d9d85fced5ebdacf9c2f27897c" sha1="81d0e2be99bab30ef68f08b0569557bbd2ccd477" />
<rom name="SETTLERS2 (Track 7).bin" size="78180480" crc="7619a568" md5="a3115732fc9b6343d7ba73582556c27a" sha1="2389082f6fdba119a978d24da4049370013225b3" />
<rom name="SETTLERS2 (Track 8).bin" size="22736784" crc="52af1516" md5="d27f30ae98b3fca177d599639409d270" sha1="6c6e84c09eaf21455b9bdd9ebff7b9b95ae436e4" />
<rom name="SETTLERS2 (Track 9).bin" size="31396848" crc="7f169837" md5="4676b8b5aed3ffe298c4ddd345f8d7ea" sha1="d041553c1022027d840adc64e939a1f26f98a3c5" />

    Cuesheet:

CATALOG 0000000000000
FILE "SETTLERS2 (Track 1).bin" BINARY
  TRACK 01 MODE1/2352
    INDEX 01 00:00:00
FILE "SETTLERS2 (Track 2).bin" BINARY
  TRACK 02 AUDIO
    INDEX 00 00:00:00
    INDEX 01 00:02:00
FILE "SETTLERS2 (Track 3).bin" BINARY
  TRACK 03 AUDIO
    INDEX 00 00:00:00
    INDEX 01 00:02:00
FILE "SETTLERS2 (Track 4).bin" BINARY
  TRACK 04 AUDIO
    INDEX 00 00:00:00
    INDEX 01 00:02:00
FILE "SETTLERS2 (Track 5).bin" BINARY
  TRACK 05 AUDIO
    INDEX 00 00:00:00
    INDEX 01 00:02:00
FILE "SETTLERS2 (Track 6).bin" BINARY
  TRACK 06 AUDIO
    INDEX 00 00:00:00
    INDEX 01 00:02:00
FILE "SETTLERS2 (Track 7).bin" BINARY
  TRACK 07 AUDIO
    INDEX 00 00:00:00
    INDEX 01 00:02:00
FILE "SETTLERS2 (Track 8).bin" BINARY
  TRACK 08 AUDIO
    INDEX 00 00:00:00
    INDEX 01 00:02:00
FILE "SETTLERS2 (Track 9).bin" BINARY
  TRACK 09 AUDIO
    INDEX 00 00:00:00
    INDEX 01 00:02:00

    Write Offset: 0

14

(0 replies, posted in Verifications)

Match: http://redump.org/disc/34996/
Logs: https://drive.google.com/file/d/1Izu1YR … sp=sharing

Common Disc Info:
    Title: Delta Force 2
    Foreign Title (Non-latin): 
    Disc Number / Letter: (OPTIONAL)
    Disc Title: (OPTIONAL)
    System: IBM PC Compatible
    Media Type: CD-ROM
    Category: Games
    Matching IDs: 34996
    Region: Europe
    Languages: English
    Disc Serial: NVL 257 9764-01-301

    Ringcode Information:
        Mastering Code (laser branded/etched): deltaforce2 the producers ltd| 0010631
        Mastering SID Code: IFPI L055
        Data-Side Mould SID Code: IFPI 1L07
        Label-Side Mould SID Code: (REQUIRED, IF EXISTS)
        Additional Mould: (REQUIRED, IF EXISTS)
        Toolstamp or Mastering Code (engraved/stamped): (REQUIRED, IF EXISTS)
    Barcode: 5 029057 110321
    Error Count: 0
    Comments: [T:ISBN] (OPTIONAL)
    Contents: (OPTIONAL)

Version and Editions:
    Version: 1.04.19
    Edition/Release: Original

Extras:
    Primary Volume Descriptor (PVD):

0320 : 20 20 20 20 20 20 20 20  20 20 20 20 20 30 30 30                000
0330 : 30 30 30 30 30 30 30 30  30 30 30 30 30 00 30 30   0000000000000.00
0340 : 30 30 30 30 30 30 30 30  30 30 30 30 30 30 00 30   00000000000000.0
0350 : 30 30 30 30 30 30 30 30  30 30 30 30 30 30 30 00   000000000000000.
0360 : 30 30 30 30 30 30 30 30  30 30 30 30 30 30 30 30   0000000000000000
0370 : 00 01 00 00 00 00 00 00  00 00 00 00 00 00 00 00   ................

Copy Protection:
    Copy Protection: 

Tracks and Write Offsets:
    DAT:

<rom name="DELTAFORCE2.bin" size="829065888" crc="edb6e436" md5="9cdc1f0cc19356a852232a0b357594e5" sha1="e71151a69d99763f0160aa5305f7ecc53c58f933" />

    Cuesheet:

FILE "DELTAFORCE2.bin" BINARY
  TRACK 01 MODE1/2352
    INDEX 01 00:00:00

    Write Offset: -22

15

(0 replies, posted in Verifications)

Match: http://redump.org/disc/10770/
Logs: https://drive.google.com/file/d/1-y0Enx … sp=sharing

Common Disc Info:
    Title: Unreal Anthology
    Foreign Title (Non-latin): (OPTIONAL)
    Disc Number / Letter: (OPTIONAL)
    Disc Title: (OPTIONAL)
    System: IBM PC Compatible
    Media Type: DVD-ROM-9
    Category: Games
    Region: Europe
    Languages: English, French, German, Italian, Spanish
    Disc Serial: DVD-UTA-EU

    Ringcode Information:
        Inner Mastering Code (laser branded/etched): Sonopress arvato 52063231/DVD-UTA-EU D 21
        Inner Mastering SID Code: IFPI LB50
        Inner Toolstamp or Mastering Code (engraved/stamped): (REQUIRED, IF EXISTS)
        Outer Mastering Code (laser branded/etched): Sonopress arvato 52063232/DVD-UTA-EU DO 21
        Outer Mastering SID Code: IFPI LB45
        Outer Toolstamp or Mastering Code (engraved/stamped): (REQUIRED, IF EXISTS)
        Data-Side Mould SID Code: IFPI 07H6
        Label-Side Mould SID Code: (REQUIRED, IF EXISTS)
        Additional Mould: (REQUIRED, IF EXISTS)
    Barcode: 5 037930 060854
    Comments: Bundled with A History of Unreal Music.
    Contents: (OPTIONAL)

Version and Editions:
    Version: (REQUIRED, IF EXISTS)
    Edition/Release: Original

Extras:
    Primary Volume Descriptor (PVD):

0320 : 20 20 20 20 20 20 20 20  20 20 20 20 20 32 30 30                200
0330 : 36 31 30 32 35 31 32 34  38 30 30 30 00 E4 32 30   610251248000..20
0340 : 30 36 31 30 32 35 31 32  34 38 30 30 30 00 E4 30   0610251248000..0
0350 : 30 30 30 30 30 30 30 30  30 30 30 30 30 30 30 00   000000000000000.
0360 : 30 30 30 30 30 30 30 30  30 30 30 30 30 30 30 30   0000000000000000
0370 : 00 01 00 00 00 00 00 00  00 00 00 00 00 00 00 00   ................

Copy Protection:
    Copy Protection: 

Size & Checksum:
    Layerbreak: 1585472
    Size: 6494027776
    CRC32: 48500650
    MD5: a4f55a942798b010c811bd313f340309
    SHA1: ba303e16af9d1ff3a76913a63d10b673f9f6742a

Match: http://redump.org/disc/29227/
Logs: https://drive.google.com/file/d/1kFUtO6 … sp=sharing

Common Disc Info:
    Title: Die Siedler II: Gold Edition
    Foreign Title (Non-latin): 
    Disc Number / Letter: (OPTIONAL)
    Disc Title: (OPTIONAL)
    System: IBM PC Compatible
    Media Type: CD-ROM
    Category: Games
    Matching IDs: 29227
    Region: Germany
    Languages: German
    Disc Serial: (REQUIRED, IF EXISTS)

    Ringcode Information:
        Mastering Code (laser branded/etched): SONOPRESS ROMM T-2989 C
        Mastering SID Code: IFPI L030
        Data-Side Mould SID Code: IFPI 0788
        Label-Side Mould SID Code: (REQUIRED, IF EXISTS)
        Additional Mould: (REQUIRED, IF EXISTS)
        Toolstamp or Mastering Code (engraved/stamped): (REQUIRED, IF EXISTS)
    Barcode: 
    Error Count: 0
    Comments: [T:ISBN] (OPTIONAL)
    Contents: (OPTIONAL)

Version and Editions:
    Version: 1.51
    Edition/Release: Original

Extras:
    Primary Volume Descriptor (PVD):

0320 : 20 20 20 20 20 20 20 20  20 20 20 20 20 31 39 30                190
0330 : 34 30 32 31 34 32 33 34  30 35 33 30 30 00 31 39   4021423405300.19
0340 : 30 34 30 32 31 34 32 33  34 31 31 31 30 30 00 00   04021423411100..
0350 : 00 00 00 00 00 00 00 00  00 00 00 00 00 00 00 00   ................
0360 : 00 00 00 00 00 00 00 00  00 00 00 00 00 00 00 00   ................
0370 : 00 01 00 00 00 00 00 00  00 00 00 00 00 00 00 00   ................

Copy Protection:
    Copy Protection: 

Tracks and Write Offsets:
    DAT:

<rom name="S2_GOLD (Track 1).bin" size="443568384" crc="c7222e6a" md5="7e25e61513c9c72a8eb59df77da125b8" sha1="c3d22ff3185dcf0419ab50b2532615fb68358890" />
<rom name="S2_GOLD (Track 2).bin" size="27499584" crc="1d88d8a8" md5="457448124d72da27af4c21d128bea4d1" sha1="3d752b66c3bb06a4a1170949b0f193da54e5d307" />
<rom name="S2_GOLD (Track 3).bin" size="31582656" crc="50cd1d4d" md5="5f9ccf587a2debeb27cc2f6a6f6502d4" sha1="f8175bed350b0b5ac1bd872771a1a9819cddaaea" />
<rom name="S2_GOLD (Track 4).bin" size="30785328" crc="9461c148" md5="11e6147c6bab0c98ba4ccae356352320" sha1="5b09a1266d793bafcd1c6cd1fabb364b9819d6dc" />
<rom name="S2_GOLD (Track 5).bin" size="30641856" crc="504a2def" md5="905d3620a023b36ba495ed0ce3b09471" sha1="cdd8303e4e5cf8a8175b7b4e1e00f87fa1a7c3b5" />
<rom name="S2_GOLD (Track 6).bin" size="39553584" crc="9247af14" md5="791bff115e095f69e77ac0c7bc68e9fc" sha1="1c43e2d1bbde41054d50dea060162ff2e5505238" />
<rom name="S2_GOLD (Track 7).bin" size="78180480" crc="c36d0639" md5="cf0b59def915c9d27c2f49ca1dc5d399" sha1="54fc9dfcdf1991bafcd56a7ff32b7cbabdf102b8" />
<rom name="S2_GOLD (Track 8).bin" size="22736784" crc="8a5acc72" md5="dfd8c2a777e7f0716a956c1da9c00b10" sha1="16f72aa9dc5b6208959693a0b909bb8052db1dae" />
<rom name="S2_GOLD (Track 9).bin" size="31044048" crc="5c90db1b" md5="99df353b6d60e17fb2ed9e33780cf7ea" sha1="266e3190b04454149ec8ae9a0e33729a478e6486" />

    Cuesheet:

CATALOG 0000000000000
FILE "S2_GOLD (Track 1).bin" BINARY
  TRACK 01 MODE1/2352
    INDEX 01 00:00:00
FILE "S2_GOLD (Track 2).bin" BINARY
  TRACK 02 AUDIO
    INDEX 00 00:00:00
    INDEX 01 00:02:00
FILE "S2_GOLD (Track 3).bin" BINARY
  TRACK 03 AUDIO
    INDEX 00 00:00:00
    INDEX 01 00:02:00
FILE "S2_GOLD (Track 4).bin" BINARY
  TRACK 04 AUDIO
    INDEX 00 00:00:00
    INDEX 01 00:02:00
FILE "S2_GOLD (Track 5).bin" BINARY
  TRACK 05 AUDIO
    INDEX 00 00:00:00
    INDEX 01 00:02:00
FILE "S2_GOLD (Track 6).bin" BINARY
  TRACK 06 AUDIO
    INDEX 00 00:00:00
    INDEX 01 00:02:00
FILE "S2_GOLD (Track 7).bin" BINARY
  TRACK 07 AUDIO
    INDEX 00 00:00:00
    INDEX 01 00:02:00
FILE "S2_GOLD (Track 8).bin" BINARY
  TRACK 08 AUDIO
    INDEX 00 00:00:00
    INDEX 01 00:02:00
FILE "S2_GOLD (Track 9).bin" BINARY
  TRACK 09 AUDIO
    INDEX 00 00:00:00
    INDEX 01 00:02:00

    Write Offset: 0

17

(0 replies, posted in Verifications)

Match: http://redump.org/disc/46016/
Logs: https://drive.google.com/file/d/1foJ_3N … sp=sharing

Common Disc Info:
    Title: Age of Wonders
    Foreign Title (Non-latin): 
    Disc Number / Letter: (OPTIONAL)
    Disc Title: (OPTIONAL)
    System: IBM PC Compatible
    Media Type: CD-ROM
    Category: Games
    Matching IDs: 46016
    Region: USA
    Languages: English
    Disc Serial: (REQUIRED, IF EXISTS)

    Ringcode Information:
        Mastering Code (laser branded/etched): Mfg by Q-Media    BRI -     005
        Mastering SID Code: IFPI LK79
        Data-Side Mould SID Code: (REQUIRED, IF EXISTS)
        Label-Side Mould SID Code: (REQUIRED, IF EXISTS)
        Additional Mould: (REQUIRED, IF EXISTS)
        Toolstamp or Mastering Code (engraved/stamped): (REQUIRED, IF EXISTS)
    Barcode: (OPTIONAL)
    Error Count: 0
    Comments: [T:ISBN] (OPTIONAL)
    Contents: (OPTIONAL)

Version and Editions:
    Version: 1.0
    Edition/Release: Original

Extras:
    Primary Volume Descriptor (PVD):

0320 : 20 20 20 20 20 20 20 20  20 20 20 20 20 31 39 39                199
0330 : 39 31 30 32 38 31 35 31  32 34 30 30 30 00 31 39   9102815124000.19
0340 : 39 39 31 30 32 38 31 35  31 32 34 30 30 30 00 30   99102815124000.0
0350 : 30 30 30 30 30 30 30 30  30 30 30 30 30 30 30 00   000000000000000.
0360 : 30 30 30 30 30 30 30 30  30 30 30 30 30 30 30 30   0000000000000000
0370 : 00 01 00 00 00 00 00 00  00 00 00 00 00 00 00 00   ................

Copy Protection:
    Copy Protection: J:\data1.hdr: CD Check, CD Check, CD Check, CD Check, CD Check, CD Check

Tracks and Write Offsets:
    DAT:

<rom name="AOW.bin" size="374647728" crc="73487e65" md5="b85486312cdab69f80e49b3d3fb07ed2" sha1="b97e4fa7d358f89a6d5164ef658aca027a60d5b6" />

    Cuesheet:

FILE "AOW.bin" BINARY
  TRACK 01 MODE2/2352
    INDEX 01 00:00:00

    Write Offset: -12

CD3

Match: http://redump.org/disc/39272/
Logs: https://drive.google.com/file/d/1X1dS-V … sp=sharing

Common Disc Info:
    Title: Commandos 3: Destination Berlin
    Foreign Title (Non-latin): 
    Disc Number / Letter: 3
    Disc Title: (OPTIONAL)
    System: IBM PC Compatible
    Media Type: CD-ROM
    Category: Games
    Matching IDs: 39272
    Region: Europe
    Languages: English
    Disc Serial: MCOM3PEN83

    Ringcode Information:
        Mastering Code (laser branded/etched): www.disctronics.com    MCOM 3 PEN 83 01
        Mastering SID Code: IFPI L502
        Data-Side Mould SID Code: IFPI 8724
        Label-Side Mould SID Code: (REQUIRED, IF EXISTS)
        Additional Mould: (REQUIRED, IF EXISTS)
        Toolstamp or Mastering Code (engraved/stamped): (REQUIRED, IF EXISTS)
    Barcode: 5 032921 019675
    Error Count: 1
    Comments: [T:ISBN] (OPTIONAL)
    Contents: (OPTIONAL)

Version and Editions:
    Version: (REQUIRED, IF EXISTS)
    Edition/Release: Original

Extras:
    Primary Volume Descriptor (PVD):

0320 : 20 20 20 20 20 20 20 20  20 20 20 20 20 32 30 30                200
0330 : 33 31 30 30 33 31 32 35  39 35 31 30 30 00 32 30   3100312595100.20
0340 : 30 33 31 30 30 33 31 32  35 39 35 31 30 30 00 30   03100312595100.0
0350 : 30 30 30 30 30 30 30 30  30 30 30 30 30 30 30 00   000000000000000.
0360 : 30 30 30 30 30 30 30 30  30 30 30 30 30 30 30 30   0000000000000000
0370 : 00 01 00 00 00 00 00 00  00 00 00 00 00 00 00 00   ................

Copy Protection:
    Copy Protection: J:\Commandos3.exe: CD Check, SecuROM 4.85.07.0056
    SubIntention Data (SecuROM/LibCrypt):

MSF: 00:01:74 Q-Data: 410100 00:40:01 00 00:03:74 2ef1
MSF: 01:08:50 Q-Data: 410101 21:06:50 00 05:08:50 0a8f
MSF: 01:12:13 Q-Data: 410101 01:12:13 00 01:52:13 f64f
MSF: 01:40:21 Q-Data: 410101 01:38:01 00 01:40:25 f8a4
MSF: 01:41:45 Q-Data: 410101 01:39:44 00 01:41:c5 32cd
MSF: 01:42:54 Q-Data: 410101 00:40:54 00 81:42:54 c6fb
MSF: 01:52:66 Q-Data: 410101 01:50:46 00 01:52:62 8170
MSF: 02:10:16 Q-Data: 410101 42:08:16 00 00:10:16 75cb
MSF: 02:23:38 Q-Data: 410101 02:21:30 00 02:23:28 5a57
MSF: 03:19:09 Q-Data: 410101 03:37:09 00 03:1d:09 1df8
MSF: 03:28:50 Q-Data: 410101 03:26:70 00 03:28:54 37e2

Tracks and Write Offsets:
    DAT:

<rom name="COMM3_3.bin" size="360775632" crc="e889a367" md5="2a4cc2f637df727d3a616f32ee8d4e4c" sha1="750a4a7cfda00624cd988afe1da87c2e9b12e77d" />

    Cuesheet:

FILE "COMM3_3.bin" BINARY
  TRACK 01 MODE1/2352
    INDEX 01 00:00:00

    Write Offset: -12

CD2

Match: http://redump.org/disc/39271/
Logs: https://drive.google.com/file/d/1PzjrTr … sp=sharing

Common Disc Info:
    Title: Commandos 3: Destination Berlin
    Foreign Title (Non-latin): 
    Disc Number / Letter: 2
    Disc Title: (OPTIONAL)
    System: IBM PC Compatible
    Media Type: CD-ROM
    Category: Games
    Matching IDs: 39271
    Region: Europe
    Languages: English
    Disc Serial: MCOM3PEN82

    Ringcode Information:
        Mastering Code (laser branded/etched): www.disctronics.com    MCOM 3 PEN 82 01
        Mastering SID Code: IFPI L502
        Data-Side Mould SID Code: IFPI 6223
        Label-Side Mould SID Code: (REQUIRED, IF EXISTS)
        Additional Mould: (REQUIRED, IF EXISTS)
        Toolstamp or Mastering Code (engraved/stamped): (REQUIRED, IF EXISTS)
    Barcode: 5 032921 019675
    Error Count: 0
    Comments: [T:ISBN] (OPTIONAL)
    Contents: (OPTIONAL)

Version and Editions:
    Version: (REQUIRED, IF EXISTS)
    Edition/Release: Original

Extras:
    Primary Volume Descriptor (PVD):

0320 : 20 20 20 20 20 20 20 20  20 20 20 20 20 32 30 30                200
0330 : 33 31 30 30 33 31 32 33  35 33 36 30 30 00 32 30   3100312353600.20
0340 : 30 33 31 30 30 33 31 32  33 35 33 36 30 30 00 30   03100312353600.0
0350 : 30 30 30 30 30 30 30 30  30 30 30 30 30 30 30 00   000000000000000.
0360 : 30 30 30 30 30 30 30 30  30 30 30 30 30 30 30 30   0000000000000000
0370 : 00 01 00 00 00 00 00 00  00 00 00 00 00 00 00 00   ................

Copy Protection:
    Copy Protection: None found

Tracks and Write Offsets:
    DAT:

<rom name="COMM3_2.bin" size="783629952" crc="dc95582f" md5="7bf4830e882ee2f1b20ef8dd6b1277ac" sha1="20179802d5e0009e7b3899e0d1f623665104bb24" />

    Cuesheet:

FILE "COMM3_2.bin" BINARY
  TRACK 01 MODE1/2352
    INDEX 01 00:00:00

    Write Offset: 0

CD1

Match: http://redump.org/disc/39270/
Logs: https://drive.google.com/file/d/1C3t3iG … sp=sharing

Common Disc Info:
    Title: Commandos 3: Destination Berlin
    Foreign Title (Non-latin): 
    Disc Number / Letter: 1
    Disc Title: (OPTIONAL)
    System: IBM PC Compatible
    Media Type: CD-ROM
    Category: Games
    Matching IDs: 39270
    Region: Europe
    Languages: English
    Disc Serial: MCOM3PEN81

    Ringcode Information:
        Mastering Code (laser branded/etched): DISCTRONICS MCOM3PEN81/1 02
        Mastering SID Code: IFPI L138
        Data-Side Mould SID Code: IFPI 04AB
        Label-Side Mould SID Code: (REQUIRED, IF EXISTS)
        Additional Mould: (REQUIRED, IF EXISTS)
        Toolstamp or Mastering Code (engraved/stamped): (REQUIRED, IF EXISTS)
    Barcode: 5 032921 019675
    Error Count: 0
    Comments: [T:ISBN] (OPTIONAL)
    Contents: (OPTIONAL)

Version and Editions:
    Version: (REQUIRED, IF EXISTS)
    Edition/Release: Original

Extras:
    Primary Volume Descriptor (PVD):

0320 : 20 20 20 20 20 20 20 20  20 20 20 20 20 32 30 30                200
0330 : 33 31 30 30 33 31 32 32  35 30 32 30 30 00 32 30   3100312250200.20
0340 : 30 33 31 30 30 33 31 32  32 35 30 32 30 30 00 30   03100312250200.0
0350 : 30 30 30 30 30 30 30 30  30 30 30 30 30 30 30 00   000000000000000.
0360 : 30 30 30 30 30 30 30 30  30 30 30 30 30 30 30 30   0000000000000000
0370 : 00 01 00 00 00 00 00 00  00 00 00 00 00 00 00 00   ................

Copy Protection:
    Copy Protection: None found

Tracks and Write Offsets:
    DAT:

<rom name="COMM3_1.bin" size="783622896" crc="79b0f0eb" md5="d705b0d4a14403e348181f04a6578994" sha1="21a26de6e6d01f9927bcab8457386720cb12d584" />

    Cuesheet:

FILE "COMM3_1.bin" BINARY
  TRACK 01 MODE1/2352
    INDEX 01 00:00:00

    Write Offset: -12

21

(0 replies, posted in Verifications)

Match: http://redump.org/disc/36573/
Logs: https://drive.google.com/file/d/1EbtvkK … sp=sharing

Common Disc Info:
    Title: SimCity 4 Deluxe Edition
    Foreign Title (Non-latin): 
    Disc Number / Letter: 1
    Disc Title: (OPTIONAL)
    System: IBM PC Compatible
    Media Type: CD-ROM
    Category: Games
    Matching IDs: 36573
    Region: Europe
    Languages: Danish, Dutch, English, Finnish, French, German, Italian, Norwegian, Polish, Portuguese, Spanish, Swedish
    Disc Serial: MXX08004179D

    Ringcode Information:
        Mastering Code (laser branded/etched): Sony DADC    MXX08004179DONER0
        Mastering SID Code: IFPI LY33
        Data-Side Mould SID Code: IFPI AEW16
        Label-Side Mould SID Code: (REQUIRED, IF EXISTS)
        Additional Mould: (REQUIRED, IF EXISTS)
        Toolstamp or Mastering Code (engraved/stamped): (REQUIRED, IF EXISTS)
    Barcode: 5 030930 036386
    Error Count: 0
    Comments: [T:ISBN] (OPTIONAL)
    Contents: (OPTIONAL)

Version and Editions:
    Version: 1.1.613.0
    Edition/Release: Original

Extras:
    Primary Volume Descriptor (PVD):

0320 : 20 20 20 20 20 20 20 20  20 20 20 20 20 32 30 30                200
0330 : 33 30 39 30 33 31 36 31  35 33 33 30 30 00 32 30   3090316153300.20
0340 : 30 33 30 39 30 33 31 36  31 35 33 33 30 30 00 30   03090316153300.0
0350 : 30 30 30 30 30 30 30 30  30 30 30 30 30 30 30 00   000000000000000.
0360 : 30 30 30 30 30 30 30 30  30 30 30 30 30 30 30 30   0000000000000000
0370 : 00 01 00 00 00 00 00 00  00 00 00 00 00 00 00 00   ................

Copy Protection:
    Copy Protection:

J:\: SafeDisc 2.90-3.10
J:\Apps\00000000.016: SafeDisc 1
J:\Apps\00000000.256: SafeDisc 1
J:\Apps\DRVMGT.DLL: SafeDisc 2.90-3.10
J:\Apps\SECDRV.SYS: SafeDisc 2.90
J:\Support\SimCity 4 Deluxe_EZ.exe: CD Check, EA CdKey Registration Module
J:\Support\SimCity 4 Deluxe_code.exe: CD Check, EA CdKey Registration Module
J:\Support\SimCity 4 Deluxe_eReg.exe: CD Check, EA CdKey Registration Module
J:\Support\SimCity 4 Deluxe_uninst.exe: EA CdKey Registration Module
J:\Support\go_ez.exe: EA CdKey Registration Module

Tracks and Write Offsets:
    DAT:

<rom name="SC4DELUXE1.bin" size="773337600" crc="aa391791" md5="fc178ada7d11dcc0e0c3b9da66a03faa" sha1="93537363a468bb05bc600716ad1140595d4df863" />

    Cuesheet:

FILE "SC4DELUXE1.bin" BINARY
  TRACK 01 MODE1/2352
    INDEX 01 00:00:00

    Write Offset: -12

22

(0 replies, posted in Verifications)

Match: http://redump.org/disc/37490/
Logs: https://drive.google.com/file/d/1ZyZ5Hb … sp=sharing

Common Disc Info:
    Title: Fallout 3
    Foreign Title (Non-latin): (OPTIONAL)
    Disc Number / Letter: (OPTIONAL)
    Disc Title: (OPTIONAL)
    System: IBM PC Compatible
    Media Type: DVD-ROM-9
    Category: Games
    Region: Europe
    Languages: English
    Disc Serial: (REQUIRED, IF EXISTS)

    Ringcode Information:
        Inner Mastering Code (laser branded/etched): arvato digital services BERTELSMANN 53264177/BS300602E0000 D 21
        Inner Mastering SID Code: IFPI LP73
        Inner Toolstamp or Mastering Code (engraved/stamped): (REQUIRED, IF EXISTS)
        Outer Mastering Code (laser branded/etched): arvato digital services BERTELSMANN 53263666/BS300302E0000 DO 22
        Outer Mastering SID Code: IFPI LB47
        Outer Toolstamp or Mastering Code (engraved/stamped): (REQUIRED, IF EXISTS)
        Data-Side Mould SID Code: IFPI 0714
        Label-Side Mould SID Code: (REQUIRED, IF EXISTS)
        Additional Mould: (REQUIRED, IF EXISTS)
    Barcode: 0 093155 125605
    Comments: [T:ISBN] (OPTIONAL)
    Contents: (OPTIONAL)

Version and Editions:
    Version: 1.0.9.0
    Edition/Release: Original

Extras:
    Primary Volume Descriptor (PVD): 

Copy Protection:
    Copy Protection:

K:\data1.hdr: CD Check, CD Check, Games for Windows - Live
K:\FalloutLauncher.exe: CD Check, SecuROM 7.38.0006

Size & Checksum:
    Layerbreak: 1445072
    Size: 5919014912
    CRC32: 6b573dd5
    MD5: 1f33267016799684adb79ed6f0ee7ae6
    SHA1: cc8b6fa044571f7e79839479aa36e9ae2252e14a

CD3

Match: http://redump.org/disc/65348/
Logs: https://drive.google.com/file/d/1N0dL2W … sp=sharing

Common Disc Info:
    Title: Fallout Tactics: Brotherhood of Steel
    Foreign Title (Non-latin): 
    Disc Number / Letter: 3
    Disc Title: (OPTIONAL)
    System: IBM PC Compatible
    Media Type: CD-ROM
    Category: Games
    Matching IDs: 65348
    Region: Europe
    Languages: English
    Disc Serial: CD-W58-1237-E3

    Ringcode Information:
        Mastering Code (laser branded/etched): Sono press 50992864/CDW581237-E3 01
        Mastering SID Code: IFPI LB44
        Data-Side Mould SID Code: IFPI 0769
        Label-Side Mould SID Code: (REQUIRED, IF EXISTS)
        Additional Mould: (REQUIRED, IF EXISTS)
        Toolstamp or Mastering Code (engraved/stamped): (REQUIRED, IF EXISTS)
    Barcode: 5 026102 007742
    Error Count: 0
    Comments: [T:ISBN] (OPTIONAL)
    Contents: (OPTIONAL)

Version and Editions:
    Version: 1.13
    Edition/Release: The Ultimate Collection

Extras:
    Primary Volume Descriptor (PVD):

0320 : 20 20 20 20 20 20 20 20  20 20 20 20 20 32 30 30                200
0330 : 31 30 33 30 37 31 33 34  31 30 32 30 30 00 32 30   1030713410200.20
0340 : 30 31 30 33 30 37 31 33  34 31 30 32 30 30 00 30   01030713410200.0
0350 : 30 30 30 30 30 30 30 30  30 30 30 30 30 30 30 00   000000000000000.
0360 : 30 30 30 30 30 30 30 30  30 30 30 30 30 30 30 30   0000000000000000
0370 : 00 01 00 00 00 00 00 00  00 00 00 00 00 00 00 00   ................

Copy Protection:
    Copy Protection: None found

Tracks and Write Offsets:
    DAT:

<rom name="FOT_CD3.bin" size="742521696" crc="9ece0eea" md5="817b5ae6a1682c14e41edce54d3b17fb" sha1="37c31032d96af3f872f8cf64e4b82bc8b24f1830" />

    Cuesheet:

FILE "FOT_CD3.bin" BINARY
  TRACK 01 MODE1/2352
    INDEX 01 00:00:00

    Write Offset: -12

CD2

Match: http://redump.org/disc/65347/
Logs: https://drive.google.com/file/d/1n0UER2 … sp=sharing

Common Disc Info:
    Title: Fallout Tactics: Brotherhood of Steel
    Foreign Title (Non-latin): 
    Disc Number / Letter: 2
    Disc Title: (OPTIONAL)
    System: IBM PC Compatible
    Media Type: CD-ROM
    Category: Games
    Matching IDs: 65347
    Region: Europe
    Languages: English
    Disc Serial: CD-W58-1237-E2

    Ringcode Information:
        Mastering Code (laser branded/etched): Sono press 50992861/CDW581237-E2 02
        Mastering SID Code: IFPI LB44
        Data-Side Mould SID Code: IFPI 0742
        Label-Side Mould SID Code: (REQUIRED, IF EXISTS)
        Additional Mould: (REQUIRED, IF EXISTS)
        Toolstamp or Mastering Code (engraved/stamped): (REQUIRED, IF EXISTS)
    Barcode: 5 026102 007742
    Error Count: 0
    Comments: [T:ISBN] (OPTIONAL)
    Contents: (OPTIONAL)

Version and Editions:
    Version: 1.13
    Edition/Release: The Ultimate Collection

Extras:
    Primary Volume Descriptor (PVD):

0320 : 20 20 20 20 20 20 20 20  20 20 20 20 20 32 30 30                200
0330 : 31 30 33 30 37 31 32 32  31 31 30 30 30 00 32 30   1030712211000.20
0340 : 30 31 30 33 30 37 31 32  32 31 31 30 30 30 00 30   01030712211000.0
0350 : 30 30 30 30 30 30 30 30  30 30 30 30 30 30 30 00   000000000000000.
0360 : 30 30 30 30 30 30 30 30  30 30 30 30 30 30 30 30   0000000000000000
0370 : 00 01 00 00 00 00 00 00  00 00 00 00 00 00 00 00   ................

Copy Protection:
    Copy Protection: None found

Tracks and Write Offsets:
    DAT:

<rom name="FOT_CD2.bin" size="760338096" crc="518aeb69" md5="b3fad53f4c5614f68ad531100683c0db" sha1="164f89401128b2369b376c93b8e12ba22ffacbbf" />

    Cuesheet:

FILE "FOT_CD2.bin" BINARY
  TRACK 01 MODE1/2352
    INDEX 01 00:00:00

    Write Offset: -12

This is Fallout Tactics from "Fallout: The Ultimate Collection" pack. There are 6 CDs; Fallout, Fallout 2, Fallout Radioactive, Fallout Tactics CD1,CD2,CD3. I have posted other 3 CDs as new dumps and Tactics already matches with the originals, therefore I'm posting them here

CD1

Match: http://redump.org/disc/65346/
Logs: https://drive.google.com/file/d/1aQlsrj … sp=sharing

Common Disc Info:
    Title: Fallout Tactics: Brotherhood of Steel
    Foreign Title (Non-latin): 
    Disc Number / Letter: 1
    Disc Title: (OPTIONAL)
    System: IBM PC Compatible
    Media Type: CD-ROM
    Category: Games
    Matching IDs: 65346
    Region: Europe
    Languages: English
    Disc Serial: CD-W58-1237-E1

    Ringcode Information:
        Mastering Code (laser branded/etched): Sono press 50992844/CDW581237-E1 01
        Mastering SID Code: IFPI LB46
        Data-Side Mould SID Code: IFPI 0740
        Label-Side Mould SID Code: (REQUIRED, IF EXISTS)
        Additional Mould: (REQUIRED, IF EXISTS)
        Toolstamp or Mastering Code (engraved/stamped): (REQUIRED, IF EXISTS)
    Barcode: 5 026102 007742
    Error Count: 0
    Comments: [T:ISBN] (OPTIONAL)
    Contents: (OPTIONAL)

Version and Editions:
    Version: 1.13
    Edition/Release: The Ultimate Collection

Extras:
    Primary Volume Descriptor (PVD):

0320 : 20 20 20 20 20 20 20 20  20 20 20 20 20 32 30 30                200
0330 : 31 30 33 30 39 31 32 32  36 30 37 30 30 00 32 30   1030912260700.20
0340 : 30 31 30 33 30 39 31 32  32 36 30 37 30 30 00 30   01030912260700.0
0350 : 30 30 30 30 30 30 30 30  30 30 30 30 30 30 30 00   000000000000000.
0360 : 30 30 30 30 30 30 30 30  30 30 30 30 30 30 30 30   0000000000000000
0370 : 00 01 00 00 00 00 00 00  00 00 00 00 00 00 00 00   ................

Copy Protection:
    Copy Protection: 

Tracks and Write Offsets:
    DAT:

<rom name="FOT_CD1.bin" size="700766640" crc="648d56dd" md5="8379b436c48385e11467060345991094" sha1="804ce010ac231a4c909b7beeb3e99d55171dd547" />

    Cuesheet:

FILE "FOT_CD1.bin" BINARY
  TRACK 01 MODE1/2352
    INDEX 01 00:00:00

    Write Offset: 0