Then also don’t forget to reread the DM, and fufil what you promised last year. I don’t want this to be in Limbo any longer, let just finish it once for all within this month. Thank you

http://redump.org/disc/70550/

https://mega.nz/file/cRFRWQCJ#QjqmaQ1qJ … S1x0Vv21Jk

Common Disc Info:
    Title: Commandos 2: Men of Courage 
    Disc Number / Letter: 3
    System: IBM PC compatible
    Media Type: CD-ROM
    Category: Games
    Region: Europe, Asia
    Languages: English

    Ringcode Information:
        Data Side Mastering Code (laser branded/etched): COMMANDOS 2 DISC3    (CI171B)
        Data Side Mastering SID Code: IFPI LB22
    Error Count: 571
    Comments: Regions dumped: Europe, India. The Indian release does not have barcode and disc serial, "For Sale in India Only. PKD 09/2001" printed on its big box

Version and Editions:
    Version: 1.00
    Edition/Release: Original

Extras:
    Primary Volume Descriptor (PVD):

0320 : 20 20 20 20 20 20 20 20  20 20 20 20 20 32 30 30                200
0330 : 31 30 39 30 37 32 33 35  32 32 33 30 30 00 32 30   1090723522300.20
0340 : 30 31 30 39 30 37 32 33  35 32 32 33 30 30 00 30   01090723522300.0
0350 : 30 30 30 30 30 30 30 30  30 30 30 30 30 30 30 00   000000000000000.
0360 : 30 30 30 30 30 30 30 30  30 30 30 30 30 30 30 30   0000000000000000
0370 : 00 01 00 00 00 00 00 00  00 00 00 00 00 00 00 00   ................

Copy Protection:
    SafeDisc 2.30.033

Tracks and Write Offsets:
    DAT:

<rom name="Commandos 2 INDIA CD3.bin" size="733280688" crc="86555566" md5="a0575508b8b909b8e0a2c637d3a0c313" sha1="dd0b077997fab11c368a68944ebb522ef77879a4" />

    Cuesheet:

FILE "Commandos 2 INDIA CD3.bin" BINARY
  TRACK 01 MODE1/2352
    INDEX 01 00:00:00

    Write Offset: -12

http://redump.org/disc/30224/

https://mega.nz/file/lQMyWDbT#hdA5tHCKF … kztVpu-SqQ

Common Disc Info:
    Title: Commandos 2: Men of Courage 
    Disc Number / Letter: 2
    System: IBM PC compatible
    Media Type: CD-ROM
    Category: Games
    Region: Europe, Asia
    Languages: English

    Ringcode Information:
        Data Side Mastering Code (laser branded/etched): COMMANDOS 2 DISC2    (CI151A)
        Data Side Mastering SID Code: IFPI LB22
    Comments: Regions dumped: Europe, India. The Indian release does not have barcode and disc serial, "For Sale in India Only. PKD 09/2001" printed on its big box
    Error Count: 0

Version and Editions:
    Version: 1.00
    Edition/Release: Original

Extras:
    Primary Volume Descriptor (PVD):

0320 : 20 20 20 20 20 20 20 20  20 20 20 20 20 32 30 30                200
0330 : 31 30 39 30 37 32 32 30  37 30 33 30 30 00 32 30   1090722070300.20
0340 : 30 31 30 39 30 37 32 32  30 37 30 33 30 30 00 30   01090722070300.0
0350 : 30 30 30 30 30 30 30 30  30 30 30 30 30 30 30 00   000000000000000.
0360 : 30 30 30 30 30 30 30 30  30 30 30 30 30 30 30 30   0000000000000000
0370 : 00 01 00 00 00 00 00 00  00 00 00 00 00 00 00 00   ................

Tracks and Write Offsets:
    DAT:

<rom name="Commandos 2 INDIA CD2.bin" size="455725872" crc="61faeb65" md5="69cc56aea2370ec4f3224064bcf100d2" sha1="22e27551daf641cc57662dd1cbb3247d7efd8cfd" />

    Cuesheet:

FILE "Commandos 2 INDIA CD2.bin" BINARY
  TRACK 01 MODE1/2352
    INDEX 01 00:00:00

    Write Offset: -12

http://redump.org/disc/30223/

https://mega.nz/file/sUs2VApQ#ELG8TA88N … pLUMiFPubc

Common Disc Info:
    Title: Commandos 2: Men of Courage 
    Disc Number / Letter: 1
    System: IBM PC compatible
    Media Type: CD-ROM
    Category: Games
    Region: Europe, Asia
    Languages: English

    Ringcode Information:
        Data Side Mastering Code (laser branded/etched): COMMANDOS 2 DISC1    (CI151A)
        Data Side Mastering SID Code: IFPI LB22
        Mould SID: IFPI 4K2C
    Comments: Regions dumped: Europe, India. The Indian release does not have barcode and disc serial, "For Sale in India Only. PKD 09/2001" printed on its big box
    Error Count: 0

Version and Editions:
    Version: 1.00
    Edition/Release: Original

Extras:
    Primary Volume Descriptor (PVD):

0320 : 20 20 20 20 20 20 20 20  20 20 20 20 20 32 30 30                200
0330 : 31 30 39 30 37 32 31 33  35 32 35 30 30 00 32 30   1090721352500.20
0340 : 30 31 30 39 30 37 32 31  33 35 32 35 30 30 00 30   01090721352500.0
0350 : 30 30 30 30 30 30 30 30  30 30 30 30 30 30 30 00   000000000000000.
0360 : 30 30 30 30 30 30 30 30  30 30 30 30 30 30 30 30   0000000000000000
0370 : 00 01 00 00 00 00 00 00  00 00 00 00 00 00 00 00   ................

Tracks and Write Offsets:
    DAT:

<rom name="Commandos 2 INDIA CD1.bin" size="783646416" crc="3d787ed8" md5="e6569df6d4103fb4190fcfec2c60f37d" sha1="027bbae0273e314e7a1b63965cadf2f980e0cf0a" />

    Cuesheet:

FILE "Commandos 2 INDIA CD1.bin" BINARY
  TRACK 01 MODE1/2352
    INDEX 01 00:00:00

    Write Offset: -12

http://redump.org/disc/21794/

https://mega.nz/file/MJEUEZjZ#AFsaes9op … 1mQGVLXU6M

Common Disc Info:
    Title: South Park
    System: IBM PC compatible
    Media Type: CD-ROM
    Category: Games
    Region: USA
    Languages: English, French, Portuguese, Spanish, GERMAN

    Ringcode Information:
        Data Side Mastering Code (laser branded/etched): DADC   A0100271628-0101   15
        Data Side Mastering SID Code: IFPI L555
        Mould SID: IFPI 94Z4
        Toolstamp: A1
    Barcode: 0 21481 94173 6
    Comment: "Made in Austria" printed on disc label, voices in English
    Error Count: 1

Version and Editions:
    Edition/Release: Original

Extras:
    Primary Volume Descriptor (PVD):

0320 : 20 20 20 20 20 20 20 20  20 20 20 20 20 31 39 39                199
0330 : 39 30 32 30 38 31 36 32  30 31 37 37 33 B9 31 39   9020816201773.19
0340 : 39 39 30 32 30 38 31 36  32 34 30 37 33 37 5C 00   99020816240737\.
0350 : 00 00 00 00 00 00 00 00  00 00 00 00 00 00 00 00   ................
0360 : 00 00 00 00 00 00 00 00  00 00 00 00 00 00 00 00   ................
0370 : 00 01 00 00 00 00 00 00  00 00 00 00 00 00 00 00   ................

Copy Protection:
    SecuROM 5 or lower 

    SubIntention Data (SecuROM/LibCrypt):

MSF: 08:57:15 Q-Data: 410101 08:55:16 00 08:57:16 6bc9
MSF: 08:57:16 Q-Data: 410101 08:55:17 00 08:57:17 d1b9
MSF: 08:57:17 Q-Data: 410101 08:55:18 00 08:57:18 45af
MSF: 08:57:18 Q-Data: 410101 08:55:19 00 08:57:19 ffdf
MSF: 08:57:19 Q-Data: 410101 08:55:20 00 08:57:20 fc37
MSF: 08:57:20 Q-Data: 410101 08:55:21 00 08:57:21 4647
MSF: 08:57:21 Q-Data: 410101 08:55:22 00 08:57:22 98f6
MSF: 08:57:22 Q-Data: 410101 08:55:23 00 08:57:23 2286
MSF: 08:57:23 Q-Data: 410101 08:54:23 00 08:d7:23 7c3e
MSF: 08:57:69 Q-Data: 410101 08:55:70 00 08:57:70 b3f0
MSF: 08:57:70 Q-Data: 410101 08:55:71 00 08:57:71 0980
MSF: 08:57:71 Q-Data: 410101 08:55:72 00 08:57:72 d731
MSF: 08:57:72 Q-Data: 410101 08:55:73 00 08:57:73 6d41
MSF: 08:57:73 Q-Data: 410101 08:55:74 00 08:57:74 7a72
MSF: 08:57:74 Q-Data: 410101 08:56:00 00 08:58:00 0e3f
MSF: 08:58:00 Q-Data: 410101 08:56:01 00 08:58:01 b44f
MSF: 08:58:01 Q-Data: 410101 08:56:02 00 08:58:02 6afe
MSF: 08:58:02 Q-Data: 410101 08:5e:02 00 08:48:02 644f
MSF: 08:58:46 Q-Data: 410101 08:56:47 00 08:58:47 40a0
MSF: 08:58:47 Q-Data: 410101 08:56:48 00 08:58:48 d4b6
MSF: 08:58:48 Q-Data: 410101 08:56:49 00 08:58:49 6ec6
MSF: 08:58:49 Q-Data: 410101 08:56:50 00 08:58:50 41f8
MSF: 08:58:50 Q-Data: 410101 08:56:51 00 08:58:51 fb88
MSF: 08:58:51 Q-Data: 410101 08:56:52 00 08:58:52 2539
MSF: 08:58:52 Q-Data: 410101 08:56:53 00 08:58:53 9f49
MSF: 08:58:53 Q-Data: 410101 08:56:54 00 08:58:54 887a
MSF: 08:58:54 Q-Data: 410101 08:16:54 00 08:5a:54 8488
MSF: 09:00:34 Q-Data: 410101 08:58:35 00 09:00:35 77f5
MSF: 09:00:35 Q-Data: 410101 08:58:36 00 09:00:36 a944
MSF: 09:00:36 Q-Data: 410101 08:58:37 00 09:00:37 1334
MSF: 09:00:37 Q-Data: 410101 08:58:38 00 09:00:38 8722
MSF: 09:00:38 Q-Data: 410101 08:58:39 00 09:00:39 3d52
MSF: 09:00:39 Q-Data: 410101 08:58:40 00 09:00:40 6716
MSF: 09:00:40 Q-Data: 410101 08:58:41 00 09:00:41 dd66
MSF: 09:00:41 Q-Data: 410101 08:58:42 00 09:00:42 03d7
MSF: 09:00:42 Q-Data: 410101 08:58:46 00 09:00:62 ae33
MSF: 09:02:40 Q-Data: 410101 09:00:41 00 09:02:41 7eb3
MSF: 09:02:41 Q-Data: 410101 09:00:42 00 09:02:42 a002
MSF: 09:02:42 Q-Data: 410101 09:00:43 00 09:02:43 1a72
MSF: 09:02:43 Q-Data: 410101 09:00:44 00 09:02:44 0d41
MSF: 09:02:44 Q-Data: 410101 09:00:45 00 09:02:45 b731
MSF: 09:02:45 Q-Data: 410101 09:00:46 00 09:02:46 6980
MSF: 09:02:46 Q-Data: 410101 09:00:47 00 09:02:47 d3f0
MSF: 09:02:47 Q-Data: 410101 09:00:48 00 09:02:48 47e6
MSF: 09:02:48 Q-Data: 410101 49:00:48 00 0b:02:48 f4ea
MSF: 09:04:37 Q-Data: 410101 09:02:38 00 09:04:38 0511
MSF: 09:04:38 Q-Data: 410101 09:02:39 00 09:04:39 bf61
MSF: 09:04:39 Q-Data: 410101 09:02:40 00 09:04:40 e525
MSF: 09:04:40 Q-Data: 410101 09:02:41 00 09:04:41 5f55
MSF: 09:04:41 Q-Data: 410101 09:02:42 00 09:04:42 81e4
MSF: 09:04:42 Q-Data: 410101 09:02:43 00 09:04:43 3b94
MSF: 09:04:43 Q-Data: 410101 09:02:44 00 09:04:44 2ca7
MSF: 09:04:44 Q-Data: 410101 09:02:45 00 09:04:45 96d7
MSF: 09:04:45 Q-Data: 410101 09:42:45 00 09:06:45 9a25
MSF: 09:07:28 Q-Data: 410101 09:05:29 00 09:07:29 3418
MSF: 09:07:29 Q-Data: 410101 09:05:30 00 09:07:30 1b26
MSF: 09:07:30 Q-Data: 410101 09:05:31 00 09:07:31 a156
MSF: 09:07:31 Q-Data: 410101 09:05:32 00 09:07:32 7fe7
MSF: 09:07:32 Q-Data: 410101 09:05:33 00 09:07:33 c597
MSF: 09:07:33 Q-Data: 410101 09:05:34 00 09:07:34 d2a4
MSF: 09:07:34 Q-Data: 410101 09:05:35 00 09:07:35 68d4
MSF: 09:07:35 Q-Data: 410101 09:05:36 00 09:07:36 b665
MSF: 09:07:36 Q-Data: 410101 09:15:36 00 09:0f:36 25c8
MSF: 09:08:05 Q-Data: 410101 09:06:06 00 09:08:06 5206
MSF: 09:08:06 Q-Data: 410101 09:06:07 00 09:08:07 e876
MSF: 09:08:07 Q-Data: 410101 09:06:08 00 09:08:08 7c60
MSF: 09:08:08 Q-Data: 410101 09:06:09 00 09:08:09 c610
MSF: 09:08:09 Q-Data: 410101 09:06:10 00 09:08:10 e92e
MSF: 09:08:10 Q-Data: 410101 09:06:11 00 09:08:11 535e
MSF: 09:08:11 Q-Data: 410101 09:06:12 00 09:08:12 8def
MSF: 09:08:12 Q-Data: 410101 09:06:13 00 09:08:13 379f
MSF: 09:08:13 Q-Data: 410101 0b:06:13 00 49:08:13 4a51
MSF: 09:09:68 Q-Data: 410101 09:07:69 00 09:09:69 c5fb
MSF: 09:09:69 Q-Data: 410101 09:07:70 00 09:09:70 eac5
MSF: 09:09:70 Q-Data: 410101 09:07:71 00 09:09:71 50b5
MSF: 09:09:71 Q-Data: 410101 09:07:72 00 09:09:72 8e04
MSF: 09:09:72 Q-Data: 410101 09:07:73 00 09:09:73 3474
MSF: 09:09:73 Q-Data: 410101 09:07:74 00 09:09:74 2347
MSF: 09:09:74 Q-Data: 410101 09:08:00 00 09:10:00 f53c
MSF: 09:10:00 Q-Data: 410101 09:08:01 00 09:10:01 4f4c
MSF: 09:10:01 Q-Data: 410101 09:18:01 00 09:18:01 dce1
MSF: 09:11:74 Q-Data: 410101 09:10:00 00 09:12:00 8498
MSF: 09:12:00 Q-Data: 410101 09:10:01 00 09:12:01 3ee8
MSF: 09:12:01 Q-Data: 410101 09:10:02 00 09:12:02 e059
MSF: 09:12:02 Q-Data: 410101 09:10:03 00 09:12:03 5a29
MSF: 09:12:03 Q-Data: 410101 09:10:04 00 09:12:04 4d1a
MSF: 09:12:04 Q-Data: 410101 09:10:05 00 09:12:05 f76a
MSF: 09:12:05 Q-Data: 410101 09:10:06 00 09:12:06 29db
MSF: 09:12:06 Q-Data: 410101 09:10:07 00 09:12:07 93ab
MSF: 09:12:07 Q-Data: 410101 09:10:05 00 09:12:47 9f6c
MSF: 09:13:71 Q-Data: 410101 09:11:72 00 09:13:72 f5d9
MSF: 09:13:72 Q-Data: 410101 09:11:73 00 09:13:73 4fa9
MSF: 09:13:73 Q-Data: 410101 09:11:74 00 09:13:74 589a
MSF: 09:13:74 Q-Data: 410101 09:12:00 00 09:14:00 a57e
MSF: 09:14:00 Q-Data: 410101 09:12:01 00 09:14:01 1f0e
MSF: 09:14:01 Q-Data: 410101 09:12:02 00 09:14:02 c1bf
MSF: 09:14:02 Q-Data: 410101 09:12:03 00 09:14:03 7bcf
MSF: 09:14:03 Q-Data: 410101 09:12:04 00 09:14:04 6cfc
MSF: 09:14:04 Q-Data: 410101 0b:12:04 00 49:14:04 1132
MSF: 09:15:68 Q-Data: 410101 09:13:69 00 09:15:69 9fc0
MSF: 09:15:69 Q-Data: 410101 09:13:70 00 09:15:70 b0fe
MSF: 09:15:70 Q-Data: 410101 09:13:71 00 09:15:71 0a8e
MSF: 09:15:71 Q-Data: 410101 09:13:72 00 09:15:72 d43f
MSF: 09:15:72 Q-Data: 410101 09:13:73 00 09:15:73 6e4f
MSF: 09:15:73 Q-Data: 410101 09:13:74 00 09:15:74 797c
MSF: 09:15:74 Q-Data: 410101 09:14:00 00 09:16:00 4efd
MSF: 09:16:00 Q-Data: 410101 09:14:01 00 09:16:01 f48d
MSF: 09:16:01 Q-Data: 410101 09:16:01 00 09:56:01 7281
MSF: 09:19:12 Q-Data: 410101 09:17:13 00 09:19:13 58f9
MSF: 09:19:13 Q-Data: 410101 09:17:14 00 09:19:14 4fca
MSF: 09:19:14 Q-Data: 410101 09:17:15 00 09:19:15 f5ba
MSF: 09:19:15 Q-Data: 410101 09:17:16 00 09:19:16 2b0b
MSF: 09:19:16 Q-Data: 410101 09:17:17 00 09:19:17 917b
MSF: 09:19:17 Q-Data: 410101 09:17:18 00 09:19:18 056d
MSF: 09:19:18 Q-Data: 410101 09:17:19 00 09:19:19 bf1d
MSF: 09:19:19 Q-Data: 410101 09:17:20 00 09:19:20 bcf5
MSF: 09:19:20 Q-Data: 410101 09:07:20 00 09:11:20 2f58
MSF: 09:21:00 Q-Data: 410101 09:19:01 00 09:21:01 26cc
MSF: 09:21:01 Q-Data: 410101 09:19:02 00 09:21:02 f87d
MSF: 09:21:02 Q-Data: 410101 09:19:03 00 09:21:03 420d
MSF: 09:21:03 Q-Data: 410101 09:19:04 00 09:21:04 553e
MSF: 09:21:04 Q-Data: 410101 09:19:05 00 09:21:05 ef4e
MSF: 09:21:05 Q-Data: 410101 09:19:06 00 09:21:06 31ff
MSF: 09:21:06 Q-Data: 410101 09:19:07 00 09:21:07 8b8f
MSF: 09:21:07 Q-Data: 410101 09:19:08 00 09:21:08 1f99
MSF: 09:21:08 Q-Data: 410101 09:19:09 00 09:21:88 24c0
MSF: 09:23:06 Q-Data: 410101 09:21:07 00 09:23:07 cf23
MSF: 09:23:07 Q-Data: 410101 09:21:08 00 09:23:08 5b35
MSF: 09:23:08 Q-Data: 410101 09:21:09 00 09:23:09 e145
MSF: 09:23:09 Q-Data: 410101 09:21:10 00 09:23:10 ce7b
MSF: 09:23:10 Q-Data: 410101 09:21:11 00 09:23:11 740b
MSF: 09:23:11 Q-Data: 410101 09:21:12 00 09:23:12 aaba
MSF: 09:23:12 Q-Data: 410101 09:21:13 00 09:23:13 10ca
MSF: 09:23:13 Q-Data: 410101 09:21:14 00 09:23:14 07f9
MSF: 09:23:14 Q-Data: 410101 19:21:14 00 01:23:14 99a3
MSF: 09:25:03 Q-Data: 410101 09:23:04 00 09:25:04 3074
MSF: 09:25:04 Q-Data: 410101 09:23:05 00 09:25:05 8a04
MSF: 09:25:05 Q-Data: 410101 09:23:06 00 09:25:06 54b5
MSF: 09:25:06 Q-Data: 410101 09:23:07 00 09:25:07 eec5
MSF: 09:25:07 Q-Data: 410101 09:23:08 00 09:25:08 7ad3
MSF: 09:25:08 Q-Data: 410101 09:23:09 00 09:25:09 c0a3
MSF: 09:25:09 Q-Data: 410101 09:23:10 00 09:25:10 ef9d
MSF: 09:25:10 Q-Data: 410101 09:23:11 00 09:25:11 55ed
MSF: 09:25:11 Q-Data: 410101 09:33:11 00 09:2d:11 c640
MSF: 09:27:00 Q-Data: 410101 09:25:01 00 09:27:01 a805
MSF: 09:27:01 Q-Data: 410101 09:25:02 00 09:27:02 76b4
MSF: 09:27:02 Q-Data: 410101 09:25:03 00 09:27:03 ccc4
MSF: 09:27:03 Q-Data: 410101 09:25:04 00 09:27:04 dbf7
MSF: 09:27:04 Q-Data: 410101 09:25:05 00 09:27:05 6187
MSF: 09:27:05 Q-Data: 410101 09:25:06 00 09:27:06 bf36
MSF: 09:27:06 Q-Data: 410101 09:25:07 00 09:27:07 0546
MSF: 09:27:07 Q-Data: 410101 09:25:08 00 09:27:08 9150
MSF: 09:27:08 Q-Data: 410101 09:25:18 00 09:27:00 1482
MSF: 09:29:74 Q-Data: 410101 09:28:00 00 09:30:00 c6d2
MSF: 09:30:00 Q-Data: 410101 09:28:01 00 09:30:01 7ca2
MSF: 09:30:01 Q-Data: 410101 09:28:02 00 09:30:02 a213
MSF: 09:30:02 Q-Data: 410101 09:28:03 00 09:30:03 1863
MSF: 09:30:03 Q-Data: 410101 09:28:04 00 09:30:04 0f50
MSF: 09:30:04 Q-Data: 410101 09:28:05 00 09:30:05 b520
MSF: 09:30:05 Q-Data: 410101 09:28:06 00 09:30:06 6b91
MSF: 09:30:06 Q-Data: 410101 09:28:07 00 09:30:07 d1e1
MSF: 09:30:07 Q-Data: 410101 09:28:47 00 09:30:05 e04b
MSF: 09:34:57 Q-Data: 410101 09:32:58 00 09:34:58 5a72
MSF: 09:34:58 Q-Data: 410101 09:32:59 00 09:34:59 e002
MSF: 09:34:59 Q-Data: 410101 09:32:60 00 09:34:60 e3ea
MSF: 09:34:60 Q-Data: 410101 09:32:61 00 09:34:61 599a
MSF: 09:34:61 Q-Data: 410101 09:32:62 00 09:34:62 872b
MSF: 09:34:62 Q-Data: 410101 09:32:63 00 09:34:63 3d5b
MSF: 09:34:63 Q-Data: 410101 09:32:64 00 09:34:64 2a68
MSF: 09:34:64 Q-Data: 410101 09:32:65 00 09:34:65 9018
MSF: 09:34:65 Q-Data: 410101 09:72:65 00 09:36:65 9cea
MSF: 09:36:63 Q-Data: 410101 09:34:64 00 09:36:64 c1eb
MSF: 09:36:64 Q-Data: 410101 09:34:65 00 09:36:65 7b9b
MSF: 09:36:65 Q-Data: 410101 09:34:66 00 09:36:66 a52a
MSF: 09:36:66 Q-Data: 410101 09:34:67 00 09:36:67 1f5a
MSF: 09:36:67 Q-Data: 410101 09:34:68 00 09:36:68 8b4c
MSF: 09:36:68 Q-Data: 410101 09:34:69 00 09:36:69 313c
MSF: 09:36:69 Q-Data: 410101 09:34:70 00 09:36:70 1e02
MSF: 09:36:70 Q-Data: 410101 09:34:71 00 09:36:71 a472
MSF: 09:36:71 Q-Data: 410101 09:34:79 00 09:36:61 b4ee
MSF: 09:38:60 Q-Data: 410101 09:36:61 00 09:38:61 1a56
MSF: 09:38:61 Q-Data: 410101 09:36:62 00 09:38:62 c4e7
MSF: 09:38:62 Q-Data: 410101 09:36:63 00 09:38:63 7e97
MSF: 09:38:63 Q-Data: 410101 09:36:64 00 09:38:64 69a4
MSF: 09:38:64 Q-Data: 410101 09:36:65 00 09:38:65 d3d4
MSF: 09:38:65 Q-Data: 410101 09:36:66 00 09:38:66 0d65
MSF: 09:38:66 Q-Data: 410101 09:36:67 00 09:38:67 b715
MSF: 09:38:67 Q-Data: 410101 09:36:68 00 09:38:68 2303
MSF: 09:38:68 Q-Data: 410101 01:36:68 00 19:38:68 f34d
MSF: 09:40:57 Q-Data: 410101 09:38:58 00 09:40:58 18ed
MSF: 09:40:58 Q-Data: 410101 09:38:59 00 09:40:59 a29d
MSF: 09:40:59 Q-Data: 410101 09:38:60 00 09:40:60 a175
MSF: 09:40:60 Q-Data: 410101 09:38:61 00 09:40:61 1b05
MSF: 09:40:61 Q-Data: 410101 09:38:62 00 09:40:62 c5b4
MSF: 09:40:62 Q-Data: 410101 09:38:63 00 09:40:63 7fc4
MSF: 09:40:63 Q-Data: 410101 09:38:64 00 09:40:64 68f7
MSF: 09:40:64 Q-Data: 410101 09:38:65 00 09:40:65 d287
MSF: 09:40:65 Q-Data: 410101 09:30:65 00 09:50:65 dc36
MSF: 09:43:56 Q-Data: 410101 09:41:57 00 09:43:57 d4d6
MSF: 09:43:57 Q-Data: 410101 09:41:58 00 09:43:58 40c0
MSF: 09:43:58 Q-Data: 410101 09:41:59 00 09:43:59 fab0
MSF: 09:43:59 Q-Data: 410101 09:41:60 00 09:43:60 f958
MSF: 09:43:60 Q-Data: 410101 09:41:61 00 09:43:61 4328
MSF: 09:43:61 Q-Data: 410101 09:41:62 00 09:43:62 9d99
MSF: 09:43:62 Q-Data: 410101 09:41:63 00 09:43:63 27e9
MSF: 09:43:63 Q-Data: 410101 09:41:64 00 09:43:64 30da
MSF: 09:43:64 Q-Data: 410101 09:61:64 00 09:47:64 c996
MSF: 09:44:59 Q-Data: 410101 09:42:60 00 09:44:60 ae2f
MSF: 09:44:60 Q-Data: 410101 09:42:61 00 09:44:61 145f
MSF: 09:44:61 Q-Data: 410101 09:42:62 00 09:44:62 caee
MSF: 09:44:62 Q-Data: 410101 09:42:63 00 09:44:63 709e
MSF: 09:44:63 Q-Data: 410101 09:42:64 00 09:44:64 67ad
MSF: 09:44:64 Q-Data: 410101 09:42:65 00 09:44:65 dddd
MSF: 09:44:65 Q-Data: 410101 09:42:66 00 09:44:66 036c
MSF: 09:44:66 Q-Data: 410101 09:42:67 00 09:44:67 b91c
MSF: 09:44:67 Q-Data: 410101 08:42:67 00 89:44:67 3aa7

Tracks and Write Offsets:
    DAT:

<rom name="South Park PC (Track 01).bin" size="118258560" crc="3049e3b0" md5="236fded5e491f3715db5df5874b9a975" sha1="938c40b45dd90b20d68ca08aace6b1603982afbd" />
<rom name="South Park PC (Track 02).bin" size="57518160" crc="abdf09df" md5="cf576d7aa6e0a85fbf83d34de8891d3a" sha1="2bbf017900084d7861b82b1b5a50fea2e63b75d8" />
<rom name="South Park PC (Track 03).bin" size="24190320" crc="57b8b152" md5="b7c7b3f333922728ae1a6638c0b96d2c" sha1="71d963446c7b0b8651a61144f5840b479c0bf934" />
<rom name="South Park PC (Track 04).bin" size="13726272" crc="7e23edb5" md5="7d3f54fe57ae750e2794f60e74963261" sha1="4f1be0ec7fff42f7bcb2d06418cab58a40add0f3" />
<rom name="South Park PC (Track 05).bin" size="1112496" crc="a64fa144" md5="375a397445f668414dc9dc9203365e0e" sha1="b2863b7e6e0c4d24ff43b2a2f27f04f0d211b41e" />
<rom name="South Park PC (Track 06).bin" size="56337456" crc="91d2f3c1" md5="e50fbba3ddeaada648093c9f44d87875" sha1="3334c67b85bfb96d2ea8ede6552ac5792d25e21a" />
<rom name="South Park PC (Track 07).bin" size="14304864" crc="e576a37b" md5="04eb49b648bd8d7bd22658bf2f53e898" sha1="0f182b32d259b75376b92248891d1cc4460adfa7" />
<rom name="South Park PC (Track 08).bin" size="56913696" crc="5509713d" md5="6c8ed63ac9e038846cc5a041848977f4" sha1="4a4a16412272c86d00e483e894ef3836a34972c4" />
<rom name="South Park PC (Track 09).bin" size="67415376" crc="b641f43e" md5="0e0795d31ec0a9c8ec6ca2f1f0832979" sha1="c72af91979b8c41eba91c18dbdc4d86f19a58878" />
<rom name="South Park PC (Track 10).bin" size="53411568" crc="2408c0f3" md5="b57b04ece834e8f80c710c8ca5f4cef2" sha1="620d77f56ab38d7e90a7f62dd190c01727f956d6" />
<rom name="South Park PC (Track 11).bin" size="52971744" crc="b23763f9" md5="f3875b8819e3d11cfa4270470e7fb31b" sha1="24158abdeb0232f6e5c987cb54754ddbf7974a13" />
<rom name="South Park PC (Track 12).bin" size="22602720" crc="4bf08fe0" md5="f8746feb5ee42df63aef40c08a164504" sha1="d4e25e14a3eed404cb4be21b7e60cea28000827a" />
<rom name="South Park PC (Track 13).bin" size="6023472" crc="a79290f5" md5="e4aee5fea64f11538e99ea06c65bc9b8" sha1="1bf34d6f0a7712e7b922dbbeb2040c2cdb49895e" />
<rom name="South Park PC (Track 14).bin" size="57918000" crc="94107571" md5="51874a8a010e70028e61226c4d0917ae" sha1="035a0514703e0f3e1986dabbb9e0ded9ab9d2726" />

    Cuesheet:

FILE "South Park PC (Track 01).bin" BINARY
  TRACK 01 MODE1/2352
    INDEX 01 00:00:00
FILE "South Park PC (Track 02).bin" BINARY
  TRACK 02 AUDIO
    INDEX 00 00:00:00
    INDEX 01 00:02:00
FILE "South Park PC (Track 03).bin" BINARY
  TRACK 03 AUDIO
    INDEX 01 00:00:00
FILE "South Park PC (Track 04).bin" BINARY
  TRACK 04 AUDIO
    INDEX 01 00:00:00
FILE "South Park PC (Track 05).bin" BINARY
  TRACK 05 AUDIO
    INDEX 01 00:00:00
FILE "South Park PC (Track 06).bin" BINARY
  TRACK 06 AUDIO
    INDEX 01 00:00:00
FILE "South Park PC (Track 07).bin" BINARY
  TRACK 07 AUDIO
    INDEX 01 00:00:00
FILE "South Park PC (Track 08).bin" BINARY
  TRACK 08 AUDIO
    INDEX 01 00:00:00
FILE "South Park PC (Track 09).bin" BINARY
  TRACK 09 AUDIO
    INDEX 01 00:00:00
FILE "South Park PC (Track 10).bin" BINARY
  TRACK 10 AUDIO
    INDEX 01 00:00:00
FILE "South Park PC (Track 11).bin" BINARY
  TRACK 11 AUDIO
    INDEX 01 00:00:00
FILE "South Park PC (Track 12).bin" BINARY
  TRACK 12 AUDIO
    INDEX 01 00:00:00
FILE "South Park PC (Track 13).bin" BINARY
  TRACK 13 AUDIO
    INDEX 01 00:00:00
FILE "South Park PC (Track 14).bin" BINARY
  TRACK 14 AUDIO
    INDEX 01 00:00:00

    Write Offset: -572

http://redump.org/disc/82554/

https://mega.nz/file/MAlhWZqD#5jAPEzvjn … 5wdbw4p9hA


Common Disc Info:
    Title: Crusades: Quest for Power
    System: IBM PC Compatible
    Media Type: CD-ROM
    Category: Games
    Matching IDs: 82554
    Region: USA, Europe
    Languages: English
    Disc Serial: 31773.101.US, 31773.101.UK

    Ringcode Information:
        Data Side Mastering Code (laser branded/etched): CDB-00-01533
        Mould SID: IFPI LJ44
    Barcode: 8 81573 00101 0
    Error Count: 0
    Comments: Original USA big box release's barcode is 8 81573 00101 0 and its ISBN  1-58416-605-3
    Contents:

[+]DirectX 9.0

HTML manual

Version and Editions:
    Version: 1.0
    Edition/Release: Original

Extras:
    Primary Volume Descriptor (PVD):

0320 : 20 20 20 20 20 20 20 20  20 20 20 20 20 32 30 30                200
0330 : 33 30 39 32 32 31 31 34  37 30 30 30 30 EC 32 30   3092211470000.20
0340 : 30 33 30 39 32 32 31 31  34 37 30 30 30 30 EC 30   03092211470000.0
0350 : 30 30 30 30 30 30 30 30  30 30 30 30 30 30 30 00   000000000000000.
0360 : 30 30 30 30 30 30 30 30  30 30 30 30 30 30 30 30   0000000000000000
0370 : 00 01 00 00 00 00 00 00  00 00 00 00 00 00 00 00   ................

Copy Protection:
    Copy Protection: (CHECK WITH PROTECTIONID)

Tracks and Write Offsets:
    DAT:

<rom name="Crusades Quest for Power.bin" size="133779408" crc="7fb0680c" md5="b5e0f744ec7d45716425f568e0199599" sha1="2cab854605370d3fc49dfa629d50ab47047d63bd" />

    Cuesheet:

FILE "Crusades Quest for Power.bin" BINARY
  TRACK 01 MODE1/2352
    INDEX 01 00:00:00

    Write Offset: -12

http://redump.org/disc/8841/

https://mega.nz/file/JIFWVToA#onaCilco2 … 3hNNJOtXJ8

Common Disc Info:
    Title: World of Goo
    System: IBM PC compatible
    Media Type: CD-ROM
    Category: Games
    Matching IDs: 8841
    Region: USA
    Languages: English, French, German
    Disc Serial: P/N 61276-CD

    Ringcode Information:
        Data Side Mastering Code (laser branded/etched): BRM61276-1   arvato digital services BERTELSMANN + + HT96001
        Data Side Mastering SID Code: IFPI L028
        Toolstamp: A01
    Barcode: 6 12761 61276 9
    Error Count: 0
     
Version and Editions:
    Version: 1.2
    Edition/Release: Original

Extras:
    Primary Volume Descriptor (PVD):

0320 : 20 20 20 20 20 20 20 20  20 20 20 20 20 32 30 30                200
0330 : 38 31 31 30 34 31 35 34  32 32 37 30 30 00 32 30   8110415422700.20
0340 : 30 38 31 31 30 34 31 35  34 38 32 32 30 30 00 30   08110415482200.0
0350 : 30 30 30 30 30 30 30 30  30 30 30 30 30 30 30 00   000000000000000.
0360 : 30 30 30 30 30 30 30 30  30 30 30 30 30 30 30 30   0000000000000000
0370 : 00 01 00 00 00 00 00 00  00 00 00 00 00 00 00 00   ................

Tracks and Write Offsets:
    DAT:

<rom name="World of gOO.bin" size="150440976" crc="37dbdb18" md5="500211bd1fd695378b268de580b4cf57" sha1="15ce428baf9c8df5f09d55f5bbbd993d6cbd44ea" />

    Cuesheet:

FILE "World of gOO.bin" BINARY
  TRACK 01 MODE1/2352
    INDEX 01 00:00:00

    Write Offset: -12

8

(0 replies, posted in Verifications)

http://redump.org/disc/88014/

Common Disc Info:
    Title: TMNT
    Foreign Title (Non-latin): TMNT: Черепашки-ниндзя
    System: IBM PC Compatible
    Media Type: DVD-ROM-5
    Category: Games
    Matching IDs: 88014
    Region: Europe
    Languages: Russian

    Ringcode Information:
        Data Side Mastering Code (laser branded/etched): Russobit-Publishing
        Data Side Mastering SID Code: ifpi LU004
        Mould SID: IFPI UAF03
    Barcode: 4 607139 712710
    Comments: Regions dumped: Russia, Ukraine. Product stamp serial on the back cover of Ukrainian release: K    956979 ГО

Version and Editions:
    Edition/Release: Original

Extras:
    Primary Volume Descriptor (PVD):

0320 : 20 20 20 20 20 20 20 20  20 20 20 20 20 32 30 30                200
0330 : 37 30 33 32 34 31 35 33  38 33 36 30 30 0C 32 30   7032415383600.20
0340 : 30 37 30 33 32 34 31 35  33 38 33 36 30 30 0C 30   07032415383600.0
0350 : 30 30 30 30 30 30 30 30  30 30 30 30 30 30 30 00   000000000000000.
0360 : 30 30 30 30 30 30 30 30  30 30 30 30 30 30 30 30   0000000000000000
0370 : 00 01 00 55 4C 54 52 41  49 53 4F 00 37 2E 35 2E   ...ULTRAISO.7.5.

Copy Protection:
     StarForce 4.70.6.8

Size & Checksum:
    Size: 4660199424
    CRC32: 5a2480e2
    MD5: ef71da7eea80ae1f175bbd87520f3ae8
    SHA1: 3ffa335c7ec58b85bc3a85e88b34f98c1fcc2407

http://redump.org/disc/78960/

https://mega.nz/file/hMNSXDIZ#UFYPfjBvw … CW82tRNIYc

Common Disc Info:
    Title: Knights of the Cross
    System: IBM PC compatible
    Media Type: CD-ROM
    Category: Games
    Matching IDs: 78960
    Region: Europe
    Languages: English

    Ringcode Information:
        Data Side Mastering Code (laser branded/etched): NA0116   KNIGHTS OF THE CROSS
        Data Side Mastering SID Code: IFPI LD02
        Mould SID: IFPI 5J25
    Barcode: 4 771463 852654
    Error Count: 0
    Comments:

Regions dumped: UK, Lithuania
Lithuanian title: Kryžiuočiai
Latvian title: Krustneši

Version and Editions:
    Edition/Release: Original

Extras:
    Primary Volume Descriptor (PVD):

0320 : 20 20 20 20 20 20 20 20  20 20 20 20 20 32 30 30                200
0330 : 32 30 39 31 37 30 39 35  35 30 30 30 30 08 32 30   2091709550000.20
0340 : 30 32 30 39 31 37 30 39  35 35 30 30 30 30 08 30   02091709550000.0
0350 : 30 30 30 30 30 30 30 30  30 30 30 30 30 30 30 00   000000000000000.
0360 : 30 30 30 30 30 30 30 30  30 30 30 30 30 30 30 30   0000000000000000
0370 : 00 01 00 00 00 00 00 00  00 00 00 00 00 00 00 00   ................
    
Tracks and Write Offsets:
    DAT:

<rom name="Knights of the Cross Lithuania.bin" size="795230016" crc="d3c9a96f" md5="ff6e2f21bdfeee498bf91d8d61f6aafe" sha1="af87879b9e459bb73272790dc659b22bf4210e1c" />

    Cuesheet:

FILE "Knights of the Cross Lithuania.bin" BINARY
  TRACK 01 MODE1/2352
    INDEX 01 00:00:00

    Write Offset: -12

http://redump.org/disc/66559/

https://mega.nz/file/JQNQFabS#qEy0aCD1E … FyLSnsMm8I


Common Disc Info:
    Title: Harry Potter and the Philosopher's Stone
    System: IBM PC Compatible
    Media Type: CD-ROM
    Category: Games
    Matching IDs: 66559
    Region: Europe
    Languages: English, French, German
    Disc Serial: EAX08903549D

    Ringcode Information:
        Data Side Mastering Code (laser branded/etched): Sono press ROM A-63498/X08903549D A
        Data Side Mastering SID Code: IFPI LB 47
        Mould SID: IFPI 0720
    Barcode: 5 030930 027087
    Error Count: 584

Version and Editions:
    Version: 1.0
    Edition/Release: Original

Extras:
    Primary Volume Descriptor (PVD):

0320 : 20 20 20 20 20 20 20 20  20 20 20 20 20 32 30 30                200
0330 : 31 31 30 32 32 31 37 32  39 30 30 30 30 00 32 30   1102217290000.20
0340 : 30 31 31 30 32 32 31 37  32 39 30 30 30 30 00 30   01102217290000.0
0350 : 30 30 30 30 30 30 30 30  30 30 30 30 30 30 30 00   000000000000000.
0360 : 30 30 30 30 30 30 30 30  30 30 30 30 30 30 30 30   0000000000000000
0370 : 00 01 00 00 00 00 00 00  00 00 00 00 00 00 00 00   ................

Protection:
    Safedisc v2.40.010 

Tracks and Write Offsets:
    DAT:

<rom name="HARRY POTTER 1 Turkey.bin" size="692101872" crc="45b2c81b" md5="80307733eb3ec2e565d518107e85090e" sha1="c758d8f46acc791eeaad0586a2f935788a487249" />

    Cuesheet:

FILE "HARRY POTTER 1 Turkey.bin" BINARY
  TRACK 01 MODE1/2352
    INDEX 01 00:00:00

    Write Offset: -12

11

(0 replies, posted in Verifications)

http://redump.org/disc/50943/

https://mega.nz/file/9NMCkJYT#sMn2LD44L … RO37I3xlbo

Common Disc Info:
    Title: LEGO Loco
    System: IBM PC Compatible
    Media Type: CD-ROM
    Category: Games
    Matching IDs: 50943
    Region: Europe
    Languages: Danish, Dutch, English, French, German, Italian, Norwegian, Spanish, Swedish

    Ringcode Information:
        Data Side Mastering Code (laser branded/etched): www.cdodeon.com.tr CDODEON 900889 09<05CD www.cdodeon.com.tr    REMA - 004
        Mould SID: IFPI 5U11
    Barcode: 9 801366 014677
    Error Count: 0
    Comments: European regions dumped: UK & Turkey. The Turkish version is Original release, and it also does not have disc serial like UK ver. Turkish version Back cover stamp: T.C.KÜLTÜR ve TURIZM BAKANLIĞI YAC 470407 ROG

Version and Editions:
    Version: 1.0.18.2
    Edition/Release: Original, Focus Essential

Extras:
    Primary Volume Descriptor (PVD):

0320 : 20 20 20 20 20 20 20 20  20 20 20 20 20 32 30 30                200
0330 : 33 30 37 31 37 31 30 33  39 30 30 30 30 04 32 30   3071710390000.20
0340 : 30 33 30 37 31 37 31 30  33 39 30 30 30 30 04 30   03071710390000.0
0350 : 30 30 30 30 30 30 30 30  30 30 30 30 30 30 30 00   000000000000000.
0360 : 30 30 30 30 30 30 30 30  30 30 30 30 30 30 30 30   0000000000000000
0370 : 00 01 00 00 00 00 00 00  00 00 00 00 00 00 00 00   ................

Tracks and Write Offsets:
    DAT:

<rom name="LEGO LOCO Turkey.bin" size="324695952" crc="b231e15c" md5="70255a0d8f424a2df40e2a6b73affc58" sha1="871403671557d149b26a3fbb66f1bb60abe48e65" />

    Cuesheet:

FILE "LEGO LOCO Turkey.bin" BINARY
  TRACK 01 MODE1/2352
    INDEX 01 00:00:00

    Write Offset: -12

http://redump.org/disc/61270/

https://mega.nz/file/lIdiBQoT#lnPhUECdH … naDPXEZ9W4

Common Disc Info:
    Title: Tom Clancy's Ghost Recon: Desert Siege
    System: IBM PC compatible
    Media Type: CD-ROM
    Category: Add-Ons
    Matching IDs: 61270
    Region: Germany
    Languages: German

    Ringcode Information:
        Data Side Mastering Code (laser branded/etched): Sono press ROM A-69610/MISSIONDEU A
        Data Side Mastering SID Code: IFPI LB 47
        Mould SID: IFPI 0748
    Barcode: 3 307212 318778
    Error Count: 580

Version and Editions:
    Edition/Release: Original

Extras:
    Primary Volume Descriptor (PVD):

0320 : 20 20 20 20 20 20 20 20  20 20 20 20 20 32 30 30                200
0330 : 32 30 33 30 35 31 33 32  38 32 37 30 30 00 32 30   2030513282700.20
0340 : 30 32 30 33 30 35 31 33  32 38 32 37 30 30 00 30   02030513282700.0
0350 : 30 30 30 30 30 30 30 30  30 30 30 30 30 30 30 00   000000000000000.
0360 : 30 30 30 30 30 30 30 30  30 30 30 30 30 30 30 30   0000000000000000
0370 : 00 01 00 00 00 00 00 00  00 00 00 00 00 00 00 00   ................

Copy Protection:
    SafeDisc 2.51.021

Tracks and Write Offsets:
    DAT:

<rom name="Ghost Recon Desert Siege GERMAN.bin" size="788891376" crc="44ee588c" md5="51444a9224465ed010b06bab11f0f31e" sha1="046ce6370ddd71b1d8c023c19b4b3c881f572fd1" />

    Cuesheet:

FILE "Ghost Recon Desert Siege GERMAN.bin" BINARY
  TRACK 01 MODE1/2352
    INDEX 01 00:00:00

    Write Offset: -12

http://redump.org/disc/45613/

Common Disc Info:
    Title: Wizardry: Crusaders of the Dark Savant
    System: IBM PC compatible
    Media Type: CD-ROM
    Category: Games
    Matching IDs: 45613
    Region: USA
    Languages: English
    Disc Serial: 

    Ringcode Information:
        Data Side Mastering Code (laser branded/etched): CD-ROM BY GOOD TIMES ENT. - MADE IN CANADA   0D9B2<1376>10253CD9
    Error Count: 0

Version and Editions:
    Version: 1.30
    Edition/Release: Rerelease

Extras:
    Primary Volume Descriptor (PVD):

0320 : 20 20 20 20 20 20 20 20  20 20 20 20 20 31 39 39                199
0330 : 35 30 31 32 35 32 30 30  33 32 31 30 30 20 31 39   5012520032100 19
0340 : 39 35 30 31 32 35 32 30  30 35 35 36 30 30 20 31   95012520055600 1
0350 : 39 39 39 31 32 33 31 31  32 30 30 30 30 30 30 20   999123112000000 
0360 : 31 39 39 35 30 31 32 35  32 30 30 33 32 31 30 30   1995012520032100
0370 : 20 01 00 00 00 00 00 00  00 00 00 00 00 00 00 00    ...............

Tracks and Write Offsets:
    DAT:

<rom name="Wizardry Crusaders.bin" size="7105392" crc="6a249c29" md5="38642b52342497fc0e545e4e8fc7decc" sha1="b88d80d5707c5170096d71c5dfc701d17a1d32d2" />

    Cuesheet:

CATALOG 0000000000000
FILE "Wizardry Crusaders.bin" BINARY
  TRACK 01 MODE1/2352
    INDEX 01 00:00:00

    Write Offset: 222

http://redump.org/disc/12975/

https://mega.nz/file/wNUlBIgY#0nF6elyLs … 3siXU_JjZg

Common Disc Info:
    Title: SPQR: The Empire's Darkest Hour
    System: IBM PC compatible
    Media Type: CD-ROM
    Category: Games
    Matching IDs: 12975
    Region: USA, Australia
    Languages: English
    Disc Serial: GTI-13-0005-1, GTI-13-0003-1 CD

    Ringcode Information:
        Data Side Mastering Code (laser branded/etched): - MADE BY PMI    * GTI1300031 *    #02
        Data Side Mastering SID Code: IFPI L281
        Mould SID: IFPI 4602
    Barcode: 9 324567 000404
    Error Count: 0
    Comments: Australian ver is Platinum PC release, Australian box serial: SPQ-0001-AU-100

Version and Editions:
    Version: 1.0.001
    Edition/Release: Original, Platinum PC

Extras:
    Primary Volume Descriptor (PVD):

0320 : 20 20 20 20 20 20 20 20  20 20 20 20 20 31 39 39                199
0330 : 36 31 31 31 31 31 39 34  38 35 33 30 30 00 31 39   6111119485300.19
0340 : 39 36 31 31 31 31 31 39  34 38 35 33 30 30 00 00   96111119485300..
0350 : 00 00 00 00 00 00 00 00  00 00 00 00 00 00 00 00   ................
0360 : 00 00 00 00 00 00 00 00  00 00 00 00 00 00 00 00   ................
0370 : 00 01 00 00 00 00 00 00  00 00 00 00 00 00 00 00   ................

Tracks and Write Offsets:
    DAT:

<rom name="SPQR Australian.bin" size="682470432" crc="1d153fd2" md5="09b320f1a195cd0166f0f92b485cfb57" sha1="9fe0878a7aef4d5238a58f207bfdca2fe2c0ea7b" />

    Cuesheet:

CATALOG 0000000000000
FILE "SPQR Australian.bin" BINARY
  TRACK 01 MODE1/2352
    INDEX 01 00:00:00

    Write Offset: 0

http://redump.org/disc/70152/

https://mega.nz/file/tIUkRIIL#Fn3wiel8M … i3ADXQjWG0

Common Disc Info:
    Title: Heart of Darkness
    System: IBM PC compatible
    Media Type: CD-ROM
    Category: Games
    Matching IDs: 70152
    Region: Netherlands
    Languages: English
    Disc Serial: HEARTGB5511

    Ringcode Information:
        Data Side Mastering Code (laser branded/etched): DADC AUSTRIA   A0100255298-0101   15
        Data Side Mastering SID Code: IFPI L555
        Mould SID: IFPI 94X2
        Toolstamp: A2
    Barcode: 3 546430 002827
    Error Count: 1

Version and Editions:
    Version: 1.1.03Uk
    Edition/Release: Original

Extras:
    Primary Volume Descriptor (PVD):

0320 : 20 20 20 20 20 20 20 20  20 20 20 20 20 31 39 39                199
0330 : 38 30 39 30 33 31 32 30  37 30 30 34 35 B9 31 39   8090312070045.19
0340 : 39 38 30 39 30 33 31 32  31 30 31 34 38 33 15 00   98090312101483..
0350 : 00 00 00 00 00 00 00 00  00 00 00 00 00 00 00 00   ................
0360 : 00 00 00 00 00 00 00 00  00 00 00 00 00 00 00 00   ................
0370 : 00 01 00 00 00 00 00 00  00 00 00 00 00 00 00 00   ................

Copy Protection:
    SecuROM 5

    SubIntention Data (SecuROM/LibCrypt):

MSF: 09:10:11 Q-Data: 410101 09:08:12 00 09:10:12 8796
MSF: 09:10:12 Q-Data: 410101 09:08:13 00 09:10:13 3de6
MSF: 09:10:13 Q-Data: 410101 09:08:14 00 09:10:14 2ad5
MSF: 09:10:14 Q-Data: 410101 09:08:15 00 09:10:15 90a5
MSF: 09:10:15 Q-Data: 410101 09:08:16 00 09:10:16 4e14
MSF: 09:10:16 Q-Data: 410101 09:08:17 00 09:10:17 f464
MSF: 09:10:17 Q-Data: 410101 09:08:18 00 09:10:18 6072
MSF: 09:10:18 Q-Data: 410101 09:08:19 00 09:10:19 da02
MSF: 09:10:19 Q-Data: 410101 09:28:19 00 09:14:19 234e
MSF: 09:11:02 Q-Data: 410101 09:09:03 00 09:11:03 5d1c
MSF: 09:11:03 Q-Data: 410101 09:09:04 00 09:11:04 4a2f
MSF: 09:11:04 Q-Data: 410101 09:09:05 00 09:11:05 f05f
MSF: 09:11:05 Q-Data: 410101 09:09:06 00 09:11:06 2eee
MSF: 09:11:06 Q-Data: 410101 09:09:07 00 09:11:07 949e
MSF: 09:11:07 Q-Data: 410101 09:09:08 00 09:11:08 0088
MSF: 09:11:08 Q-Data: 410101 09:09:09 00 09:11:09 baf8
MSF: 09:11:09 Q-Data: 410101 09:09:10 00 09:11:10 95c6
MSF: 09:11:10 Q-Data: 410101 09:09:00 00 09:11:18 1014
MSF: 09:11:35 Q-Data: 410101 09:09:36 00 09:11:36 1453
MSF: 09:11:36 Q-Data: 410101 09:09:37 00 09:11:37 ae23
MSF: 09:11:37 Q-Data: 410101 09:09:38 00 09:11:38 3a35
MSF: 09:11:38 Q-Data: 410101 09:09:39 00 09:11:39 8045
MSF: 09:11:39 Q-Data: 410101 09:09:40 00 09:11:40 da01
MSF: 09:11:40 Q-Data: 410101 09:09:41 00 09:11:41 6071
MSF: 09:11:41 Q-Data: 410101 09:09:42 00 09:11:42 bec0
MSF: 09:11:42 Q-Data: 410101 09:09:43 00 09:11:43 04b0
MSF: 09:11:43 Q-Data: 410101 09:08:43 00 09:91:43 5a08
MSF: 09:12:66 Q-Data: 410101 09:10:67 00 09:12:67 e6d1
MSF: 09:12:67 Q-Data: 410101 09:10:68 00 09:12:68 72c7
MSF: 09:12:68 Q-Data: 410101 09:10:69 00 09:12:69 c8b7
MSF: 09:12:69 Q-Data: 410101 09:10:70 00 09:12:70 e789
MSF: 09:12:70 Q-Data: 410101 09:10:71 00 09:12:71 5df9
MSF: 09:12:71 Q-Data: 410101 09:10:72 00 09:12:72 8348
MSF: 09:12:72 Q-Data: 410101 09:10:73 00 09:12:73 3938
MSF: 09:12:73 Q-Data: 410101 09:10:74 00 09:12:74 2e0b
MSF: 09:12:74 Q-Data: 410101 08:10:74 00 89:12:74 adb0
MSF: 09:15:41 Q-Data: 410101 09:13:42 00 09:15:42 ee82
MSF: 09:15:42 Q-Data: 410101 09:13:43 00 09:15:43 54f2
MSF: 09:15:43 Q-Data: 410101 09:13:44 00 09:15:44 43c1
MSF: 09:15:44 Q-Data: 410101 09:13:45 00 09:15:45 f9b1
MSF: 09:15:45 Q-Data: 410101 09:13:46 00 09:15:46 2700
MSF: 09:15:46 Q-Data: 410101 09:13:47 00 09:15:47 9d70
MSF: 09:15:47 Q-Data: 410101 09:13:48 00 09:15:48 0966
MSF: 09:15:48 Q-Data: 410101 09:13:49 00 09:15:49 b316
MSF: 09:15:49 Q-Data: 410101 09:1b:49 00 09:05:49 bda7
MSF: 09:16:53 Q-Data: 410101 09:14:54 00 09:16:54 c8b8
MSF: 09:16:54 Q-Data: 410101 09:14:55 00 09:16:55 72c8
MSF: 09:16:55 Q-Data: 410101 09:14:56 00 09:16:56 ac79
MSF: 09:16:56 Q-Data: 410101 09:14:57 00 09:16:57 1609
MSF: 09:16:57 Q-Data: 410101 09:14:58 00 09:16:58 821f
MSF: 09:16:58 Q-Data: 410101 09:14:59 00 09:16:59 386f
MSF: 09:16:59 Q-Data: 410101 09:14:60 00 09:16:60 3b87
MSF: 09:16:60 Q-Data: 410101 09:14:61 00 09:16:61 81f7
MSF: 09:16:61 Q-Data: 410101 0d:14:61 00 29:16:61 c677
MSF: 09:18:44 Q-Data: 410101 09:16:45 00 09:18:45 ccec
MSF: 09:18:45 Q-Data: 410101 09:16:46 00 09:18:46 125d
MSF: 09:18:46 Q-Data: 410101 09:16:47 00 09:18:47 a82d
MSF: 09:18:47 Q-Data: 410101 09:16:48 00 09:18:48 3c3b
MSF: 09:18:48 Q-Data: 410101 09:16:49 00 09:18:49 864b
MSF: 09:18:49 Q-Data: 410101 09:16:50 00 09:18:50 a975
MSF: 09:18:50 Q-Data: 410101 09:16:51 00 09:18:51 1305
MSF: 09:18:51 Q-Data: 410101 09:16:52 00 09:18:52 cdb4
MSF: 09:18:52 Q-Data: 410101 09:16:42 00 09:18:5a 4866
MSF: 09:19:02 Q-Data: 410101 09:17:03 00 09:19:03 4e92
MSF: 09:19:03 Q-Data: 410101 09:17:04 00 09:19:04 59a1
MSF: 09:19:04 Q-Data: 410101 09:17:05 00 09:19:05 e3d1
MSF: 09:19:05 Q-Data: 410101 09:17:06 00 09:19:06 3d60
MSF: 09:19:06 Q-Data: 410101 09:17:07 00 09:19:07 8710
MSF: 09:19:07 Q-Data: 410101 09:17:08 00 09:19:08 1306
MSF: 09:19:08 Q-Data: 410101 09:17:09 00 09:19:09 a976
MSF: 09:19:09 Q-Data: 410101 09:17:10 00 09:19:10 8648
MSF: 09:19:10 Q-Data: 410101 09:16:10 00 09:99:10 d8f0
MSF: 09:20:33 Q-Data: 410101 09:18:34 00 09:20:34 1912
MSF: 09:20:34 Q-Data: 410101 09:18:35 00 09:20:35 a362
MSF: 09:20:35 Q-Data: 410101 09:18:36 00 09:20:36 7dd3
MSF: 09:20:36 Q-Data: 410101 09:18:37 00 09:20:37 c7a3
MSF: 09:20:37 Q-Data: 410101 09:18:38 00 09:20:38 53b5
MSF: 09:20:38 Q-Data: 410101 09:18:39 00 09:20:39 e9c5
MSF: 09:20:39 Q-Data: 410101 09:18:40 00 09:20:40 b381
MSF: 09:20:40 Q-Data: 410101 09:18:41 00 09:20:41 09f1
MSF: 09:20:41 Q-Data: 410101 08:18:41 00 89:20:41 8a4a
MSF: 09:23:08 Q-Data: 410101 09:21:09 00 09:23:09 e145
MSF: 09:23:09 Q-Data: 410101 09:21:10 00 09:23:10 ce7b
MSF: 09:23:10 Q-Data: 410101 09:21:11 00 09:23:11 740b
MSF: 09:23:11 Q-Data: 410101 09:21:12 00 09:23:12 aaba
MSF: 09:23:12 Q-Data: 410101 09:21:13 00 09:23:13 10ca
MSF: 09:23:13 Q-Data: 410101 09:21:14 00 09:23:14 07f9
MSF: 09:23:14 Q-Data: 410101 09:21:15 00 09:23:15 bd89
MSF: 09:23:15 Q-Data: 410101 09:21:16 00 09:23:16 6338
MSF: 09:23:16 Q-Data: 410101 09:29:16 00 09:33:16 6d89
MSF: 09:24:20 Q-Data: 410101 09:22:21 00 09:24:21 19c1
MSF: 09:24:21 Q-Data: 410101 09:22:22 00 09:24:22 c770
MSF: 09:24:22 Q-Data: 410101 09:22:23 00 09:24:23 7d00
MSF: 09:24:23 Q-Data: 410101 09:22:24 00 09:24:24 6a33
MSF: 09:24:24 Q-Data: 410101 09:22:25 00 09:24:25 d043
MSF: 09:24:25 Q-Data: 410101 09:22:26 00 09:24:26 0ef2
MSF: 09:24:26 Q-Data: 410101 09:22:27 00 09:24:27 b482
MSF: 09:24:27 Q-Data: 410101 09:22:28 00 09:24:28 2094
MSF: 09:24:28 Q-Data: 410101 0d:22:28 00 29:24:28 6714
MSF: 09:26:39 Q-Data: 410101 09:24:40 00 09:26:40 3d48
MSF: 09:26:40 Q-Data: 410101 09:24:41 00 09:26:41 8738
MSF: 09:26:41 Q-Data: 410101 09:24:42 00 09:26:42 5989
MSF: 09:26:42 Q-Data: 410101 09:24:43 00 09:26:43 e3f9
MSF: 09:26:43 Q-Data: 410101 09:24:44 00 09:26:44 f4ca
MSF: 09:26:44 Q-Data: 410101 09:24:45 00 09:26:45 4eba
MSF: 09:26:45 Q-Data: 410101 09:24:46 00 09:26:46 900b
MSF: 09:26:46 Q-Data: 410101 09:24:47 00 09:26:47 2a7b
MSF: 09:26:47 Q-Data: 410101 09:24:43 00 09:26:67 879f
MSF: 09:30:07 Q-Data: 410101 09:28:08 00 09:30:08 45f7
MSF: 09:30:08 Q-Data: 410101 09:28:09 00 09:30:09 ff87
MSF: 09:30:09 Q-Data: 410101 09:28:10 00 09:30:10 d0b9
MSF: 09:30:10 Q-Data: 410101 09:28:11 00 09:30:11 6ac9
MSF: 09:30:11 Q-Data: 410101 09:28:12 00 09:30:12 b478
MSF: 09:30:12 Q-Data: 410101 09:28:13 00 09:30:13 0e08
MSF: 09:30:13 Q-Data: 410101 09:28:14 00 09:30:14 193b
MSF: 09:30:14 Q-Data: 410101 09:28:15 00 09:30:15 a34b
MSF: 09:30:15 Q-Data: 410101 09:28:1d 00 09:30:05 b3d7
MSF: 09:31:38 Q-Data: 410101 09:29:39 00 09:31:39 b3ab
MSF: 09:31:39 Q-Data: 410101 09:29:40 00 09:31:40 e9ef
MSF: 09:31:40 Q-Data: 410101 09:29:41 00 09:31:41 539f
MSF: 09:31:41 Q-Data: 410101 09:29:42 00 09:31:42 8d2e
MSF: 09:31:42 Q-Data: 410101 09:29:43 00 09:31:43 375e
MSF: 09:31:43 Q-Data: 410101 09:29:44 00 09:31:44 206d
MSF: 09:31:44 Q-Data: 410101 09:29:45 00 09:31:45 9a1d
MSF: 09:31:45 Q-Data: 410101 09:29:46 00 09:31:46 44ac
MSF: 09:31:46 Q-Data: 410101 09:21:46 00 09:21:46 4a1d
MSF: 09:34:13 Q-Data: 410101 09:32:14 00 09:34:14 4979
MSF: 09:34:14 Q-Data: 410101 09:32:15 00 09:34:15 f309
MSF: 09:34:15 Q-Data: 410101 09:32:16 00 09:34:16 2db8
MSF: 09:34:16 Q-Data: 410101 09:32:17 00 09:34:17 97c8
MSF: 09:34:17 Q-Data: 410101 09:32:18 00 09:34:18 03de
MSF: 09:34:18 Q-Data: 410101 09:32:19 00 09:34:19 b9ae
MSF: 09:34:19 Q-Data: 410101 09:32:20 00 09:34:20 ba46
MSF: 09:34:20 Q-Data: 410101 09:32:21 00 09:34:21 0036
MSF: 09:34:21 Q-Data: 410101 09:32:61 00 09:34:23 319c
MSF: 09:35:25 Q-Data: 410101 09:33:26 00 09:35:26 6194
MSF: 09:35:26 Q-Data: 410101 09:33:27 00 09:35:27 dbe4
MSF: 09:35:27 Q-Data: 410101 09:33:28 00 09:35:28 4ff2
MSF: 09:35:28 Q-Data: 410101 09:33:29 00 09:35:29 f582
MSF: 09:35:29 Q-Data: 410101 09:33:30 00 09:35:30 dabc
MSF: 09:35:30 Q-Data: 410101 09:33:31 00 09:35:31 60cc
MSF: 09:35:31 Q-Data: 410101 09:33:32 00 09:35:32 be7d
MSF: 09:35:32 Q-Data: 410101 09:33:33 00 09:35:33 040d
MSF: 09:35:33 Q-Data: 410101 09:13:33 00 09:31:33 fd41
MSF: 09:37:44 Q-Data: 410101 09:35:45 00 09:37:45 21dc
MSF: 09:37:45 Q-Data: 410101 09:35:46 00 09:37:46 ff6d
MSF: 09:37:46 Q-Data: 410101 09:35:47 00 09:37:47 451d
MSF: 09:37:47 Q-Data: 410101 09:35:48 00 09:37:48 d10b
MSF: 09:37:48 Q-Data: 410101 09:35:49 00 09:37:49 6b7b
MSF: 09:37:49 Q-Data: 410101 09:35:50 00 09:37:50 4445
MSF: 09:37:50 Q-Data: 410101 09:35:51 00 09:37:51 fe35
MSF: 09:37:51 Q-Data: 410101 09:35:52 00 09:37:52 2084
MSF: 09:37:52 Q-Data: 410101 29:35:52 00 0d:37:52 9232
MSF: 09:39:45 Q-Data: 410101 09:37:46 00 09:39:46 5722
MSF: 09:39:46 Q-Data: 410101 09:37:47 00 09:39:47 ed52
MSF: 09:39:47 Q-Data: 410101 09:37:48 00 09:39:48 7944
MSF: 09:39:48 Q-Data: 410101 09:37:49 00 09:39:49 c334
MSF: 09:39:49 Q-Data: 410101 09:37:50 00 09:39:50 ec0a
MSF: 09:39:50 Q-Data: 410101 09:37:51 00 09:39:51 567a
MSF: 09:39:51 Q-Data: 410101 09:37:52 00 09:39:52 88cb
MSF: 09:39:52 Q-Data: 410101 09:37:53 00 09:39:53 32bb
MSF: 09:39:53 Q-Data: 410101 09:37:43 00 09:39:5b b769
MSF: 09:41:30 Q-Data: 410101 09:39:31 00 09:41:31 2253
MSF: 09:41:31 Q-Data: 410101 09:39:32 00 09:41:32 fce2
MSF: 09:41:32 Q-Data: 410101 09:39:33 00 09:41:33 4692
MSF: 09:41:33 Q-Data: 410101 09:39:34 00 09:41:34 51a1
MSF: 09:41:34 Q-Data: 410101 09:39:35 00 09:41:35 ebd1
MSF: 09:41:35 Q-Data: 410101 09:39:36 00 09:41:36 3560
MSF: 09:41:36 Q-Data: 410101 09:39:37 00 09:41:37 8f10
MSF: 09:41:37 Q-Data: 410101 09:39:38 00 09:41:38 1b06
MSF: 09:41:38 Q-Data: 410101 09:39:3a 00 09:41:78 17c1
MSF: 09:44:05 Q-Data: 410101 09:42:06 00 09:44:06 7616
MSF: 09:44:06 Q-Data: 410101 09:42:07 00 09:44:07 cc66
MSF: 09:44:07 Q-Data: 410101 09:42:08 00 09:44:08 5870
MSF: 09:44:08 Q-Data: 410101 09:42:09 00 09:44:09 e200
MSF: 09:44:09 Q-Data: 410101 09:42:10 00 09:44:10 cd3e
MSF: 09:44:10 Q-Data: 410101 09:42:11 00 09:44:11 774e
MSF: 09:44:11 Q-Data: 410101 09:42:12 00 09:44:12 a9ff
MSF: 09:44:12 Q-Data: 410101 09:42:13 00 09:44:13 138f
MSF: 09:44:13 Q-Data: 410101 19:42:13 00 01:44:13 8dd5
MSF: 09:45:17 Q-Data: 410101 09:43:18 00 09:45:18 388a
MSF: 09:45:18 Q-Data: 410101 09:43:19 00 09:45:19 82fa
MSF: 09:45:19 Q-Data: 410101 09:43:20 00 09:45:20 8112
MSF: 09:45:20 Q-Data: 410101 09:43:21 00 09:45:21 3b62
MSF: 09:45:21 Q-Data: 410101 09:43:22 00 09:45:22 e5d3
MSF: 09:45:22 Q-Data: 410101 09:43:23 00 09:45:23 5fa3
MSF: 09:45:23 Q-Data: 410101 09:43:24 00 09:45:24 4890
MSF: 09:45:24 Q-Data: 410101 09:43:25 00 09:45:25 f2e0
MSF: 09:45:25 Q-Data: 410101 09:43:2d 00 09:45:35 e27c
MSF: 09:47:36 Q-Data: 410101 09:45:37 00 09:47:37 6bc9
MSF: 09:47:37 Q-Data: 410101 09:45:38 00 09:47:38 ffdf
MSF: 09:47:38 Q-Data: 410101 09:45:39 00 09:47:39 45af
MSF: 09:47:39 Q-Data: 410101 09:45:40 00 09:47:40 1feb
MSF: 09:47:40 Q-Data: 410101 09:45:41 00 09:47:41 a59b
MSF: 09:47:41 Q-Data: 410101 09:45:42 00 09:47:42 7b2a
MSF: 09:47:42 Q-Data: 410101 09:45:43 00 09:47:43 c15a
MSF: 09:47:43 Q-Data: 410101 09:45:44 00 09:47:44 d669
MSF: 09:47:44 Q-Data: 410101 09:4d:44 00 09:57:44 d8d8
MSF: 09:49:37 Q-Data: 410101 09:47:38 00 09:49:38 5790
MSF: 09:49:38 Q-Data: 410101 09:47:39 00 09:49:39 ede0
MSF: 09:49:39 Q-Data: 410101 09:47:40 00 09:49:40 b7a4
MSF: 09:49:40 Q-Data: 410101 09:47:41 00 09:49:41 0dd4
MSF: 09:49:41 Q-Data: 410101 09:47:42 00 09:49:42 d365
MSF: 09:49:42 Q-Data: 410101 09:47:43 00 09:49:43 6915
MSF: 09:49:43 Q-Data: 410101 09:47:44 00 09:49:44 7e26
MSF: 09:49:44 Q-Data: 410101 09:47:45 00 09:49:45 c456
MSF: 09:49:45 Q-Data: 410101 09:45:45 00 09:09:45 425a
MSF: 09:52:24 Q-Data: 410101 09:50:25 00 09:52:25 bc60
MSF: 09:52:25 Q-Data: 410101 09:50:26 00 09:52:26 62d1
MSF: 09:52:26 Q-Data: 410101 09:50:27 00 09:52:27 d8a1
MSF: 09:52:27 Q-Data: 410101 09:50:28 00 09:52:28 4cb7
MSF: 09:52:28 Q-Data: 410101 09:50:29 00 09:52:29 f6c7
MSF: 09:52:29 Q-Data: 410101 09:50:30 00 09:52:30 d9f9
MSF: 09:52:30 Q-Data: 410101 09:50:31 00 09:52:31 6389
MSF: 09:52:31 Q-Data: 410101 09:50:32 00 09:52:32 bd38
MSF: 09:52:32 Q-Data: 410101 09:50:30 00 09:52:72 b1ff

Tracks and Write Offsets:
    DAT:

<rom name="Heart of Darkness NL.bin" size="773688048" crc="8e5ea22e" md5="2ad9e8b5d661500e583f5e2eac0e32b0" sha1="d3598906f5c9d04f61439d369c00ee2d1cdeb07b" />

    Cuesheet:

FILE "Heart of Darkness NL.bin" BINARY
  TRACK 01 MODE1/2352
    INDEX 01 00:00:00

    Write Offset: -572

Added missing disc serial

http://redump.org/disc/50279/

https://mega.nz/file/dF9SCCJT#mTs1rS8Zy … LyXYb-DtxY

Common Disc Info:
    Title: The Devil Inside
    System: IBM PC compatible
    Media Type: CD-ROM
    Category: Games
    Matching IDs: 50279
    Region: Europe
    Languages: English, French
    Disc Serial: DIDENCD1

    Ringcode Information:
        Data Side Mastering Code (laser branded/etched): DIDFRENPC 19 MAR 00   MPO   03 @@@ 9
        Data Side Mastering SID Code: IFPI L033
        Mould SID: IFPI 121E
        Toolstamp: 03
    Barcode: 3 554540 860022
    Error Count: 0

Version and Editions:
    Edition/Release: Original

Extras:
    Primary Volume Descriptor (PVD):

0320 : 20 20 20 20 20 20 20 20  20 20 20 20 20 32 30 30                200
0330 : 30 30 33 31 33 30 39 34  35 30 35 30 30 00 32 30   0031309450500.20
0340 : 30 30 30 33 31 33 30 39  34 35 30 35 30 30 00 30   00031309450500.0
0350 : 30 30 30 30 30 30 30 30  30 30 30 30 30 30 30 00   000000000000000.
0360 : 30 30 30 30 30 30 30 30  30 30 30 30 30 30 30 30   0000000000000000
0370 : 00 01 00 00 00 00 00 00  00 00 00 00 00 00 00 00   ................


Tracks and Write Offsets:
    DAT:

<rom name="The Devil Inside EU (Track 01).bin" size="349309632" crc="597086a4" md5="3990c043a9b84978b0bd2a31afdb32a0" sha1="83a336a735f5de74203acaffbfee90b50a07aeb9" />
<rom name="The Devil Inside EU (Track 02).bin" size="30858240" crc="54ea42f5" md5="7a49a83390c27acae6d736cb47f1d757" sha1="fd8c15f06e55c71e611ddfc2e2193387ad048ed5" />
<rom name="The Devil Inside EU (Track 03).bin" size="53185776" crc="54131f60" md5="aea226cbd6def33a3888363c9876ad19" sha1="f05746bd4fbcfeb6babc889e2c07880ab29a1340" />
<rom name="The Devil Inside EU (Track 04).bin" size="37067520" crc="efc29ceb" md5="1123560f2b13880faed2a8e8e9f7ba3c" sha1="132e9a222ff7178ba3e652fbab68d136e766f679" />
<rom name="The Devil Inside EU (Track 05).bin" size="49827120" crc="ab03e07f" md5="6a31d04eb40dd7830446c1af223578fb" sha1="fbe882fe624c98ef51fe5515be551f07926a6722" />
<rom name="The Devil Inside EU (Track 06).bin" size="35160048" crc="49a40f74" md5="c46b6393c31359c262faf3412ebfb258" sha1="20889ddcadd6088c6d2d4a52a3a46525a731756b" />
<rom name="The Devil Inside EU (Track 07).bin" size="15478512" crc="60a09e82" md5="2f3da44f11232b1b9554d0e654ae6f6c" sha1="47722f0ab7b4ab11ef74154a2407a43fb222edca" />
<rom name="The Devil Inside EU (Track 08).bin" size="13914432" crc="4039d752" md5="ba5d4c84856acfab7bc4d6669cbd0817" sha1="a79677b63c21af2a1ca7aa97fbc8a20ec36f5af4" />
<rom name="The Devil Inside EU (Track 09).bin" size="36808800" crc="356a23b3" md5="ed01fa87080c346726ccf233745f78ef" sha1="13a8083a1fa877b762ca6777836b7aba783b91a6" />
<rom name="The Devil Inside EU (Track 10).bin" size="14464800" crc="96b450f3" md5="5147a68f689138cc45dacbef68640e8d" sha1="a406705664fd7e2c1ae4a644dec3d8b0c01fd8dd" />
<rom name="The Devil Inside EU (Track 11).bin" size="18079824" crc="5878e74d" md5="db7d5cacc301df0d95ae1d54c3c8063b" sha1="64e58f91fc7b01a26d6c00978f301476bea9a42b" />
<rom name="The Devil Inside EU (Track 12).bin" size="13618080" crc="86774519" md5="3ec214ee14f4b0b94cfbb39826983c09" sha1="4a714bc0ba2f70813bf6eafbff6b1ea8217c6e98" />
<rom name="The Devil Inside EU (Track 13).bin" size="17541216" crc="28d5c945" md5="de61e42c115ed9f79651bdf02b3fd796" sha1="cebbf1395580d6b3c21173e431f033d8dc2b18c2" />
<rom name="The Devil Inside EU (Track 14).bin" size="14770560" crc="07a923e6" md5="5613fe360622d4683c998cb8e5da1c6f" sha1="89293114772bc6c8e35216926469342f0833c482" />
<rom name="The Devil Inside EU (Track 15).bin" size="15038688" crc="b723fede" md5="d28f217d1844c48f98f9e137d7825ec7" sha1="9490a6cf038a238c13cddf7b18c90bfe1668ed52" />
<rom name="The Devil Inside EU (Track 16).bin" size="17922240" crc="94f78f1a" md5="7333ad989b3eae1e9be1161ed3eef546" sha1="bad0ed88974fa3a266d0b291747144db83d50100" />
<rom name="The Devil Inside EU (Track 17).bin" size="14408352" crc="b6ccbb24" md5="ca30317d1c1d18e44dc1e583ecb77a71" sha1="0ad196e2871ed16527d33cfc140070316f3617e9" />

    Cuesheet:

FILE "The Devil Inside EU (Track 01).bin" BINARY
  TRACK 01 MODE2/2352
    INDEX 01 00:00:00
FILE "The Devil Inside EU (Track 02).bin" BINARY
  TRACK 02 AUDIO
    INDEX 00 00:00:00
    INDEX 01 00:02:00
FILE "The Devil Inside EU (Track 03).bin" BINARY
  TRACK 03 AUDIO
    INDEX 01 00:00:00
FILE "The Devil Inside EU (Track 04).bin" BINARY
  TRACK 04 AUDIO
    INDEX 01 00:00:00
FILE "The Devil Inside EU (Track 05).bin" BINARY
  TRACK 05 AUDIO
    INDEX 01 00:00:00
FILE "The Devil Inside EU (Track 06).bin" BINARY
  TRACK 06 AUDIO
    INDEX 01 00:00:00
FILE "The Devil Inside EU (Track 07).bin" BINARY
  TRACK 07 AUDIO
    INDEX 01 00:00:00
FILE "The Devil Inside EU (Track 08).bin" BINARY
  TRACK 08 AUDIO
    INDEX 01 00:00:00
FILE "The Devil Inside EU (Track 09).bin" BINARY
  TRACK 09 AUDIO
    INDEX 01 00:00:00
FILE "The Devil Inside EU (Track 10).bin" BINARY
  TRACK 10 AUDIO
    INDEX 01 00:00:00
FILE "The Devil Inside EU (Track 11).bin" BINARY
  TRACK 11 AUDIO
    INDEX 01 00:00:00
FILE "The Devil Inside EU (Track 12).bin" BINARY
  TRACK 12 AUDIO
    INDEX 01 00:00:00
FILE "The Devil Inside EU (Track 13).bin" BINARY
  TRACK 13 AUDIO
    INDEX 01 00:00:00
FILE "The Devil Inside EU (Track 14).bin" BINARY
  TRACK 14 AUDIO
    INDEX 01 00:00:00
FILE "The Devil Inside EU (Track 15).bin" BINARY
  TRACK 15 AUDIO
    INDEX 01 00:00:00
FILE "The Devil Inside EU (Track 16).bin" BINARY
  TRACK 16 AUDIO
    INDEX 01 00:00:00
FILE "The Devil Inside EU (Track 17).bin" BINARY
  TRACK 17 AUDIO
    INDEX 01 00:00:00

    Write Offset: -12

This missing USA release matched with the Netherlands one that dumped by Jackal

http://redump.org/disc/51569/

https://mega.nz/file/hAtSwYCK#rTV76i9oT … YnMZHP8Rt4

Common Disc Info:
    Title: Spider-Man: The Sinister Six
    System: IBM PC compatible
    Media Type: CD-ROM
    Category: Games
    Matching IDs: 51569
    Region: USA, Europe
    Languages: English
    Disc Serial: 60020-9

    Ringcode Information:
        Data Side Mastering Code (laser branded/etched): 2491-2-2    ALLIED DT    *60020-9*
        Data Side Mastering SID Code: IFPI L452
        Mould SID: ifpi   (I cannot read the numbers, only the ifpi. Too many scratches around the mould part)
    Barcode: 7 -93763-00037 9, 9 781572 600201
    Error Count: 0
    Comments: European region dumped: Netherlands. USA release's ISBN 1-57260-020-9. USA release's jewel case barcode 7 -93763-00037 9 + big box barcode 9 781572 600201

Version and Editions:
    Edition/Release: Original

Extras:
    Primary Volume Descriptor (PVD):

0320 : 20 20 20 20 20 20 20 20  20 20 20 20 20 31 39 39                199
0330 : 36 31 30 32 31 32 30 35  39 32 31 30 30 00 31 39   6102120592100.19
0340 : 39 36 31 30 32 31 32 30  35 39 32 31 30 30 00 30   96102120592100.0
0350 : 30 30 30 30 30 30 30 30  30 30 30 30 30 30 30 00   000000000000000.
0360 : 30 30 30 30 30 30 30 30  30 30 30 30 30 30 30 30   0000000000000000
0370 : 00 01 00 00 00 00 00 00  00 00 00 00 00 00 00 00   ................

Tracks and Write Offsets:
    DAT:

<rom name="Spiderman Sinister Six USA.bin" size="369144048" crc="830159fe" md5="d8bc04caaf12a8488b68da1cd0783d56" sha1="c04edabeb5008007246df4d2c7b73c26ded601c4" />

    Cuesheet:

FILE "Spiderman Sinister Six USA.bin" BINARY
  TRACK 01 MODE2/2352
    INDEX 01 00:00:00

    Write Offset: 0

http://redump.org/disc/73420/

https://mega.nz/file/dZcBBTSQ#9641ZJyql … S0vwb8oZeo

Common Disc Info:
    Title: Rayman 3: Hoodlum Havoc
    Disc Number: Disc 3
    System: IBM PC compatible
    Media Type: CD-ROM
    Category: Games
    Matching IDs: 73420
    Region: Poland
    Languages: Polish

    Ringcode Information:
        Data Side Mastering Code (laser branded/etched): www.takt.com.pl    tAkt    0537218 RAYMAN 3 PL 3    tAkt  (It is tAkt, not takt)
        Data Side Mastering SID Code: ifpi LK96
        Mould SID: IFPI 9R16
    Barcode: 5 903034 002581
    Error Count: 0
    Comments: Voices in Polish

Version and Editions:
    Version: 1.0.0
    Edition/Release: Original, Rerelease

Extras:
    Primary Volume Descriptor (PVD):

0320 : 20 20 20 20 20 20 20 20  20 20 20 20 20 32 30 30                200
0330 : 33 30 35 31 33 30 30 31  35 30 30 30 30 08 32 30   3051300150000.20
0340 : 30 33 30 35 31 33 30 30  31 35 30 30 30 30 08 30   03051300150000.0
0350 : 30 30 30 30 30 30 30 30  30 30 30 30 30 30 30 00   000000000000000.
0360 : 30 30 30 30 30 30 30 30  30 30 30 30 30 30 30 30   0000000000000000
0370 : 00 01 00 00 00 00 00 00  00 00 00 00 00 00 00 00   ................

Tracks and Write Offsets:
    DAT:

<rom name="Rayman 3 PL CD3.bin" size="712940592" crc="953ac99d" md5="b918b7b00fd460873e74f063861459be" sha1="93f91adf318a16a3b9e3c4d433a825984d1af854" />

    Cuesheet:

FILE "Rayman 3 PL CD3.bin" BINARY
  TRACK 01 MODE1/2352
    INDEX 01 00:00:00

    Write Offset: -6

Disc 1 is new and already submitted on New Disc form. My original Disc 2 and Disc 3 matched with NVE's disc 2,3. Thus, our discs' edition should be listed as "Original, Rerelease".

http://redump.org/disc/73419/

https://mega.nz/file/oUM0jZ7L#2VpoVUjoW … 8f6moVuCZE

Common Disc Info:
    Title: Rayman 3: Hoodlum Havoc
    Disc Number / Letter: 2
    System: IBM PC compatible
    Media Type: CD-ROM
    Category: Games
    Matching IDs: 73419
    Region: Poland
    Languages: Polish

    Ringcode Information:
        Data Side Mastering Code (laser branded/etched): www.takt.com.pl    tAkt    0537217 RAYMAN 3 PL 2    tAkt  (It is tAkt, not takt)
        Data Side Mastering SID Code: ifpi LK96
        Mould SID: IFPI 9R41
    Barcode: 5 903034 002581
    Error Count: 0
    Comments: Voices in Polish

Version and Editions:
    Version: 1.0.0
    Edition/Release: Original, Rerelease

Extras:
    Primary Volume Descriptor (PVD):

0320 : 20 20 20 20 20 20 20 20  20 20 20 20 20 32 30 30                200
0330 : 33 30 35 31 32 31 32 35  33 33 31 33 32 08 32 30   3051212533132.20
0340 : 30 33 30 35 31 32 31 32  35 33 33 31 33 32 08 32   03051212533132.2
0350 : 31 30 33 30 35 31 32 31  32 35 33 33 31 33 32 08   103051212533132.
0360 : 32 30 30 33 30 35 31 32  31 32 35 33 33 31 33 32   2003051212533132
0370 : 08 01 00 00 00 00 00 00  00 00 00 00 00 00 00 00   ................

Tracks and Write Offsets:
    DAT:

<rom name="Rayman 3 PL CD2.bin" size="551920320" crc="8293ad48" md5="a2a9b065f539070aceac0eaafeb24445" sha1="72ac3ca405aae79a64abd16cc4e7072a8f55cff7" />

    Cuesheet:

FILE "Rayman 3 PL CD2.bin" BINARY
  TRACK 01 MODE1/2352
    INDEX 01 00:00:00

    Write Offset: -6

20

(0 replies, posted in Verifications)

http://redump.org/disc/90010/

https://mega.nz/file/cUVVlL5D#JV8U5nvnR … d4mrk-VCAc

Common Disc Info:
    Title: Kajko i Kokosz
    System: IBM PC compatible
    Media Type: CD-ROM
    Category: Games
    Matching IDs: 90010
    Region: Poland
    Languages: Polish
    Disc Serial: SELL 0194

    Ringcode Information:
        Data Side Mastering Code (laser branded/etched): Selles Records SELL 0194 *S 1602*
    Error Count: 0
    Contents:

[+]<b>Games:</b>

Kajko i Kokosz

<b>Extras:</b>

Kajko i Kokosz: W Krainie Borostworów (Comic Book) (Pl)

Version and Editions:
    Edition/Release: Covermount

Extras:
    Primary Volume Descriptor (PVD):

0320 : 20 20 20 20 20 20 20 20  20 20 20 20 20 31 39 39                199
0330 : 37 30 33 31 32 31 35 32  34 30 34 30 30 00 31 39   7031215240400.19
0340 : 39 37 30 33 31 32 31 35  32 34 30 34 30 30 00 30   97031215240400.0
0350 : 30 30 30 30 30 30 30 30  30 30 30 30 30 30 30 00   000000000000000.
0360 : 30 30 30 30 30 30 30 30  30 30 30 30 30 30 30 30   0000000000000000
0370 : 00 01 00 00 00 00 00 00  00 00 00 00 00 00 00 00   ................

Tracks and Write Offsets:
    DAT:

<rom name="Kajko i Kokosz 2CD Pack.bin" size="260439312" crc="f8593405" md5="554ca8913a992392e07c17c7e906085a" sha1="ad4d81b62983a6d5400ebcab8b0629b120b5c5aa" />

    Cuesheet:

FILE "Kajko i Kokosz 2CD Pack.bin" BINARY
  TRACK 01 MODE1/2352
    INDEX 01 00:00:00

    Write Offset: -22

http://redump.org/disc/23184/

https://mega.nz/file/0MVUmR4A#hJvCLOQOk … 2b3ymXohpU

Common Disc Info:
    Title: Spy Fox 2: Operatie "Robot-Knop"
    Foreign Title (Non-latin): Spy Fox: Operatie Robot-Knop
    System: IBM PC compatible
    Media Type: CD-ROM
    Category: Games
    Matching IDs: 23184
    Region: Belgium, Netherlands
    Languages: Dutch
    Disc Serial: 04DSILK16n

    Ringcode Information:
        Data Side Mastering Code (laser branded/etched): Sony DADC   A0100516782-0101   13
        Data Side Mastering SID Code: IFPI L553
        Mould SID: IFPI 94K1
        Toolstamp: A0
    Barcode: 5 400646 050646
    Error Count: 0
    Comments: Voices in Dutch

Version and Editions:
    Version: 1.0.0.1
    Edition/Release: Original 

Extras:
    Primary Volume Descriptor (PVD):

0320 : 20 20 20 20 20 20 20 20  20 20 20 20 20 32 30 30                200
0330 : 30 30 39 32 31 31 30 32  38 34 31 30 30 00 32 30   0092110284100.20
0340 : 30 30 30 39 32 32 31 30  35 30 35 33 30 30 00 00   00092210505300..
0350 : 00 00 00 00 00 00 00 00  00 00 00 00 00 00 00 00   ................
0360 : 00 00 00 00 00 00 00 00  00 00 00 00 00 00 00 00   ................
0370 : 00 01 00 00 00 00 00 00  00 00 00 00 00 00 00 00   ................


Tracks and Write Offsets:
    DAT:

<rom name="SpyFox BELGIAN.bin" size="582098832" crc="8e318171" md5="035ce802662b31f1878601ec5ecf87b4" sha1="d5cd35cc84d15f5dde1160d52713078f3f09b983" />

    Cuesheet:

FILE "SpyFox BELGIAN.bin" BINARY
  TRACK 01 MODE1/2352
    INDEX 01 00:00:00

    Write Offset: -647

22

(0 replies, posted in Verifications)

http://redump.org/disc/65502/

https://mega.nz/file/gINSzRwL#God5VB6RR … rqgrtruq-U


Common Disc Info:
    Title: Stronghold
    Foreign Title (Non-latin): FireFly Studios' Stronghold
    System: IBM PC Compatible
    Media Type: CD-ROM
    Category: Games
    Matching IDs: 65502
    Region: USA
    Languages: English

    Ringcode Information:
        Data Side Mastering Code (laser branded/etched): STRHOLDCD R1F   E
        Data Side Mastering SID Code: IFPI L240
        Mould SID: IFPI 4121
        Toolstamp: 14
    Barcode: 6 63593 16001 0
    Error Count: 578

Version and Editions:
    Version: 1.0
    Edition/Release: Original

Extras:
    Primary Volume Descriptor (PVD):

0320 : 20 20 20 20 20 20 20 20  20 20 20 20 20 32 30 30                200
0330 : 31 31 30 30 35 32 31 31  34 30 34 30 30 00 32 30   1100521140400.20
0340 : 30 31 31 30 30 35 32 31  31 34 30 34 30 30 00 30   01100521140400.0
0350 : 30 30 30 30 30 30 30 30  30 30 30 30 30 30 30 00   000000000000000.
0360 : 30 30 30 30 30 30 30 30  30 30 30 30 30 30 30 30   0000000000000000
0370 : 00 01 00 00 00 00 00 00  00 00 00 00 00 00 00 00   ................

Copy Protection:
    SafeDisc 2.40.010

Tracks and Write Offsets:
    DAT:

<rom name="STRONGHOLD USA.bin" size="778916544" crc="ed1bdc3f" md5="5895c57a5e6d5728fb3e1190c74497e9" sha1="cfb2be464c970b525e2dccd677ef7f68522b9706" />

    Cuesheet:

FILE "STRONGHOLD USA.bin" BINARY
  TRACK 01 MODE1/2352
    INDEX 01 00:00:00

    Write Offset: -12

http://redump.org/disc/13050/

https://mega.nz/file/RINyhLSB#JCG4fDAxT … u9pd_MZkJM

Common Disc Info:
    Title: Mafia
    Disc Number / Letter: 3 
    System: IBM PC Compatible
    Media Type: CD-ROM
    Category: Games
    Matching IDs: 13050
    Region: USA
    Languages: English

        Ringcode Information:
        Data Side Mastering Code (laser branded/etched): 211943 R5N E
        Data Side Mastering SID Code: IFPI L250
        Mould SID: IFPI 4121
        Toolstamp: 21
    Error Count: 592

Version and Editions:
    Version: 1.0

Extras:
    Primary Volume Descriptor (PVD):

0320 : 20 20 20 20 20 20 20 20  20 20 20 20 20 32 30 30                200
0330 : 32 30 38 30 38 31 30 30  36 33 37 30 30 00 32 30   2080810063700.20
0340 : 30 32 30 38 30 38 31 30  30 36 33 37 30 30 00 30   02080810063700.0
0350 : 30 30 30 30 30 30 30 30  30 30 30 30 30 30 30 00   000000000000000.
0360 : 30 30 30 30 30 30 30 30  30 30 30 30 30 30 30 30   0000000000000000
0370 : 00 01 00 00 00 00 00 00  00 00 00 00 00 00 00 00   ................

Copy Protection:
    SafeDisc 2.70.030

Tracks and Write Offsets:
    DAT:

<rom name="MAFIA USA CD3.bin" size="835329264" crc="6d426935" md5="21feccbfa37f1536886647ad21c443d6" sha1="80327c605ec2a1a7a1df154a68c5b05b4f9c2175" />

    Cuesheet:

FILE "MAFIA USA CD3.bin" BINARY
  TRACK 01 MODE1/2352
    INDEX 01 00:00:00

    Write Offset: -12

Disc 1 is undumpable


http://redump.org/disc/13049/

https://mega.nz/file/dNkHRAKb#3DuNGW7qJ … UiNKgzBJVI

Common Disc Info:
    Title: Mafia
    Disc Number / Letter: 2 
    System: IBM PC Compatible
    Media Type: CD-ROM
    Category: Games
    Matching IDs: 13049
    Region: USA
    Languages: English

    Ringcode Information:
        Data Side Mastering Code (laser branded/etched): 211942 R4N E
        Data Side Mastering SID Code: IFPI L250
        Mould SID: IFPI 4150
        Toolstamp: 12
    Error Count: 592

Version and Editions:
    Version: 1.0

Extras:
    Primary Volume Descriptor (PVD):

0320 : 20 20 20 20 20 20 20 20  20 20 20 20 20 32 30 30                200
0330 : 32 30 38 31 30 32 32 30  31 31 34 30 30 00 32 30   2081022011400.20
0340 : 30 32 30 38 31 30 32 32  30 31 31 34 30 30 00 30   02081022011400.0
0350 : 30 30 30 30 30 30 30 30  30 30 30 30 30 30 30 00   000000000000000.
0360 : 30 30 30 30 30 30 30 30  30 30 30 30 30 30 30 30   0000000000000000
0370 : 00 01 00 00 00 00 00 00  00 00 00 00 00 00 00 00   ................

Copy Protection:
    SafeDisc 2.70.030

Tracks and Write Offsets:
    DAT:

<rom name="MAFIA USA CD2.bin" size="829689168" crc="60d49c0f" md5="a3ed6f5c47f9b388ce6b8f8e716cc988" sha1="5e7aa12152b751c3fa6926dca32a1b820bd0cc07" />

    Cuesheet:

FILE "MAFIA USA CD2.bin" BINARY
  TRACK 01 MODE1/2352
    INDEX 01 00:00:00

    Write Offset: -12

25

(0 replies, posted in Verifications)

http://redump.org/disc/37266/

https://mega.nz/file/8ZMgzLpZ#jRuSMFca9 … rLOmfsYSB0

Common Disc Info:
    Title: Hostile Waters
    System: IBM PC compatible
    Media Type: CD-ROM
    Category: Games
    Matching IDs: 37266
    Region: Europe
    Languages: English
    Disc Serial: HOSPCCDGB

    Ringcode Information:
        Data Side Mastering Code (laser branded/etched): BLP449 02 6
        Data Side Mastering SID Code: IFPI L136
        Mould SID: IFPI 04A4
        Mould texts: MADE IN THE UK BY UNIVERSAL M&L
    Barcode: 5 035687 030533
    Error Count: 593
    Comments: [T:VOL] Hostile

Version and Editions:
    Version: 1.0
    Edition/Release: Original

Extras:
    Primary Volume Descriptor (PVD):

0320 : 20 20 20 20 20 20 20 20  20 20 20 20 20 32 30 30                200
0330 : 31 30 33 30 31 30 30 34  33 34 34 30 30 00 32 30   1030100434400.20
0340 : 30 31 30 33 30 31 30 30  34 33 34 34 30 30 00 32   01030100434400.2
0350 : 30 31 31 30 32 32 37 30  30 34 33 34 34 30 30 00   011022700434400.
0360 : 32 30 30 31 30 33 30 31  30 30 34 33 34 34 30 30   2001030100434400
0370 : 00 01 00 00 00 00 00 00  00 00 00 00 00 00 00 00   ................

Copy Protection:
    SafeDisc 2.10.030

Tracks and Write Offsets:
    DAT:

<rom name="Hostile Water UK.bin" size="788891376" crc="d7101388" md5="d2474ce2e3feec9b8eab96a64abc7edc" sha1="87a9e61074ebd0405015e6b28b483376e5f3feef" />

    Cuesheet:

FILE "Hostile Water UK.bin" BINARY
  TRACK 01 MODE1/2352
    INDEX 01 00:00:00

    Write Offset: -12