1

(1 replies, posted in Fixes & additions)

reentrant wrote:

http://redump.org/disc/85838/
http://redump.org/disc/85839/

Both are rereleases. It's a common pattern in CDPROJEKT discs to include revision no in mastering code:

GM Records 2503321808 L-1   STRANB Stranglehold DVD2   CDPROJEKT

B means it's 2nd edition,
C means it's 3rd edition,
and so no.

CD Projekt releases are truly bunch of clusterfucks, so let wait for me a bit. I’m going to get the DVD box version within this week to see if it has “A” mastering code ^^, this version i dumped here is a Big Box release.

http://redump.org/disc/30911/

https://mega.nz/file/INd1iAQC#4d4wDxSwi … A84mBu8ReY

All American Sports Series is the Edition's name, not the main title. It should be called only "NASCAR Racing".

Common Disc Info:
    Title: NASCAR Racing
    System: IBM PC Compatible
    Media Type: CD-ROM
    Category: Games
    Matching IDs: 30911
    Region: USA
    Languages: English

    Ringcode Information:
        Mastering Code (laser branded/etched): NIMBUS   S7055710   :
        Mastering SID Code: IFPI L126
        Mould SID: IFPI 4M03
    Barcode: 0 20626 70468 7
    Error Count: 0
    Comments: [T:ISBN]: 0-87177-863-7

Version and Editions:
    Edition/Release: All American Sports Series

Extras:
    Primary Volume Descriptor (PVD):

0320 : 20 20 20 20 20 20 20 20  20 20 20 20 20 31 39 39                199
0330 : 38 30 39 30 35 31 31 33  39 32 39 30 30 00 31 39   8090511392900.19
0340 : 39 38 30 39 30 35 31 31  33 39 32 39 30 30 00 32   98090511392900.2
0350 : 30 30 38 30 39 30 32 31  31 33 39 32 39 30 30 00   008090211392900.
0360 : 31 39 39 38 30 39 30 35  31 31 33 39 32 39 30 30   1998090511392900
0370 : 00 01 00 00 00 00 00 00  00 00 00 00 00 00 00 00   ................

Tracks and Write Offsets:
    DAT:

<rom name="Nascar Racing All American Sport Series.bin" size="51595824" crc="9b55c54c" md5="e637efb6531ae1e4d9e6384d8d851fa2" sha1="c14b2b029936f778c2dd4b2345aaeb616e782f56" />

    Cuesheet:

FILE "Nascar Racing All American Sport Series.bin" BINARY
  TRACK 01 MODE1/2352
    INDEX 01 00:00:00

    Write Offset: -12

http://redump.org/disc/58288/

https://mega.nz/file/9Q8wSRIZ#pOcCinsXM … f1LpDkD2no

Common Disc Info:
    Title: Destruction Derby 2
    System: IBM PC Compatible
    Media Type: CD-ROM
    Category: Games
    Matching IDs: 58288
    Region: Poland
    Languages: Polish

    Ringcode Information:
        Data Side Mastering Code (laser branded/etched): www.gmrecords.pl GMR 796/www.cdprojekt.com.pl/D.D.II          (it is "www.cdprojekt.com.pl" not just www.cdprojekt.com)
        Data Side Mastering SID Code: NULL
        Mould SID: IFPI Z901
    Error Count: 0

Extras:
    Primary Volume Descriptor (PVD):

0320 : 20 20 20 20 20 20 20 20  20 20 20 20 20 32 30 30                200
0330 : 31 30 31 30 35 32 30 33  33 32 30 32 39 04 32 30   1010520332029.20
0340 : 30 31 30 31 30 35 32 30  33 34 30 32 34 37 C4 00   01010520340247..
0350 : 00 00 00 00 00 00 00 00  00 00 00 00 00 00 00 00   ................
0360 : 00 00 00 00 00 00 00 00  00 00 00 00 00 00 00 00   ................
0370 : 00 01 00 00 00 00 00 00  00 00 00 00 00 00 00 00   ................

Tracks and Write Offsets:
    DAT:

<rom name="Destruction Derby 2 POLAND (Track 01).bin" size="89220768" crc="4854821b" md5="5cee0088c93d85d6b008fab4b46d8a6b" sha1="1c95d8b97569d592f4fbc90e87987e1ea01bac69" />
<rom name="Destruction Derby 2 POLAND (Track 02).bin" size="29882160" crc="5c51f52f" md5="3e05a2a1494c5b908c99943481e74935" sha1="3cb3bf8bb529d3fa9c052b9625bf090c639affe1" />
<rom name="Destruction Derby 2 POLAND (Track 03).bin" size="40983600" crc="7306dd09" md5="d286c3d297e830b47d4a3459d2586382" sha1="06783db983ba1b29c920c7b82799d0c90e0ede35" />
<rom name="Destruction Derby 2 POLAND (Track 04).bin" size="39807600" crc="8c0e4587" md5="9396c0800064e5656b869fac466547ce" sha1="6b56e703577c8be559f13bdd08d10a2debd6cd2f" />
<rom name="Destruction Derby 2 POLAND (Track 05).bin" size="30051504" crc="09ac51cb" md5="2651ac69999ea5350d65764c665db99a" sha1="542027fdc9d0dfd76a0ae8963d220a430224a413" />
<rom name="Destruction Derby 2 POLAND (Track 06).bin" size="30093840" crc="40a7f57e" md5="823ee16788d49424398b99957a67e1a3" sha1="25723a2c5875be4fbcb2c5d76a020c720d64fd19" />
<rom name="Destruction Derby 2 POLAND (Track 07).bin" size="24385536" crc="57d15347" md5="714e4fc8145f84e13f268d7f9b317ac6" sha1="824043d69f3f1f804f208b4344477eb143fec14f" />
<rom name="Destruction Derby 2 POLAND (Track 08).bin" size="38215296" crc="fc6d5e94" md5="b6d8f4d392e744d0e2c71fc2c9ce4c46" sha1="0a3c57959e8b32606697a6bb14d53d435ff8d814" />
<rom name="Destruction Derby 2 POLAND (Track 09).bin" size="40492032" crc="1c6c6e8e" md5="98febfeadb7fdfb82b7e8f0601ce2cdf" sha1="d919eb0ab6e6d2d5312141a036f89658eb868978" />
<rom name="Destruction Derby 2 POLAND (Track 10).bin" size="37592016" crc="48885a3a" md5="8ab3f83c4017e510582f96a9c5274fa3" sha1="44bddfea52d429afe27bea4b914d8e19ab38e052" />
<rom name="Destruction Derby 2 POLAND (Track 11).bin" size="20337744" crc="dcd89878" md5="f2cc2f54a953903c8e7b4d6cc3c93b30" sha1="b8b2e2a082717fd526bda14587adcef2b0a749ba" />
<rom name="Destruction Derby 2 POLAND (Track 12).bin" size="17846976" crc="a5392e44" md5="9501a8bef3338440d14ce409d31b48a3" sha1="0c395143bf3671eea69e58460f452dbc9b1f9676" />
<rom name="Destruction Derby 2 POLAND (Track 13).bin" size="30931152" crc="5e3cd440" md5="d2dc38b712560851ca4771e303756593" sha1="b9924eda8acfc1359a10b9877591a3310cd8051f" />
<rom name="Destruction Derby 2 POLAND (Track 14).bin" size="63482832" crc="1c2a007a" md5="a0e30413be297b80f03c3286b37424c9" sha1="d75dd9aeb0824781eda8c3c8e08fcc431282f3cf" />
<rom name="Destruction Derby 2 POLAND (Track 15).bin" size="20274240" crc="9ae4a8b9" md5="2d3f1c4e7e2777f800d1f19e384f66b2" sha1="f270e17570badc1c516518bc152dd958dd33c776" />
<rom name="Destruction Derby 2 POLAND (Track 16).bin" size="13131216" crc="5f7f8e8c" md5="fdf8161829dfe52944ccd89dbc4ee69b" sha1="ba4d4fc191b20372fe85feee2fa19661a04ab0e0" />
<rom name="Destruction Derby 2 POLAND (Track 17).bin" size="36686496" crc="a95640df" md5="8466f8b37795b8f2acd4e8eb3ecccd82" sha1="5f0a8b6601785454cc62475eeab88df2ad095279" />
<rom name="Destruction Derby 2 POLAND (Track 18).bin" size="33200832" crc="424be119" md5="ad4f165d5970a6740ab6fabe6015e760" sha1="e6954303281c239cdf06a198ba36b283f23c67ab" />
<rom name="Destruction Derby 2 POLAND (Track 19).bin" size="35858592" crc="65e149c1" md5="be366aa5e8100e7202edfce55289d824" sha1="c4214dc851b381206ee43cbdea723b9e210843f5" />

    Cuesheet:

CATALOG 0000000000000
FILE "Destruction Derby 2 POLAND (Track 01).bin" BINARY
  TRACK 01 MODE1/2352
    INDEX 01 00:00:00
FILE "Destruction Derby 2 POLAND (Track 02).bin" BINARY
  TRACK 02 AUDIO
    INDEX 00 00:00:00
    INDEX 01 00:02:00
FILE "Destruction Derby 2 POLAND (Track 03).bin" BINARY
  TRACK 03 AUDIO
    INDEX 01 00:00:00
FILE "Destruction Derby 2 POLAND (Track 04).bin" BINARY
  TRACK 04 AUDIO
    INDEX 01 00:00:00
FILE "Destruction Derby 2 POLAND (Track 05).bin" BINARY
  TRACK 05 AUDIO
    INDEX 01 00:00:00
FILE "Destruction Derby 2 POLAND (Track 06).bin" BINARY
  TRACK 06 AUDIO
    INDEX 01 00:00:00
FILE "Destruction Derby 2 POLAND (Track 07).bin" BINARY
  TRACK 07 AUDIO
    INDEX 01 00:00:00
FILE "Destruction Derby 2 POLAND (Track 08).bin" BINARY
  TRACK 08 AUDIO
    INDEX 01 00:00:00
FILE "Destruction Derby 2 POLAND (Track 09).bin" BINARY
  TRACK 09 AUDIO
    INDEX 01 00:00:00
FILE "Destruction Derby 2 POLAND (Track 10).bin" BINARY
  TRACK 10 AUDIO
    INDEX 01 00:00:00
FILE "Destruction Derby 2 POLAND (Track 11).bin" BINARY
  TRACK 11 AUDIO
    INDEX 01 00:00:00
FILE "Destruction Derby 2 POLAND (Track 12).bin" BINARY
  TRACK 12 AUDIO
    INDEX 01 00:00:00
FILE "Destruction Derby 2 POLAND (Track 13).bin" BINARY
  TRACK 13 AUDIO
    INDEX 01 00:00:00
FILE "Destruction Derby 2 POLAND (Track 14).bin" BINARY
  TRACK 14 AUDIO
    INDEX 01 00:00:00
FILE "Destruction Derby 2 POLAND (Track 15).bin" BINARY
  TRACK 15 AUDIO
    INDEX 01 00:00:00
FILE "Destruction Derby 2 POLAND (Track 16).bin" BINARY
  TRACK 16 AUDIO
    INDEX 01 00:00:00
FILE "Destruction Derby 2 POLAND (Track 17).bin" BINARY
  TRACK 17 AUDIO
    INDEX 01 00:00:00
FILE "Destruction Derby 2 POLAND (Track 18).bin" BINARY
  TRACK 18 AUDIO
    INDEX 01 00:00:00
FILE "Destruction Derby 2 POLAND (Track 19).bin" BINARY
  TRACK 19 AUDIO
    INDEX 01 00:00:00

    Write Offset: 0

http://redump.org/disc/64195/

https://mega.nz/file/NZ8SlBZQ#ccof6dmn9 … U4aploWtJU

Common Disc Info:
    Title: Fallout Tactics: Brotherhood of Steel
    Disc Number / Letter: 2
    System: IBM PC Compatible
    Media Type: CD-ROM
    Category: Games
    Matching IDs: 64195
    Region: USA
    Languages: English
    Disc Serial: CD-W58-1237-1

    Ringcode Information:
        Data Side Mastering Code (laser branded/etched): FUTURE MEDIA \ CA   FM 20333 (CD-W58-1237-1/IN0002)
        Data Side Mastering SID Code: IFPI LG33
        Mould SID: IFPI 3V39
        Toolstamp: C01   M01   S07
    Error Count: 0
    Comments: [T:ISBN]: 1-57629-612-1

Version and Editions:
    Version: 1.13
    Edition/Release: Original


Extras:
    Primary Volume Descriptor (PVD):

0320 : 20 20 20 20 20 20 20 20  20 20 20 20 20 32 30 30                200
0330 : 31 30 33 30 37 31 35 34  35 32 33 30 30 00 32 30   1030715452300.20
0340 : 30 31 30 33 30 37 31 35  34 35 32 33 30 30 00 30   01030715452300.0
0350 : 30 30 30 30 30 30 30 30  30 30 30 30 30 30 30 00   000000000000000.
0360 : 30 30 30 30 30 30 30 30  30 30 30 30 30 30 30 30   0000000000000000
0370 : 00 01 00 00 00 00 00 00  00 00 00 00 00 00 00 00   ................

Tracks and Write Offsets:
    DAT:

<rom name="Fallout Brotherhood USA 2.bin" size="760700304" crc="13f468b4" md5="7ed3486bf2179a43adb5167a678c81e3" sha1="b53592332f2c75daa5b8b4b9b40b80112a8a1feb" />

    Cuesheet:

FILE "Fallout Brotherhood USA 2.bin" BINARY
  TRACK 01 MODE1/2352
    INDEX 01 00:00:00

    Write Offset: -12

Only my Disc 1 & 2 are dumpable, 3 is dead.

http://redump.org/disc/64194/

https://mega.nz/file/UEt00BTI#c4dP3HznB … 20EsKArFQQ

Common Disc Info:
    Title: Fallout Tactics: Brotherhood of Steel
    Disc Number / Letter: 1
    System: IBM PC Compatible
    Media Type: CD-ROM
    Category: Games
    Matching IDs: 64194
    Region: USA
    Languages: English
    Disc Serial: CD-W58-1237-0

    Ringcode Information:
        Data Side Mastering Code (laser branded/etched): FUTURE MEDIA \ CA   FM 20332 (CD-W58-1237-0/IN0002)
        Data Side Mastering SID Code: IFPI LG33
        Mould SID: IFPI 3V26
        Toolstamp: C01   M02   S02
    Error Count: 0
    Comments: [T:ISBN]: 1-57629-612-1

Version and Editions:
    Version: 1.13
    Edition/Release: Original

Extras:
    Primary Volume Descriptor (PVD):

0320 : 20 20 20 20 20 20 20 20  20 20 20 20 20 32 30 30                200
0330 : 31 30 33 30 37 31 36 30  35 30 31 30 30 00 32 30   1030716050100.20
0340 : 30 31 30 33 30 37 31 36  30 35 30 31 30 30 00 30   01030716050100.0
0350 : 30 30 30 30 30 30 30 30  30 30 30 30 30 30 30 00   000000000000000.
0360 : 30 30 30 30 30 30 30 30  30 30 30 30 30 30 30 30   0000000000000000
0370 : 00 01 00 00 00 00 00 00  00 00 00 00 00 00 00 00   ................

Tracks and Write Offsets:
    DAT:

<rom name="Fallout Brotherhood USA 1.bin" size="722341536" crc="3a69d41a" md5="ad5b6644b9fe7bc5020496fc9f93ac0d" sha1="c6044472064e21a6c6a490f8319aa709c725304f" />

    Cuesheet:

FILE "Fallout Brotherhood USA 1.bin" BINARY
  TRACK 01 MODE1/2352
    INDEX 01 00:00:00

    Write Offset: -12

Title + language got updated

http://redump.org/disc/31367/

Common Disc Info:
    Title: Play DVD Numer 1/2003  (with Numer included)
    Foreign Title (Non-latin): Gilbert Goodmate: Fangoryjskie Dziwy | In Cold Blood | Jazz i Faust
    System: IBM PC Compatible
    Media Type: DVD-ROM-5
    Category: Coverdiscs
    Matching IDs: 31367
    Region: Poland
    Languages: Polish

    Ringcode Information:
        Data Side Mastering Code (laser branded/etched): www.takt.com.pl   tAkt   013922 PLAY DVD 1/2003   tAkt
        Data Side Mastering SID Code: ifpi LK96
        Mould SID: NULL 
    Comments: <b>ISSN</b>: 1641-8344. Gilbert Goodmate, In Cold Blood voices & Jazz i Faust have voices in Polish. Also, Jazz i Faust's version is 1.0.0.1
    Contents:

[+]<b>Games:</b>

Gilbert Goodmate: Fangoryjskie Dziwy (Pl)

In Cold Blood (Pl)

Jazz i Faust (Pl)

<b>Demos:</b>

The Black Mirror

The Lord of the Rings: The Fellowship of the Ring

The Mystery of the Mummy

Post Mortem

Shadow of Destiny

Syberia

Extras:
    Primary Volume Descriptor (PVD):

0320 : 20 20 20 20 20 20 20 20  20 20 20 20 20 32 30 30                200
0330 : 33 30 31 31 37 31 35 32  36 33 34 30 30 04 30 30   3011715263400.00
0340 : 30 30 30 30 30 30 30 30  30 30 30 30 30 30 00 30   00000000000000.0
0350 : 30 30 30 30 30 30 30 30  30 30 30 30 30 30 30 00   000000000000000.
0360 : 30 30 30 30 30 30 30 30  30 30 30 30 30 30 30 30   0000000000000000
0370 : 00 01 00 00 00 00 00 00  00 00 00 00 00 00 00 00   ................

Size & Checksum:
    Size: 4261783552
    CRC32: 71af3110
    MD5: 84819d2773b9d2dc1a08ccfa939e4661
    SHA1: 9c8d4d14ea9c6bb71c269bb00ca84e2725fb4f9b

7

(1 replies, posted in Verifications)

http://redump.org/disc/67938/

https://mega.nz/file/9Q1kDCyB#Wf4HXCxru … L8khF81mhU

Common Disc Info:
    Title: S.W.I.N.E.
    Foreign Title (Non-latin): Ś.W.I.N.I.A.     (not Ś.W.I.N.I.A )
    Disc Number / Letter: 2
    System: IBM PC Compatible
    Media Type: CD-ROM
    Category: Games
    Matching IDs: 67938
    Region: Poland
    Languages: English

    Ringcode Information:
        Data Side Mastering Code (laser branded/etched): 16 Feb 2002   www.megaus.pl   MEGAUS CD MANUFACTURE   S.W.I.N.E 2/2   MEG 8163
        Data Side Mastering SID Code: NULL
        Mould SID: IFPI 5EM2
    Barcode: 5 904542 730096 >   
    Error Count: 0

    Edition/Release: Original

Extras:
    Primary Volume Descriptor (PVD):

0320 : 20 20 20 20 20 20 20 20  20 20 20 20 20 32 30 30                200
0330 : 31 31 30 33 31 31 35 34  39 30 30 30 30 04 32 30   1103115490000.20
0340 : 30 31 31 30 33 31 31 35  34 39 30 30 30 30 04 30   01103115490000.0
0350 : 30 30 30 30 30 30 30 30  30 30 30 30 30 30 30 00   000000000000000.
0360 : 30 30 30 30 30 30 30 30  30 30 30 30 30 30 30 30   0000000000000000
0370 : 00 01 00 00 00 00 00 00  00 00 00 00 00 00 00 00   ................

Tracks and Write Offsets:
    DAT:

<rom name="SWINE Poland 2.bin" size="438384576" crc="86297c97" md5="1ee2542181870d8130b2ca5ac46029d6" sha1="aafa64f0532e1719dca710d0634f6ecfe0a653f4" />

    Cuesheet:

FILE "SWINE Poland 2.bin" BINARY
  TRACK 01 MODE1/2352
    INDEX 01 00:00:00

    Write Offset: -153

8

(1 replies, posted in Verifications)

http://redump.org/disc/62381/

https://mega.nz/file/xQk0QKqS#gRfUN8zWX … 9Q5G_IcFgw

Common Disc Info:
    Title: S.W.I.N.E.
    Foreign Title (Non-latin): 猪兔大战, Ś.W.I.N.I.A.
    Disc Number / Letter: 1
    System: IBM PC Compatible
    Media Type: CD-ROM
    Category: Games
    Matching IDs: 62381
    Region: Asia, Europe
    Languages: English

    Ringcode Information:
        Data Side Mastering Code (laser branded/etched): 16 Feb 2002   www.megaus.pl   MEGAUS CD MANUFACTURE   S.W.I.N.E 1/2   MEG 8162
        Data Side Mastering SID Code: NULL
        Mould SID: IFPI 5EM1
    Barcode: 5 904542 730096 >       (with the > included)
    Error Count: 0
    Comments:

[T:ISBN]: 7-900634-29-0

Copyright Contract Reg. No.: 电出字17-2001-024号

Publishing Approval File No.: 新出音管[2002]041号

Chinese disc title: "IstallDisk"

Regions: China + Poland

    Contents: 

Version and Editions:
    Version: 1.2
    Edition/Release: Original

Extras:
    Primary Volume Descriptor (PVD):

0320 : 20 20 20 20 20 20 20 20  20 20 20 20 20 32 30 30                200
0330 : 31 31 30 33 31 31 36 31  32 30 30 30 30 04 32 30   1103116120000.20
0340 : 30 31 31 30 33 31 31 36  31 32 30 30 30 30 04 30   01103116120000.0
0350 : 30 30 30 30 30 30 30 30  30 30 30 30 30 30 30 00   000000000000000.
0360 : 30 30 30 30 30 30 30 30  30 30 30 30 30 30 30 30   0000000000000000
0370 : 00 01 00 00 00 00 00 00  00 00 00 00 00 00 00 00   ................


Tracks and Write Offsets:
    DAT:

<rom name="SWINE Poland 1.bin" size="614890416" crc="6c5bf541" md5="da851bf45f96540ce5b33a18e81cf37a" sha1="2fd583c32f5cb99feeccbc369c6753f1a4d07ee4" />

    Cuesheet:

FILE "SWINE Poland 1.bin" BINARY
  TRACK 01 MODE1/2352
    INDEX 01 00:00:00

    Write Offset: -153

http://redump.org/disc/13010/

https://mega.nz/file/NQkwHITL#nau-jGO5N … bjmCFgmq_Y

Common Disc Info:
    Title: Doom 3: Resurrection of Evil
    System: IBM PC Compatible
    Media Type: CD-ROM
    Category: Add-Ons
    Matching IDs: 13010
    Region: USA
    Languages: English
    Disc Serial: 32649.101.US

    Ringcode Information:
        Data Side Mastering Code (laser branded/etched): 32649101US R1R
        Data Side Mastering SID Code: IFPI L241
        Mould SID: IFPI 4151
        Tooltstamp: 11
    Error Count: 0

Regions dumped: USA, Europe, Italy, Korea

[T:ISBN]:: 1-58416-679-7

<b>Activision ID</b>: 32649.202.00 (box), 32649.260.UK (manual)

    Contents: [+]Doom 3 v1.2 Patch

Version and Editions:
    Version: 1.0
    Edition/Release: 

Extras:
    Primary Volume Descriptor (PVD):

0320 : 20 20 20 20 20 20 20 20  20 20 20 20 20 32 30 30                200
0330 : 35 30 32 31 37 31 34 33  32 32 30 30 30 2D 32 30   5021714322000-20
0340 : 30 35 30 32 31 37 31 34  33 32 32 30 30 30 2D 31   05021714322000-1
0350 : 36 30 31 30 31 30 31 30  30 30 30 30 30 30 30 30   6010101000000000
0360 : 31 36 30 31 30 31 30 31  30 30 30 30 30 30 30 30   1601010100000000
0370 : 30 01 00 00 00 00 00 00  00 00 00 00 00 00 00 00   0...............

Tracks and Write Offsets:
    DAT:

<rom name="Doom 3 Resurrection of EVIL USA.bin" size="775821312" crc="ac356de2" md5="424f57d26bb332d5ab49a2a852c78199" sha1="da041e66da9f958e564fd62acfc91670750ce22b" />

    Cuesheet:

FILE "Doom 3 Resurrection of EVIL USA.bin" BINARY
  TRACK 01 MODE1/2352
    INDEX 01 00:00:00

    Write Offset: -12

http://redump.org/disc/80075/

https://mega.nz/file/VIs2HCjS#tkzkcTH2Z … Ti0MWHSa0w

Common Disc Info:
    Title: Kingdom Under Fire 
    Alternative Title: Kingdom Under Fire: A War of Heroes
    Disc Title: Disc Two
    System: IBM PC Compatible
    Media Type: CD-ROM
    Category: Games
    Region: USA
    Languages: English

    Ringcode Information:
        Mastering Code (laser branded/etched): 190012 R1J   A
        Mastering SID Code: IFPI L239
        Mould SID: IFPI 4121
        Toolstamp: 13
    Barcode: 6 63593 19001 7
    Error Count: 0

Version and Editions:
    Version: 1.06
    Edition/Release: Original

Extras:
    Primary Volume Descriptor (PVD):

0320 : 20 20 20 20 20 20 20 20  20 20 20 20 20 32 30 30                200
0330 : 30 31 32 31 33 30 30 32  32 30 30 30 30 24 32 30   0121300220000$20
0340 : 30 30 31 32 31 33 30 30  32 32 30 30 30 30 24 30   00121300220000$0
0350 : 30 30 30 30 30 30 30 30  30 30 30 30 30 30 30 00   000000000000000.
0360 : 30 30 30 30 30 30 30 30  30 30 30 30 30 30 30 30   0000000000000000
0370 : 00 01 00 00 00 00 00 00  00 00 00 00 00 00 00 00   ................

Tracks and Write Offsets:
    DAT:

<rom name="Kingdom Under USA DISC 2.bin" size="762504288" crc="28f30efb" md5="ad742b7d0489643834946719bf49498e" sha1="a5d75de48dbfac9abd2b3522277319a6abb12b37" />

    Cuesheet:

FILE "Kingdom Under USA DISC 2.bin" BINARY
  TRACK 01 MODE2/2352
    INDEX 01 00:00:00

    Write Offset: -12

http://redump.org/disc/80074/

https://mega.nz/file/NBkmjCrK#J94r7ixnB … 27uNMZ1c3Y

Common Disc Info:
    Title: Kingdom Under Fire 
    Alternative Title: Kingdom Under Fire: A War of Heroes
    Disc Title: Disc One
    System: IBM PC Compatible
    Media Type: CD-ROM
    Category: Games
    Region: USA
    Languages: English

    Ringcode Information:
        Mastering Code (laser branded/etched): 190011 R1F   A
        Mastering SID Code: IFPI L240
        Mould SID: IFPI 4121
        Toolstamp: 12
    Barcode: 6 63593 19001 7
    Error Count: 0

Version and Editions:
    Version: 1.06
    Edition/Release: Original

Extras:
    Primary Volume Descriptor (PVD):

0320 : 20 20 20 20 20 20 20 20  20 20 20 20 20 32 30 30                200
0330 : 30 31 32 31 33 31 30 34  31 35 32 30 30 00 32 30   0121310415200.20
0340 : 30 30 31 32 31 33 31 30  34 31 35 32 30 30 00 30   00121310415200.0
0350 : 30 30 30 30 30 30 30 30  30 30 30 30 30 30 30 00   000000000000000.
0360 : 30 30 30 30 30 30 30 30  30 30 30 30 30 30 30 30   0000000000000000
0370 : 00 01 00 00 00 00 00 00  00 00 00 00 00 00 00 00   ................

Tracks and Write Offsets:
    DAT:

<rom name="Kingdom Under USA DISC 1.bin" size="687710688" crc="5c879c13" md5="4e1db1992a6f910bff6ab9806dc6852c" sha1="6d7e075d81c76cc041b5d9e967d13c6493d81556" />

    Cuesheet:

FILE "Kingdom Under USA DISC 1.bin" BINARY
  TRACK 01 MODE2/2352
    INDEX 01 00:00:00

    Write Offset: -12

12

(6 replies, posted in General discussion)

EmuGuru wrote:

Good god, is there some trick that I don't know about when it comes to reading these mould codes? The things are so small I cannot read them, and my scanner blows them out since that section is usually transparent.

For me, i use the lamp's light

13

(0 replies, posted in Verifications)

http://redump.org/disc/14933/

https://mega.nz/file/td03AAKa#_Z3xtjGD2 … mY9OLvo_JU

Common Disc Info:
    Title: Deus Ex
    Foreign Title (Non-latin): 데이어스 Ex
    System: IBM PC Compatible
    Media Type: CD-ROM
    Category: Games
    Matching IDs: 14933
    Region: Europe, Asia
    Languages: English

    Ringcode Information:
        Data Side Mastering Code (laser branded/etched): BW-058    M2813 01
        Data Side Mastering SID Code: IFPI L582
        Mould SID: IFPI 9831
    Barcode: 8 803443 000949
    Error Count: 0
    Comments: Asian region dumped: Korea

Version and Editions:
    Version: 1002f
    Edition/Release: Original

Extras:
    Primary Volume Descriptor (PVD):

0320 : 20 20 20 20 20 20 20 20  20 20 20 20 20 32 30 30                200
0330 : 30 30 36 31 34 31 34 32  34 30 33 30 30 00 32 30   0061414240300.20
0340 : 30 30 30 36 31 34 31 34  32 34 30 33 30 30 00 30   00061414240300.0
0350 : 30 30 30 30 30 30 30 30  30 30 30 30 30 30 30 00   000000000000000.
0360 : 30 30 30 30 30 30 30 30  30 30 30 30 30 30 30 30   0000000000000000
0370 : 00 01 00 00 00 00 00 00  00 00 00 00 00 00 00 00   ................

Tracks and Write Offsets:
    DAT:

<rom name="Deus EX Korea.bin" size="791104608" crc="dbb491b5" md5="0c1b78bf5b015eb5523022b7d304a558" sha1="52456617f8dafb30c724a789e96951d2c8e3603a" />

    Cuesheet:

CATALOG 0000000000000
FILE "Deus EX Korea.bin" BINARY
  TRACK 01 MODE1/2352
    INDEX 01 00:00:00

    Write Offset: 0

http://redump.org/disc/9598/

https://mega.nz/file/8Y91VIrb#XsPIEoV8m … Snz87u_nyQ

Common Disc Info:
    Title: StarCraft: Brood War
    Disc Title: Expansion Set
    System: IBM PC Compatible
    Media Type: CD-ROM
    Category: Add-Ons
    Matching IDs: 9598
    Region: World (USA, EUROPE, KOREA)
    Languages: English
    Disc Serial: S02416

    Ringcode Information:
        Mastering Code (laser branded/etched): 20203-VU100002-11 (S8561110)
        Mastering SID Code: IFPI LK90
        Mould SID: IFPI 5W05
    Error Count: 0
    Comments: Asian region dumped: Korea, Korean version manual serial: 0399501

Version and Editions:
    Version: 1.05
    Edition/Release: Original

Extras:
    Primary Volume Descriptor (PVD):

0320 : 20 20 20 20 20 20 20 20  20 20 20 20 20 31 39 39                199
0330 : 39 30 36 30 39 31 38 31  35 34 30 30 30 00 31 39   9060918154000.19
0340 : 39 39 30 36 30 39 31 38  31 36 33 35 30 30 00 00   99060918163500..
0350 : 00 00 00 00 00 00 00 00  00 00 00 00 00 00 00 00   ................
0360 : 00 00 00 00 00 00 00 00  00 00 00 00 00 00 00 00   ................
0370 : 00 01 00 00 00 00 00 00  00 00 00 00 00 00 00 00   ................

Tracks and Write Offsets:
    DAT:

<rom name="Starcraft BROODWAR KOREA.bin" size="753432624" crc="6dc7400c" md5="623a3e3986570bd829d8064090c72e25" sha1="03433ab5ab764df1e15f2e79b81b6564e73fec11" />

    Cuesheet:

FILE "Starcraft BROODWAR KOREA.bin" BINARY
  TRACK 01 MODE1/2352
    INDEX 01 00:00:00

    Write Offset: 0

http://redump.org/disc/50337/

https://mega.nz/file/sEVHUCRT#q79iYHGOW … al_IaTfSfA

Common Disc Info:
    Title: Jekyll & Hyde
    System: IBM PC Compatible
    Media Type: CD-ROM
    Category: Games
    Matching IDs: 50337
    Region: Poland
    Languages: Polish

    Ringcode Information:
        Mastering Code (laser branded/etched): www.gmrecords.pl   GMR01888/www.cdprojekt.com/JECYLL&HYDE
        Mastering SID Code: NULL
        Mould SID: IFPI Z908
    Barcode: 5 907610 702445 > , 5 907610 704357
    Error Count: 0
    Comments: Voices in Polish. Original Big Box version contains 2 discs of Devil Inside (Game + Audio Soundtrack). Covermount: Action Plus 10/2002 (55) (Disc 2)

Version and Editions:
    Version: 1.062.3009
    Edition/Release: Original, Tanie Granie, Covermount

Extras:
    Primary Volume Descriptor (PVD):

0320 : 20 20 20 20 20 20 20 20  20 20 20 20 20 32 30 30                200
0330 : 31 31 32 31 31 30 38 33  38 30 30 30 30 04 32 30   1121108380000.20
0340 : 30 31 31 32 31 31 30 38  33 38 30 30 30 30 04 30   01121108380000.0
0350 : 30 30 30 30 30 30 30 30  30 30 30 30 30 30 30 00   000000000000000.
0360 : 30 30 30 30 30 30 30 30  30 30 30 30 30 30 30 30   0000000000000000
0370 : 00 01 00 00 00 00 00 00  00 00 00 00 00 00 00 00   ................

Tracks and Write Offsets:
    DAT:

<rom name="Jekyll &amp; Hyde POLISH.bin" size="669962496" crc="d6986ee8" md5="ec5e8b7e6b967e8c6da0a375e7e37e7c" sha1="fbafa86e739484bfbbcd9be437f289720bf99179" />

    Cuesheet:

FILE "Jekyll & Hyde POLISH.bin" BINARY
  TRACK 01 MODE1/2352
    INDEX 01 00:00:00

    Write Offset: -22

http://redump.org/disc/80360/

https://mega.nz/file/tVNRgCRD#PXO7pQI0J … p8ossu7DdQ

Common Disc Info:
    Title: Madden NFL 2000
    System: IBM PC Compatible
    Media Type: CD-ROM
    Category: Games
    Matching IDs: 80360
    Region: USA
    Languages: English
    Disc Serial: 798007

    Ringcode Information:
        Mastering Code (laser branded/etched): 798007 R1J    E
        Mastering SID Code: IFPI L239
        Mould SID: IFPI 4121
        Toolstamp: 18
    Error Count: 815
    
Version and Editions:
    Edition/Release: Original, Bundle Version OEM

Extras:
    Primary Volume Descriptor (PVD):

0320 : 20 20 20 20 20 20 20 20  20 20 20 20 20 31 39 39                199
0330 : 39 30 38 30 32 32 33 30  37 33 38 30 30 00 31 39   9080223073800.19
0340 : 39 39 30 38 30 32 32 33  30 37 33 38 30 30 00 30   99080223073800.0
0350 : 30 30 30 30 30 30 30 30  30 30 30 30 30 30 30 00   000000000000000.
0360 : 30 30 30 30 30 30 30 30  30 30 30 30 30 30 30 30   0000000000000000
0370 : 00 01 00 00 00 00 00 00  00 00 00 00 00 00 00 00   ................

Copy Protection:
    SafeDisc 1.11.000

Tracks and Write Offsets:
    DAT:

<rom name="Madden 2000.bin" size="766375680" crc="dfee4069" md5="9ae219151d06c2a09779621d843b80cd" sha1="74c58d2d861a786495ed6c0fc412a72b52d2a145" />

    Cuesheet:

FILE "Madden 2000.bin" BINARY
  TRACK 01 MODE1/2352
    INDEX 01 00:00:00

    Write Offset: -12

http://redump.org/disc/81356/

https://mega.nz/file/gEMhSAKB#ejvuXuwOU … HOt0k4L_pw

Common Disc Info:
    Title: Madden NFL 99
    System: IBM PC Compatible
    Media Type: CD-ROM
    Category: Games
    Matching IDs: 81356
    Region: USA
    Languages: English
    Disc Serial: 790507

    Ringcode Information:
        Mastering Code (laser branded/etched): 790507-RLK    V
        Mastering SID Code: IFPI L237
        Mould SID: IFPI 39A7
        Toolstamp: -7
    Barcode: 0 14633 07905 0
    Error Count: 0

Version and Editions:
    Version: 1.0
    Edition/Release: Original

Extras:
    Primary Volume Descriptor (PVD):

0320 : 20 20 20 20 20 20 20 20  20 20 20 20 20 31 39 39                199
0330 : 38 30 39 30 36 30 31 34  38 35 37 30 30 00 31 39   8090601485700.19
0340 : 39 38 30 39 30 36 30 31  34 38 35 37 30 30 00 32   98090601485700.2
0350 : 30 30 38 30 39 30 33 30  31 34 38 35 37 30 30 00   008090301485700.
0360 : 31 39 39 38 30 39 30 36  30 31 34 38 35 37 30 30   1998090601485700
0370 : 00 01 00 00 00 00 00 00  00 00 00 00 00 00 00 00   ................


Tracks and Write Offsets:
    DAT:

<rom name="Madden 99 Original.bin" size="694769040" crc="9983b49c" md5="62c909b4c0610cb886582d4395b536ae" sha1="378660babac4bdec28f9ef7a15d90ac95d39fcac" />

    Cuesheet:

CATALOG 0000000000000
FILE "Madden 99 Original.bin" BINARY
  TRACK 01 MODE1/2352
    INDEX 01 00:00:00

    Write Offset: 78

http://redump.org/disc/80729/

https://mega.nz/file/lBERWQYB#cxmNhQ0OT … 0M_XReuKTQ

Common Disc Info:
    Title: Madden NFL 99
    System: IBM PC Compatible
    Media Type: CD-ROM
    Category: Games
    Matching IDs: 80729
    Region: USA
    Languages: English
    Disc Serial: 1167907

    Ringcode Information:
        Mastering Code (laser branded/etched): 1167907 R8L
        Mastering SID Code: IFPI L241
        Mould SID: IFPI 4141
        Mould texts: JVC CA
    Barcode: 0 14633 11679 3
    Error Count: 0
    Comments: [T:ISBN]: 0-7845-2184-0

Version and Editions:
    Version: 2.10
    Edition/Release: CD-ROM Classics

Extras:
    Primary Volume Descriptor (PVD):

0320 : 20 20 20 20 20 20 20 20  20 20 20 20 20 31 39 39                199
0330 : 39 30 36 30 37 31 36 32  34 34 39 30 30 00 31 39   9060716244900.19
0340 : 39 39 30 36 30 37 31 36  32 34 34 39 30 30 00 30   99060716244900.0
0350 : 30 30 30 30 30 30 30 30  30 30 30 30 30 30 30 00   000000000000000.
0360 : 30 30 30 30 30 30 30 30  30 30 30 30 30 30 30 30   0000000000000000
0370 : 00 01 00 00 00 00 00 00  00 00 00 00 00 00 00 00   ................

Tracks and Write Offsets:
    DAT:

<rom name="Madden 99 EA CLASSICS.bin" size="768428976" crc="ed28212f" md5="004745e95f519bb52036cf2cfbf23ee8" sha1="bc0945151066432a740aa884d85dd2ffae301cd3" />

    Cuesheet:

FILE "Madden 99 EA CLASSICS.bin" BINARY
  TRACK 01 MODE1/2352
    INDEX 01 00:00:00

    Write Offset: -22

http://redump.org/disc/52955/

https://mega.nz/file/QdlXTABK#CjHPeHxEY … VVvaEzcPbU

Common Disc Info:
    Title: Lands of Lore III
    Disc Title: Disk 4
    System: IBM PC Compatible
    Media Type: CD-ROM
    Category: Games
    Matching IDs: 52955
    Region: USA, Europe
    Languages: English
    Disc Serial:  WWE08801933D4

    Ringcode Information:
        Mastering Code (laser branded/etched): Sono press ROM Z-0975/ LORE3/UK4 A
        Mastering SID Code: IFPI LB 46
        Mould SID: IFPI 0782
    Barcode: 5 030930 020002
    Error Count: 0
    Comments: Regions: Croatia, USA, UK, Italy
            Croatian manual serial: WWE08801933M

Version and Editions:
    Version: 1.05g
    Edition/Release: Original

Extras:
    Primary Volume Descriptor (PVD):

0320 : 20 20 20 20 20 20 20 20  20 20 20 20 20 31 39 39                199
0330 : 39 30 33 30 34 30 31 31  32 34 30 30 30 00 31 39   9030401124000.19
0340 : 39 39 30 33 30 34 30 31  31 32 34 30 30 30 00 30   99030401124000.0
0350 : 30 30 30 30 30 30 30 30  30 30 30 30 30 30 30 00   000000000000000.
0360 : 30 30 30 30 30 30 30 30  30 30 30 30 30 30 30 30   0000000000000000
0370 : 00 01 00 00 00 00 00 00  00 00 00 00 00 00 00 00   ................

Tracks and Write Offsets:
    DAT:

<rom name="Lands of Lore DISC 4.bin" size="807488640" crc="26906cc9" md5="dc2b4fd430bd8e1f9ba9d19ea4f97948" sha1="e9b887f7bdb1a725f70edbc823e442f9e80c064a" />

    Cuesheet:

FILE "Lands of Lore DISC 4.bin" BINARY
  TRACK 01 MODE1/2352
    INDEX 01 00:00:00

    Write Offset: -12

http://redump.org/disc/52954/

https://mega.nz/file/UUkBWSoS#60t8NuSqA … 4zp72ZeZxU

Common Disc Info:
    Title: Lands of Lore III
    Disc Title: Disk 3
    System: IBM PC Compatible
    Media Type: CD-ROM
    Category: Games
    Matching IDs: 52954
    Region: USA, Europe
    Languages: English
    Disc Serial: WWE08801933D3

    Ringcode Information:
        Mastering Code (laser branded/etched): Sono press ROM Z-0974/ LORE3/UK3 A
        Mastering SID Code: IFPI LB 45
        Mould SID: IFPI 0769
    Barcode: 5 030930 020002
    Error Count: 0
    Comments: Regions: Croatia, USA, UK, Italy
            Croatian manual serial: WWE08801933M

Version and Editions:
    Version: 1.05g
    Edition/Release: Original

Extras:
    Primary Volume Descriptor (PVD):

0320 : 20 20 20 20 20 20 20 20  20 20 20 20 20 31 39 39                199
0330 : 39 30 33 30 34 30 30 31  32 35 30 30 30 00 31 39   9030400125000.19
0340 : 39 39 30 33 30 34 30 30  31 32 35 30 30 30 00 30   99030400125000.0
0350 : 30 30 30 30 30 30 30 30  30 30 30 30 30 30 30 00   000000000000000.
0360 : 30 30 30 30 30 30 30 30  30 30 30 30 30 30 30 30   0000000000000000
0370 : 00 01 00 00 00 00 00 00  00 00 00 00 00 00 00 00   ................

Tracks and Write Offsets:
    DAT:

<rom name="Lands of Lore DISC 3.bin" size="807533328" crc="39dd7bc1" md5="eca7bc6fc3096735300d696db3e4bbbe" sha1="380f33a2f742352cd90ae6e2cbed2af092a92e3b" />

    Cuesheet:

FILE "Lands of Lore DISC 3.bin" BINARY
  TRACK 01 MODE1/2352
    INDEX 01 00:00:00

    Write Offset: -12

http://redump.org/disc/70808/

https://mega.nz/file/kBkh3QaA#ijVU3xk7R … soWptqTALo

Common Disc Info:
    Title: Lands of Lore III
    Disc Title: Disk 2 (It is DisK 2, not DisC 2)
    System: IBM PC Compatible
    Media Type: CD-ROM
    Category: Games
    Matching IDs: 70808
    Region: Europe
    Languages: English
    Disc Serial: WWE08801933D2

    Ringcode Information:
        Mastering Code (laser branded/etched): Sono press ROM Z-0973/ LORE3/UK2 A
        Mastering SID Code: IFPI LB 46
        Mould SID: IFPI 0777
    Barcode: 5 030930 020002
    Error Count: 0
    Comments: European region dumped: Croatia
            Croatian manual serial: WWE08801933M

Version and Editions:
    Version: 1.00
    Edition/Release: Original

Extras:
    Primary Volume Descriptor (PVD):

0320 : 20 20 20 20 20 20 20 20  20 20 20 20 20 31 39 39                199
0330 : 39 30 33 30 34 31 35 31  35 32 34 30 30 00 31 39   9030415152400.19
0340 : 39 39 30 33 30 34 31 35  31 35 32 34 30 30 00 30   99030415152400.0
0350 : 30 30 30 30 30 30 30 30  30 30 30 30 30 30 30 00   000000000000000.
0360 : 30 30 30 30 30 30 30 30  30 30 30 30 30 30 30 30   0000000000000000
0370 : 00 01 00 00 00 00 00 00  00 00 00 00 00 00 00 00   ................

Tracks and Write Offsets:
    DAT:

<rom name="Lands of Lore DISC 2.bin" size="807547440" crc="f33a0a71" md5="efc20c35a3b0b6406a2d66b634958ddb" sha1="a7bc3a1bb78e36d2e133d732c95ba014d9fc396c" />

    Cuesheet:

FILE "Lands of Lore DISC 2.bin" BINARY
  TRACK 01 MODE1/2352
    INDEX 01 00:00:00

    Write Offset: -12

http://redump.org/disc/70807/

https://mega.nz/file/lM9VEQ7T#tZ45a4LNU … lWhUDk3nx4

Common Disc Info:
    Title: Lands of Lore III
    Disc Title: Disk 1  (It is DisK 1, not DisC 1)
    System: IBM PC Compatible
    Media Type: CD-ROM
    Category: Games
    Matching IDs: 70807
    Region: Europe
    Languages: English
    Disc Serial: WWE08801933D1

    Ringcode Information:
        Mastering Code (laser branded/etched): Sono press ROM Z-0972/ LORE3/UK1 B
        Mastering SID Code: IFPI L0 24
        Mould SID: IFPI 0771
    Barcode: 5 030930 020002
    Error Count: 0
    Comments: European region dumped: Croatia
            Croatian manual serial: WWE08801933M

Version and Editions:
    Version: 1.00
    Edition/Release: Original

Extras:
    Primary Volume Descriptor (PVD):

0320 : 20 20 20 20 20 20 20 20  20 20 20 20 20 31 39 39                199
0330 : 39 30 33 30 34 30 31 30  39 33 30 30 30 00 31 39   9030401093000.19
0340 : 39 39 30 33 30 34 30 31  30 39 33 30 30 30 00 30   99030401093000.0
0350 : 30 30 30 30 30 30 30 30  30 30 30 30 30 30 30 00   000000000000000.
0360 : 30 30 30 30 30 30 30 30  30 30 30 30 30 30 30 30   0000000000000000
0370 : 00 01 00 00 00 00 00 00  00 00 00 00 00 00 00 00   ................

Tracks and Write Offsets:
    DAT:

<rom name="Lands of Lore DISC 1.bin" size="808340064" crc="6f8ab979" md5="e6be806c23db6d4619925f1d8d230083" sha1="fd789f6ebaade09b6d101af963c66fe7e7fa3152" />

    Cuesheet:

FILE "Lands of Lore DISC 1.bin" BINARY
  TRACK 01 MODE1/2352
    INDEX 01 00:00:00

    Write Offset: -12

23

(0 replies, posted in Verifications)

http://redump.org/disc/23337/

https://mega.nz/file/4ZllFahJ#myL5BGTu- … 4LmmF2Q6jw

Common Disc Info:
    Title: Homeworld
    System: IBM PC Compatible
    Media Type: CD-ROM
    Category: Games
    Matching IDs: 23337
    Region: Europe
    Languages: English
    Disc Serial: S0022507

    Ringcode Information:
        Mastering Code (laser branded/etched): MPO    S 0022507 13 APR 01 @@    20010419 1529 @@ 4
        Mastering SID Code: IFPI L032
        Mould SID: IFPI 122E
        Toolstamp: 04
    Barcode: 4 779021 740276
    Error Count: 0
    Comments: European region dumped: Estonia, Portugal. Includes English manual

Version and Editions:
    Version: 1.0
    Edition/Release: BestSeller Series, Covermount

Extras:
    Primary Volume Descriptor (PVD):

0320 : 20 20 20 20 20 20 20 20  20 20 20 20 20 31 39 39                199
0330 : 39 31 30 32 30 31 37 31  39 30 37 32 35 1B 31 39   9102017190725.19
0340 : 39 39 31 30 32 30 31 37  32 30 32 39 30 37 6E 00   99102017202907n.
0350 : 00 00 00 00 00 00 00 00  00 00 00 00 00 00 00 00   ................
0360 : 00 00 00 00 00 00 00 00  00 00 00 00 00 00 00 00   ................
0370 : 00 01 00 00 00 00 00 00  00 00 00 00 00 00 00 00   ................

Copy Protection:
    Copy Protection: (CHECK WITH PROTECTIONID)

Tracks and Write Offsets:
    DAT:

<rom name="HOMEWORLD.bin" size="817247088" crc="b4c0548a" md5="dd2cdd3134fb2d1f9e6f7bdce61e2909" sha1="4a0c541ad73ef03b0919a89d055dcf42ba335232" />

    Cuesheet:

FILE "HOMEWORLD.bin" BINARY
  TRACK 01 MODE1/2352
    INDEX 01 00:00:00

    Write Offset: -12

http://redump.org/disc/8632/

https://mega.nz/file/FRlj1IJD#WsJ__f7s4 … hsQ3m97hgo

Common Disc Info:
    Title: Gunman Chronicles
    System: IBM PC Compatible
    Media Type: CD-ROM
    Category: Games
    Matching IDs: 8632
    Region: Europe
    Languages: English
    Disc Serial:  S0023661

    Ringcode Information:
        Mastering Code (laser branded/etched): Sono press ROM A-59823/GUNMAFEBSX A
        Mastering SID Code: IFPI LB 46     (not IFPI LB46)
        Mould SID: IFPI 0756
    Barcode: 3 348542 135550, 4 779021 740214
    Error Count: 1

Version and Editions:
    Edition/Release: BestSeller Series

Extras:
    Primary Volume Descriptor (PVD):

0320 : 20 20 20 20 20 20 20 20  20 20 20 20 20 32 30 30                200
0330 : 31 30 38 32 34 31 34 32  37 31 39 30 30 00 32 30   1082414271900.20
0340 : 30 31 30 38 32 34 31 34  32 37 31 39 30 30 00 30   01082414271900.0
0350 : 30 30 30 30 30 30 30 30  30 30 30 30 30 30 30 04   000000000000000.
0360 : 30 30 30 30 30 30 30 30  30 30 30 30 30 30 30 30   0000000000000000
0370 : 04 01 00 00 00 00 00 00  00 00 00 00 00 00 00 00   ................

Copy Protection:
    SecuROM 4.16.00.0004

    SubIntention Data (SecuROM/LibCrypt):

MSF: 00:01:74 Q-Data: 410100 00:40:00 00 00:03:74 84a0
MSF: 01:08:50 Q-Data: 410101 21:06:50 00 05:08:50 0a8f
MSF: 01:40:19 Q-Data: 410101 01:78:19 00 01:42:19 413c
MSF: 01:50:00 Q-Data: 410101 01:48:01 00 01:50:80 28ed
MSF: 02:04:22 Q-Data: 410101 02:02:23 00 02:04:a2 cf41
MSF: 02:07:54 Q-Data: 410101 02:25:54 00 02:03:54 9c01
MSF: 02:31:19 Q-Data: 410101 02:09:19 00 02:35:19 a4a2
MSF: 02:41:74 Q-Data: 410101 02:39:7c 00 02:41:64 33d2
MSF: 02:42:57 Q-Data: 410101 02:50:57 00 02:4a:57 9998
MSF: 03:09:34 Q-Data: 410101 03:07:30 00 03:09:14 ce65
MSF: 03:21:60 Q-Data: 410101 03:19:62 00 03:21:20 5d48

Tracks and Write Offsets:
    DAT:

<rom name="GUNMAN CHRONICLES.bin" size="548733360" crc="ec067459" md5="23acc293aec539bced14068dd93829ea" sha1="c12d73e24cca07c07e9b5ec60af6afa2c637c9ea" />

    Cuesheet:

FILE "GUNMAN CHRONICLES.bin" BINARY
  TRACK 01 MODE1/2352
    INDEX 01 00:00:00

    Write Offset: -647

25

(0 replies, posted in Verifications)

http://redump.org/disc/50192/

https://mega.nz/file/RAtS2ZaD#JRHVFSuRz … uNSb0FydE4

Common Disc Info:
    Title: Sacrifice
    System: IBM PC Compatible
    Media Type: CD-ROM
    Category: Games
    Matching IDs: 50192
    Region: Germany
    Languages: German
    Disc Serial: CD-C95-1041-G

    Ringcode Information:
        Mastering Code (laser branded/etched):  Sono press ROM A-45254/C95-1041-G A
        Mastering SID Code: IFPI LB 47
        Mould SID: IFPI 0768
    Barcode: 5 026102 004277 (Original), 5 026102 006240 (Blood Pack)
    Error Count: 265
    Comments: Voices in German

Version and Editions:
    Version: 0506.11.09
    Edition/Release: Original, Blood Pack

Extras:
    Primary Volume Descriptor (PVD):

0320 : 20 20 20 20 20 20 20 20  20 20 20 20 20 32 30 30                200
0330 : 30 31 31 31 30 31 32 33  38 32 38 30 30 00 32 30   0111012382800.20
0340 : 30 30 31 31 31 30 31 32  33 38 32 38 30 30 00 30   00111012382800.0
0350 : 30 30 30 30 30 30 30 30  30 30 30 30 30 30 30 00   000000000000000.
0360 : 30 30 30 30 30 30 30 30  30 30 30 30 30 30 30 30   0000000000000000
0370 : 00 01 00 00 00 00 00 00  00 00 00 00 00 00 00 00   ................

Tracks and Write Offsets:
    DAT:

<rom name="SACRIFICE GERMAN.bin" size="788886672" crc="ff348380" md5="8cd80023359932afecb733e08bb8ecc6" sha1="d4bbcefeb34c527c1537cd181c3f1bed06c3554a" />

    Cuesheet:

FILE "SACRIFICE GERMAN.bin" BINARY
  TRACK 01 MODE1/2352
    INDEX 01 00:00:00

    Write Offset: -12