1

(0 replies, posted in New Dumps)

Common Disc Info:
    Title: Greek Computer Games 4 Kids
    System: IBM PC Compatible
    Media Type: CD-ROM
    Category: Games
    Region: USA
    Languages: English, Greek

    Ringcode Information:
        Mastering Code (laser branded/etched): CA/-Greek Computer 4 Kids - 20017
    (no other rings)
    Barcode: NA
    Error Count: 0
    Comments: Voices in Greek only

Version and Editions:
    Edition/Release: Original  

Extras:
    Primary Volume Descriptor (PVD):

0320 : 20 20 20 20 20 20 20 20  20 20 20 20 20 32 30 30                200
0330 : 36 31 30 30 35 31 36 34  39 30 30 30 30 F0 32 30   6100516490000.20
0340 : 30 36 31 30 30 35 31 36  34 39 30 30 30 30 F0 30   06100516490000.0
0350 : 30 30 30 30 30 30 30 30  30 30 30 30 30 30 30 00   000000000000000.
0360 : 30 30 30 30 30 30 30 30  30 30 30 30 30 30 30 30   0000000000000000
0370 : 00 01 00 00 00 00 00 00  00 00 00 00 00 00 00 00   ................

Copy Protection:
    na

Tracks and Write Offsets:
    DAT:

<rom name="GREEK Games4Kids.bin" size="14855232" crc="17a71d33" md5="819b70da93ef973a462b5e2c116bdb92" sha1="56d9303934165e855e6c74fe6e5e830a97bc3f87" />

    Cuesheet:

FILE "GREEK Games4Kids.bin" BINARY
  TRACK 01 MODE1/2352
    INDEX 01 00:00:00

    Write Offset: -12

My other disc of this soundtrack

http://redump.org/disc/76363/

https://mega.nz/file/MJt3VaiQ#irt6fxqhW … wMCEZ3w-cM

Common Disc Info:
    Title: The Music of Retro City Rampage
    System: Audio CD
    Media Type: CD-ROM
    Category: Audio
    Region: Canada
    Disc Serial: LA001

    Ringcode Information:
        Mastering Code (laser branded/etched): Made in CA 531189

Extras:
    Primary Volume Descriptor (PVD): Disc has no PVD

Tracks and Write Offsets:
    DAT:

<rom name="Retro City Rampage seperate (Track 01).bin" size="22525104" crc="1ea5962e" md5="4673881bd4b4a10416936f164828a493" sha1="3f07cdb6fc4475f35c8ec0c0a3f56badd4a096f3" />
<rom name="Retro City Rampage seperate (Track 02).bin" size="18402048" crc="9df2ab79" md5="67048b0fd3fe88f3b5fa2841be69ed10" sha1="6d5c3f26c77a9e0906b594e1311dda28c366760d" />
<rom name="Retro City Rampage seperate (Track 03).bin" size="14605920" crc="07b01cda" md5="e48caae0fcbd640f9e2f75a4d73efe3a" sha1="461cff00b9172c39174e9d0adc0c33a637114439" />
<rom name="Retro City Rampage seperate (Track 04).bin" size="20413008" crc="64c04766" md5="333f8ed7059994a52a5ddb691f22e322" sha1="bfd933aafb436c7c316487333a2d8b63cede7c54" />
<rom name="Retro City Rampage seperate (Track 05).bin" size="10414656" crc="5ffb1880" md5="2197706f00de48ec3d5deb00ce2b9ed2" sha1="3721b4a4c5b0238ff7cb4fc16216e7d01b4ce97d" />
<rom name="Retro City Rampage seperate (Track 06).bin" size="20810496" crc="e7101dba" md5="c0cda4f010618f4411c571a130620a71" sha1="6781a9920afa55757a90fc2b52c73035cdbe5d07" />
<rom name="Retro City Rampage seperate (Track 07).bin" size="25561536" crc="ddb11f9e" md5="b73ac3d5e124d1bc860a636fbd7d346a" sha1="0f6a43cd4e0b5cc2b16fec57fbd0712aeceb05f4" />
<rom name="Retro City Rampage seperate (Track 08).bin" size="6806688" crc="71d5af1e" md5="6540c678b7d1e0b4ae1ae0b111333140" sha1="1cab148a5524cce88805764bef15da9cddaa7210" />
<rom name="Retro City Rampage seperate (Track 09).bin" size="28569744" crc="45785fbd" md5="7a467e96cc74efc442b98edca7044c7b" sha1="5bedf6ccc104fcc2a1a272bc4094a5aed442ab5a" />
<rom name="Retro City Rampage seperate (Track 10).bin" size="8803536" crc="d857676a" md5="41be1c2b27d63ae09194b5e70545b369" sha1="1118b0757abd7903f4a3703619ba27400c8b73d7" />
<rom name="Retro City Rampage seperate (Track 11).bin" size="9005808" crc="801f30d1" md5="bb0f7e0ae57c0d879e635d90aa85c08e" sha1="eb3b10af4a37ea83df79ff00e04ab6438690f26d" />
<rom name="Retro City Rampage seperate (Track 12).bin" size="16228800" crc="5fc3e652" md5="298cc61bda4b36ce5cacf90e349f840e" sha1="c0ee3db3b97778103c5d790daab4865eab0ecf68" />
<rom name="Retro City Rampage seperate (Track 13).bin" size="1284192" crc="3e1d731c" md5="02cbe9b97ad2d0b9083a0f9fa54f1d97" sha1="2803a08d996b97b3297f4dccf71acedddf787c34" />
<rom name="Retro City Rampage seperate (Track 14).bin" size="33436032" crc="9bfe60f7" md5="2cab48e1a31bf7634113b5ae8a23bc5b" sha1="457d4d1b96c97fedaf6ec28ac2471810a6be4716" />
<rom name="Retro City Rampage seperate (Track 15).bin" size="13655712" crc="66386d0a" md5="f15f8f2a9b53200b240d62a393c3941d" sha1="f2087928c94f33285fd89d0e22f916163acaafd5" />
<rom name="Retro City Rampage seperate (Track 16).bin" size="20003760" crc="707f8869" md5="6989494e66fc74be6fe002983d9c6d31" sha1="71457c3fd70ba7b8c12bfcf635137529bc43ab1f" />
<rom name="Retro City Rampage seperate (Track 17).bin" size="17564736" crc="6b14f99d" md5="261b7773b33bec80a2f215936e6ea686" sha1="9fb35d503e8e75541daf7f9bb8705ac29732d51f" />
<rom name="Retro City Rampage seperate (Track 18).bin" size="18818352" crc="bbb33243" md5="26837d2573442b76c27e468f29cea30d" sha1="0cedc0fd7661989efde6a18a9a8e8cc60976e5df" />
<rom name="Retro City Rampage seperate (Track 19).bin" size="16365216" crc="95322f93" md5="8d78323edb8f6f6873312ea052d987a8" sha1="8f2edb916df915bc0c27401648cb0cfb6aebf2c7" />
<rom name="Retro City Rampage seperate (Track 20).bin" size="40572000" crc="7d009b7d" md5="06576ae673a5f4cca663e6c861d745b4" sha1="f4d6346bbb7b368909f1f0a6a1338ea11501f029" />
<rom name="Retro City Rampage seperate (Track 21).bin" size="13646304" crc="d61adca3" md5="f5ab92978569aad6499bf5fc3825d5e1" sha1="8e21d486dc6c23067602ed97ad4becbc9188dd48" />
<rom name="Retro City Rampage seperate (Track 22).bin" size="13392288" crc="9cf6a6b5" md5="cd759b4f707a829633ec6392e4671e77" sha1="4edeb9cb9e3769c7df296f01828d3766b8d58b52" />
<rom name="Retro City Rampage seperate (Track 23).bin" size="22449840" crc="bbcc99a5" md5="5b23684c2bf75f15178496ac888419e0" sha1="d54717c1977a0d4a048b7adc7a6ac8cd61f4aa25" />
<rom name="Retro City Rampage seperate (Track 24).bin" size="1284192" crc="4e7c698b" md5="a3c17e1d6ccc255b6167c1ee51f5dded" sha1="ec4d1664f535fbd9222486ac43ba020445703e1c" />
<rom name="Retro City Rampage seperate (Track 25).bin" size="11096736" crc="83d3f9ae" md5="1421b1f7c724f180b6fc320ce9fbda9f" sha1="5db699e34bbed69622ed09f89f235ea3b1e35253" />
<rom name="Retro City Rampage seperate (Track 26).bin" size="27563088" crc="fecc71da" md5="7f3cc0cab7c65a8b26497d13997b9f82" sha1="3ef1cfe8dc7290039dcefa8ddd48ca4b0ce1c7d0" />
<rom name="Retro City Rampage seperate (Track 27).bin" size="7126560" crc="115c7b1c" md5="914998f9db869ce4a256b0cdfc16c938" sha1="29d34826fbef729cd524e6133ee1b368673624d1" />
<rom name="Retro City Rampage seperate (Track 28).bin" size="14055552" crc="7efd77d1" md5="e5f8fee7063442e1f1a5ccc96e88a9c2" sha1="9f498c66e6065ee73d10d6da43b533cd6adb7c62" />
<rom name="Retro City Rampage seperate (Track 29).bin" size="8194368" crc="11c35a0f" md5="4a463c81951e2c6942cd0e4c854c5db7" sha1="c433cd8ca6b1b22dff1c68865a1f998bc708145a" />
<rom name="Retro City Rampage seperate (Track 30).bin" size="13655712" crc="033de319" md5="e3b6249b0939c957a9a64cda08fd1f31" sha1="0e30279e730681bf679bde73dc226b3a790f1772" />
<rom name="Retro City Rampage seperate (Track 31).bin" size="25415712" crc="151a1c76" md5="2a26ac467cd2e4cffb43a31274527473" sha1="d9577d8016df5a32797cacac2d8768ff9ef56386" />
<rom name="Retro City Rampage seperate (Track 32).bin" size="38198832" crc="ea9fbd59" md5="08961a51ee8f672735b9947eb793da0d" sha1="61f6c0fa8c11a175a0ce3907b90aead17b672eda" />
<rom name="Retro City Rampage seperate (Track 33).bin" size="9836064" crc="54dabb34" md5="5f17f61570dd233cad4f78afb86b1705" sha1="4548e34a252dcee8e83fee2cf7b5665c6ec1b5f6" />
<rom name="Retro City Rampage seperate (Track 34).bin" size="12947760" crc="bab6a5c8" md5="0ed13bbeb3f2d3a23e26d36c4a2b06c6" sha1="b152ff1f75eabc5d2e92a51af4c53b9c7915300e" />
<rom name="Retro City Rampage seperate (Track 35).bin" size="1284192" crc="135bf1ff" md5="1c94928b725e1b15a0986fdb72168332" sha1="210d95e3b4fc88d56d1b89bcd9f12da944c95f19" />

    Cuesheet:

TITLE "Retro City Rampage"
PERFORMER "virt, Freaky DNA and Norrin Radd"
FILE "Retro City Rampage seperate (Track 01).bin" BINARY
  TRACK 01 AUDIO
    TITLE "Retro City Rampage Title Song (virt)"
    PERFORMER "virt, Freaky DNA and Norrin Radd"
    FLAGS DCP
    INDEX 01 00:00:00
FILE "Retro City Rampage seperate (Track 02).bin" BINARY
  TRACK 02 AUDIO
    TITLE "Will to Survive (Norrin Radd)"
    PERFORMER "virt, Freaky DNA and Norrin Radd"
    FLAGS DCP
    INDEX 00 00:00:00
    INDEX 01 00:02:00
FILE "Retro City Rampage seperate (Track 03).bin" BINARY
  TRACK 03 AUDIO
    TITLE "Cleaning up the Streets (Norrin Radd)"
    PERFORMER "virt, Freaky DNA and Norrin Radd"
    FLAGS DCP
    INDEX 00 00:00:00
    INDEX 01 00:02:00
FILE "Retro City Rampage seperate (Track 04).bin" BINARY
  TRACK 04 AUDIO
    TITLE "Joy Ride (Norrin Radd)"
    PERFORMER "virt, Freaky DNA and Norrin Radd"
    FLAGS DCP
    INDEX 00 00:00:00
    INDEX 01 00:02:00
FILE "Retro City Rampage seperate (Track 05).bin" BINARY
  TRACK 05 AUDIO
    TITLE "Proton Decay (Norrin Radd)"
    PERFORMER "virt, Freaky DNA and Norrin Radd"
    FLAGS DCP
    INDEX 00 00:00:00
    INDEX 01 00:02:00
FILE "Retro City Rampage seperate (Track 06).bin" BINARY
  TRACK 06 AUDIO
    TITLE "Not Mega... (virt)"
    PERFORMER "virt, Freaky DNA and Norrin Radd"
    FLAGS DCP
    INDEX 00 00:00:00
    INDEX 01 00:02:00
FILE "Retro City Rampage seperate (Track 07).bin" BINARY
  TRACK 07 AUDIO
    TITLE "Renegade (Norrin Radd)"
    PERFORMER "virt, Freaky DNA and Norrin Radd"
    FLAGS DCP
    INDEX 00 00:00:00
    INDEX 01 00:02:00
FILE "Retro City Rampage seperate (Track 08).bin" BINARY
  TRACK 08 AUDIO
    TITLE "Dance Off (Norrin Radd)"
    PERFORMER "virt, Freaky DNA and Norrin Radd"
    FLAGS DCP
    INDEX 00 00:00:00
    INDEX 01 00:02:00
FILE "Retro City Rampage seperate (Track 09).bin" BINARY
  TRACK 09 AUDIO
    TITLE "Sidegirl Revenge (Freaky DNA)"
    PERFORMER "virt, Freaky DNA and Norrin Radd"
    FLAGS DCP
    INDEX 00 00:00:00
    INDEX 01 00:02:00
FILE "Retro City Rampage seperate (Track 10).bin" BINARY
  TRACK 10 AUDIO
    TITLE "Do or Die (Norrin Radd)"
    PERFORMER "virt, Freaky DNA and Norrin Radd"
    FLAGS DCP
    INDEX 00 00:00:00
    INDEX 01 00:02:00
FILE "Retro City Rampage seperate (Track 11).bin" BINARY
  TRACK 11 AUDIO
    TITLE "Dr. Von Buttnick (Norrin Radd)"
    PERFORMER "virt, Freaky DNA and Norrin Radd"
    FLAGS DCP
    INDEX 00 00:00:00
    INDEX 01 00:02:00
FILE "Retro City Rampage seperate (Track 12).bin" BINARY
  TRACK 12 AUDIO
    TITLE "Action / Chase (virt)"
    PERFORMER "virt, Freaky DNA and Norrin Radd"
    FLAGS DCP
    INDEX 00 00:00:00
    INDEX 01 00:02:00
FILE "Retro City Rampage seperate (Track 13).bin" BINARY
  TRACK 13 AUDIO
    TITLE "Side Complete (virt)"
    PERFORMER "virt, Freaky DNA and Norrin Radd"
    FLAGS DCP
    INDEX 00 00:00:00
    INDEX 01 00:02:00
FILE "Retro City Rampage seperate (Track 14).bin" BINARY
  TRACK 14 AUDIO
    TITLE "Half Steppin' (Freaky DNA)"
    PERFORMER "virt, Freaky DNA and Norrin Radd"
    FLAGS DCP
    INDEX 00 00:00:00
    INDEX 01 00:02:00
FILE "Retro City Rampage seperate (Track 15).bin" BINARY
  TRACK 15 AUDIO
    TITLE "Karaage (Freaky DNA)"
    PERFORMER "virt, Freaky DNA and Norrin Radd"
    FLAGS DCP
    INDEX 00 00:00:00
    INDEX 01 00:02:00
FILE "Retro City Rampage seperate (Track 16).bin" BINARY
  TRACK 16 AUDIO
    TITLE "Camel Toed Lady (Freaky DNA)"
    PERFORMER "virt, Freaky DNA and Norrin Radd"
    FLAGS DCP
    INDEX 00 00:00:00
    INDEX 01 00:02:00
FILE "Retro City Rampage seperate (Track 17).bin" BINARY
  TRACK 17 AUDIO
    TITLE "Toadstool Om Nom (Freaky DNA)"
    PERFORMER "virt, Freaky DNA and Norrin Radd"
    FLAGS DCP
    INDEX 00 00:00:00
    INDEX 01 00:02:00
FILE "Retro City Rampage seperate (Track 18).bin" BINARY
  TRACK 18 AUDIO
    TITLE "Mission Briefing / Danger (virt)"
    PERFORMER "virt, Freaky DNA and Norrin Radd"
    FLAGS DCP
    INDEX 00 00:00:00
    INDEX 01 00:02:00
FILE "Retro City Rampage seperate (Track 19).bin" BINARY
  TRACK 19 AUDIO
    TITLE "Riff Down (Freaky DNA)"
    PERFORMER "virt, Freaky DNA and Norrin Radd"
    FLAGS DCP
    INDEX 00 00:00:00
    INDEX 01 00:02:00
FILE "Retro City Rampage seperate (Track 20).bin" BINARY
  TRACK 20 AUDIO
    TITLE "Bit Happy (Freaky DNA)"
    PERFORMER "virt, Freaky DNA and Norrin Radd"
    FLAGS DCP
    INDEX 00 00:00:00
    INDEX 01 00:02:00
FILE "Retro City Rampage seperate (Track 21).bin" BINARY
  TRACK 21 AUDIO
    TITLE "Tune 6 (Norrin Radd)"
    PERFORMER "virt, Freaky DNA and Norrin Radd"
    FLAGS DCP
    INDEX 00 00:00:00
    INDEX 01 00:02:00
FILE "Retro City Rampage seperate (Track 22).bin" BINARY
  TRACK 22 AUDIO
    TITLE "Smut Peddler (Norrin Radd)"
    PERFORMER "virt, Freaky DNA and Norrin Radd"
    FLAGS DCP
    INDEX 00 00:00:00
    INDEX 01 00:02:00
FILE "Retro City Rampage seperate (Track 23).bin" BINARY
  TRACK 23 AUDIO
    TITLE "Not Nate... (virt)"
    PERFORMER "virt, Freaky DNA and Norrin Radd"
    FLAGS DCP
    INDEX 00 00:00:00
    INDEX 01 00:02:00
FILE "Retro City Rampage seperate (Track 24).bin" BINARY
  TRACK 24 AUDIO
    TITLE "Side Complete (virt)"
    PERFORMER "virt, Freaky DNA and Norrin Radd"
    FLAGS DCP
    INDEX 00 00:00:00
    INDEX 01 00:02:00
FILE "Retro City Rampage seperate (Track 25).bin" BINARY
  TRACK 25 AUDIO
    TITLE "Beach Ninjas (Norrin Radd)"
    PERFORMER "virt, Freaky DNA and Norrin Radd"
    FLAGS DCP
    INDEX 00 00:00:00
    INDEX 01 00:02:00
FILE "Retro City Rampage seperate (Track 26).bin" BINARY
  TRACK 26 AUDIO
    TITLE "Bit Bop (Freaky DNA)"
    PERFORMER "virt, Freaky DNA and Norrin Radd"
    FLAGS DCP
    INDEX 00 00:00:00
    INDEX 01 00:02:00
FILE "Retro City Rampage seperate (Track 27).bin" BINARY
  TRACK 27 AUDIO
    TITLE "Betting Zoo (Norrin Radd)"
    PERFORMER "virt, Freaky DNA and Norrin Radd"
    FLAGS DCP
    INDEX 00 00:00:00
    INDEX 01 00:02:00
FILE "Retro City Rampage seperate (Track 28).bin" BINARY
  TRACK 28 AUDIO
    TITLE "Monsieur Piedlourde (Freaky DNA)"
    PERFORMER "virt, Freaky DNA and Norrin Radd"
    FLAGS DCP
    INDEX 00 00:00:00
    INDEX 01 00:02:00
FILE "Retro City Rampage seperate (Track 29).bin" BINARY
  TRACK 29 AUDIO
    TITLE "Nordic Night (Norrin Radd)"
    PERFORMER "virt, Freaky DNA and Norrin Radd"
    FLAGS DCP
    INDEX 00 00:00:00
    INDEX 01 00:02:00
FILE "Retro City Rampage seperate (Track 30).bin" BINARY
  TRACK 30 AUDIO
    TITLE "Wobbly Thrown (Freaky DNA)"
    PERFORMER "virt, Freaky DNA and Norrin Radd"
    FLAGS DCP
    INDEX 00 00:00:00
    INDEX 01 00:02:00
FILE "Retro City Rampage seperate (Track 31).bin" BINARY
  TRACK 31 AUDIO
    TITLE "One Last Quest (Norrin Radd)"
    PERFORMER "virt, Freaky DNA and Norrin Radd"
    FLAGS DCP
    INDEX 00 00:00:00
    INDEX 01 00:02:00
FILE "Retro City Rampage seperate (Track 32).bin" BINARY
  TRACK 32 AUDIO
    TITLE "Smash Me (Freaky DNA)"
    PERFORMER "virt, Freaky DNA and Norrin Radd"
    FLAGS DCP
    INDEX 00 00:00:00
    INDEX 01 00:02:00
FILE "Retro City Rampage seperate (Track 33).bin" BINARY
  TRACK 33 AUDIO
    TITLE "Politeness and Friendship (Norrin Radd)"
    PERFORMER "virt, Freaky DNA and Norrin Radd"
    FLAGS DCP
    INDEX 00 00:00:00
    INDEX 01 00:02:00
FILE "Retro City Rampage seperate (Track 34).bin" BINARY
  TRACK 34 AUDIO
    TITLE "Salsa Faceoff (Freaky DNA)"
    PERFORMER "virt, Freaky DNA and Norrin Radd"
    FLAGS DCP
    INDEX 00 00:00:00
    INDEX 01 00:02:00
FILE "Retro City Rampage seperate (Track 35).bin" BINARY
  TRACK 35 AUDIO
    TITLE "Side Complete (virt)"
    PERFORMER "virt, Freaky DNA and Norrin Radd"
    FLAGS DCP
    INDEX 00 00:00:00
    INDEX 01 00:02:00

    Write Offset: 0

Without counting the variant edition of FIFA 2002 (SLES-50801), and according to the "Missing Page" on Wiki section. Then this following dump of my FIFA 2001 could be the last official Greek game got released for PS2

http://forum.redump.org/topic/27977/ps2 … k-version/

If anyone here know any games got released in Greece for the PS2, please let me know in comment or inbox. I will try my best to purchase those games to finish the Greek PS2 collection on Redump, thank you very much guys smile

Also, when this whole Corona gone away completely. I will ask my friend in Russia to send me the Russian copy of Hobbit PS2, the Russian PS2 collection in "Missing Page" will be my next goals after the fulfillment of Greek ones.