Each of the 3 discs was dumped twice and checked to make sure the hashes matched. These dumps were made on an LG Blu-Ray drive, so at the moment, they cannot be accepted as good dumps; I am submitting them here in case anyone can verify later or a way to verify LG/Asus dumps is found.

Common Disc Info:
    Title: Sakuna: of Rice and Ruin: original soundtrack: DISC 3 · Mountain
    Foreign Title (Non-latin): (OPTIONAL)
    System: Audio CD
    Media Type: CD-ROM
    Category: Audio
    Region: USA
    Disc Serial: 82046-CD3

    Ringcode Information:
        Data Side Mastering Code (laser branded/etched): CDV/CA C20080996 Discs 3 of 3
        Data Side Mastering SID Code: IFPI LW43
        Data Side Toolstamp or Mastering Code (engraved/stamped): (REQUIRED, IF EXISTS)
        Data Side Mould SID Code: IFPI ALJ09
        Data Side Additional Mould: (REQUIRED, IF EXISTS)
        Label Side Mould SID Code: (REQUIRED, IF EXISTS)
    Barcode: 8    59716  00648    2
    Error Count: 0
    Comments: Comes with the Nintendo Switch "Divine Edition" of Sakuna: of Rice and Ruin. Game serial on the Divine Edition box is "HAC P AUSDA    82048". Serial on the soundtrack case is 82046-DP. Written below the track list:

Music by Hiroyuki Oshima

Yanato Planting Song & Yanato Planting Song - Festival -
    Performed by Tauemon: Ryota Yano / Myrthe: Hikari Kubota /
    Kinta: Soma Maeda / Yui: Aoi Koga / Kaimaru: Rika Momokawa

Yanato Planting Song - Oracle -
    Performed by Saya Asakura (Solaya Label (o., Ltd.)

    Contents:
1.     Blazing Fire
2.     War
3.     Ringleader
4.     Trembling
5.     Wretched
6.     Bonds
7.     Resentment
8.     Bloom
9.     Cheer
10.    Yanato Planting Song -Festival-
11.    Vow
12.    Winding Roots
13.    Profane Deity
14.    Yanato Planting Song -Oracle-

Version and Editions:
    Version: (REQUIRED, IF EXISTS)
    Edition/Release: Divine Edition

Extras:
    Primary Volume Descriptor (PVD): Disc has no PVD

Tracks and Write Offsets:
    DAT:

<rom name="SakunaAudioDisc3 (Track 01).bin" size="59529120" crc="d96f4eda" md5="eb06660d8bba7deb1f62e483be4bad73" sha1="dcada4b12ccb62f7a9a789b03cf3fcf275b2c562"/>
<rom name="SakunaAudioDisc3 (Track 02).bin" size="50727936" crc="bcea8f0e" md5="52eaed323ca04c33e70c3cc24f40fb3b" sha1="c8a2b23c1a7c88455ace09ec0c4af2e185bbe067"/>
<rom name="SakunaAudioDisc3 (Track 03).bin" size="37904832" crc="1457d74a" md5="6667d80b16d00cf4a8851f23bf9d79c1" sha1="29f9ca21ef2122a42d7f3be03a1c8f2308255a11"/>
<rom name="SakunaAudioDisc3 (Track 04).bin" size="32544624" crc="cc79be98" md5="c8fb8aa39537b27383f67f3a5bf4a44f" sha1="c1bb5b25d2f6376e617f16c40f3752aace949607"/>
<rom name="SakunaAudioDisc3 (Track 05).bin" size="38937360" crc="3476ffe7" md5="65287c72251ef7414699eb23adbe4b46" sha1="fda6dcba249afabe2f5687323ff7edc9f4b59d80"/>
<rom name="SakunaAudioDisc3 (Track 06).bin" size="49093296" crc="0b7efeb0" md5="13d7e3e80c6fc72ea7e4296c243887e7" sha1="a96f6344c627e36ee208677bda981b9a0c8bba85"/>
<rom name="SakunaAudioDisc3 (Track 07).bin" size="49333200" crc="2dc1aa98" md5="eee5d4af4a111129a02e299358f3385b" sha1="0d399c116d2b6659fa3ccd54feabbf88e590ceb8"/>
<rom name="SakunaAudioDisc3 (Track 08).bin" size="35359968" crc="db5a1e6d" md5="c1270a340dc9c3825f3463a4d09913ad" sha1="dac0458d9a72b0ceb744ed2f8bc446e521db3580"/>
<rom name="SakunaAudioDisc3 (Track 09).bin" size="25904928" crc="228e3c98" md5="cfe9a18830f2c99b07d8225bc2ce60b7" sha1="94cabacb2f94c5bf800ae3b99456dc68d86ba2a3"/>
<rom name="SakunaAudioDisc3 (Track 10).bin" size="57687504" crc="a3d89362" md5="3179f2e326a69ef02b02e3220f7ad24d" sha1="4055ad6a36b55a18dc42d258b966f2dc361b3fd2"/>
<rom name="SakunaAudioDisc3 (Track 11).bin" size="42406560" crc="9b4d7f3b" md5="f51303348df846b91d3acf04dc9ac672" sha1="2094653b53891ceb1f6afa64e9ac6fd5e4a8f59d"/>
<rom name="SakunaAudioDisc3 (Track 12).bin" size="53973696" crc="d39cc7d8" md5="bfccc4ca46ad85224753e5210e18b362" sha1="62a403039da033df1bfc0392477fe2369d487cea"/>
<rom name="SakunaAudioDisc3 (Track 13).bin" size="57179472" crc="3131291e" md5="2eb6e4fbc14ec9adabfe5c491381ce36" sha1="ffe85f858cd38b0baa444dc633dcfbb0cd47eeb7"/>
<rom name="SakunaAudioDisc3 (Track 14).bin" size="56631456" crc="9ebe03bc" md5="6cc617e1858abe742ad0d1d1887d402d" sha1="15e412e70d511473eb32af8db8467a460e74ae9c"/>

    Cuesheet:

FILE "SakunaAudioDisc3 (Track 01).bin" BINARY
  TRACK 01 AUDIO
    INDEX 01 00:00:00
FILE "SakunaAudioDisc3 (Track 02).bin" BINARY
  TRACK 02 AUDIO
    INDEX 01 00:00:00
FILE "SakunaAudioDisc3 (Track 03).bin" BINARY
  TRACK 03 AUDIO
    INDEX 01 00:00:00
FILE "SakunaAudioDisc3 (Track 04).bin" BINARY
  TRACK 04 AUDIO
    INDEX 01 00:00:00
FILE "SakunaAudioDisc3 (Track 05).bin" BINARY
  TRACK 05 AUDIO
    INDEX 01 00:00:00
FILE "SakunaAudioDisc3 (Track 06).bin" BINARY
  TRACK 06 AUDIO
    INDEX 01 00:00:00
FILE "SakunaAudioDisc3 (Track 07).bin" BINARY
  TRACK 07 AUDIO
    INDEX 01 00:00:00
FILE "SakunaAudioDisc3 (Track 08).bin" BINARY
  TRACK 08 AUDIO
    INDEX 01 00:00:00
FILE "SakunaAudioDisc3 (Track 09).bin" BINARY
  TRACK 09 AUDIO
    INDEX 01 00:00:00
FILE "SakunaAudioDisc3 (Track 10).bin" BINARY
  TRACK 10 AUDIO
    INDEX 01 00:00:00
FILE "SakunaAudioDisc3 (Track 11).bin" BINARY
  TRACK 11 AUDIO
    INDEX 01 00:00:00
FILE "SakunaAudioDisc3 (Track 12).bin" BINARY
  TRACK 12 AUDIO
    INDEX 01 00:00:00
FILE "SakunaAudioDisc3 (Track 13).bin" BINARY
  TRACK 13 AUDIO
    INDEX 01 00:00:00
FILE "SakunaAudioDisc3 (Track 14).bin" BINARY
  TRACK 14 AUDIO
    INDEX 01 00:00:00

    Write Offset: 0

Logs: https://drive.google.com/drive/u/1/fold … kSrlXpljqn

Common Disc Info:
    Title: Sakuna: of Rice and Ruin: original soundtrack: DISC 2 · Cascade
    Foreign Title (Non-latin): (OPTIONAL)
    System: Audio CD
    Media Type: CD-ROM
    Category: Audio
    Region: USA
    Disc Serial: 82046-CD2

    Ringcode Information:
        Data Side Mastering Code (laser branded/etched): CDV/CA C20080993 Discs 2 of 3
        Data Side Mastering SID Code: IFPI LW43
        Data Side Toolstamp or Mastering Code (engraved/stamped): (REQUIRED, IF EXISTS)
        Data Side Mould SID Code: IFPI ALJ09
        Data Side Additional Mould: (REQUIRED, IF EXISTS)
        Label Side Mould SID Code: (REQUIRED, IF EXISTS)
    Barcode: 8    59716  00648    2
    Error Count: 0
    Comments: Comes with the Nintendo Switch "Divine Edition" of Sakuna: of Rice and Ruin. Game serial on the Divine Edition box is "HAC P AUSDA    82048". Serial on the soundtrack case is 82046-DP. Written below the track list:

Music by Hiroyuki Oshima

Yanato Planting Song & Yanato Planting Song - Festival -
    Performed by Tauemon: Ryota Yano / Myrthe: Hikari Kubota /
    Kinta: Soma Maeda / Yui: Aoi Koga / Kaimaru: Rika Momokawa

Yanato Planting Song - Oracle -
    Performed by Saya Asakura (Solaya Label (o., Ltd.)

    Contents:

1.     Sprouting
2.     Cherry Blossoms
3.     Flourish
4.     Firefly
5.     Harvest
6.     Pampas Grass
7.     Budding
8.     Silence
9.     Blessings -Bamboo-
10.    Blessings -Pine-
11.    Water's Edge
12.    Anguish
13.    Hollow

Version and Editions:
    Version: (REQUIRED, IF EXISTS)
    Edition/Release: Divine Edition

Extras:
    Primary Volume Descriptor (PVD): Disc has no PVD

Tracks and Write Offsets:
    DAT:

<rom name="SakunaAudioDisc2 (Track 01).bin" size="52428432" crc="d57cae54" md5="225bcc898bbc0cfaf2010ce27075e19b" sha1="fd11ef9bbd2cbe9e609390e8063ec887ac81477b"/>
<rom name="SakunaAudioDisc2 (Track 02).bin" size="52428432" crc="a26b973e" md5="b54b104fc93027bcb2f38929834d78ce" sha1="70dd86746daa3589f6359c72513e650268839d88"/>
<rom name="SakunaAudioDisc2 (Track 03).bin" size="44356368" crc="a27a60e5" md5="80b1666ed0eeb9d298202f7b606d0545" sha1="717ed18c2042b9eca64298e8d81dd8e80e45509c"/>
<rom name="SakunaAudioDisc2 (Track 04).bin" size="44356368" crc="58de1ea1" md5="4f19dc4657dc36b2c378441e7ce40cfc" sha1="a6ae0177176e21f5cdc43efee0d563b1c10147e0"/>
<rom name="SakunaAudioDisc2 (Track 05).bin" size="46931808" crc="b77482c6" md5="faedf03ad92ef47bba0ab225e84b6f68" sha1="864e1783ed3c29fa6529fe391c67e59b40a3dcad"/>
<rom name="SakunaAudioDisc2 (Track 06).bin" size="46931808" crc="6b3d08b8" md5="2d4b60e5e6ca4b7593e3f29055de8990" sha1="4976b0b773f48ab5a9e2d6e592d9aa6654c4bae7"/>
<rom name="SakunaAudioDisc2 (Track 07).bin" size="43747200" crc="10928d29" md5="52a3060fe0a07c2a20279ce606fd5bdc" sha1="ece8cb2ca42bdefdfecda908705d4feca8a45447"/>
<rom name="SakunaAudioDisc2 (Track 08).bin" size="43747200" crc="7b5c5c0c" md5="a4d1d12e1e65a952e4f22e744b5dce16" sha1="05ebc6d708c6a9224909930f80c4004caeedc8b1"/>
<rom name="SakunaAudioDisc2 (Track 09).bin" size="29950368" crc="ce0d8526" md5="265300943974d62130d33b96d51d09d1" sha1="6cf8cba10fec6686547c422c6881918a6e023f2a"/>
<rom name="SakunaAudioDisc2 (Track 10).bin" size="29950368" crc="b1e3c99e" md5="f65eb5e89e1760de87ff55dbc6e0d6fc" sha1="e786d317528bb6e1511a16df0dc8e0aa530e02da"/>
<rom name="SakunaAudioDisc2 (Track 11).bin" size="60105360" crc="fe92b524" md5="cc097d40d12b6d4ee4693ae3b83e34c9" sha1="268ebf771a62816d9ef2117a3240aabdce733803"/>
<rom name="SakunaAudioDisc2 (Track 12).bin" size="52341408" crc="b8e65e65" md5="afe2bea9f7afa55ae9bdd06a09f75b51" sha1="23b1142be1646339677d2c27443d47c0fda300ac"/>
<rom name="SakunaAudioDisc2 (Track 13).bin" size="43161552" crc="6dea9700" md5="ac895d9db01ced34c20e53c007b78f08" sha1="a278aa5faa0b2048e687a99b18a8b0a229c1a6b7"/>

    Cuesheet:

FILE "SakunaAudioDisc2 (Track 01).bin" BINARY
  TRACK 01 AUDIO
    INDEX 01 00:00:00
FILE "SakunaAudioDisc2 (Track 02).bin" BINARY
  TRACK 02 AUDIO
    INDEX 01 00:00:00
FILE "SakunaAudioDisc2 (Track 03).bin" BINARY
  TRACK 03 AUDIO
    INDEX 01 00:00:00
FILE "SakunaAudioDisc2 (Track 04).bin" BINARY
  TRACK 04 AUDIO
    INDEX 01 00:00:00
FILE "SakunaAudioDisc2 (Track 05).bin" BINARY
  TRACK 05 AUDIO
    INDEX 01 00:00:00
FILE "SakunaAudioDisc2 (Track 06).bin" BINARY
  TRACK 06 AUDIO
    INDEX 01 00:00:00
FILE "SakunaAudioDisc2 (Track 07).bin" BINARY
  TRACK 07 AUDIO
    INDEX 01 00:00:00
FILE "SakunaAudioDisc2 (Track 08).bin" BINARY
  TRACK 08 AUDIO
    INDEX 01 00:00:00
FILE "SakunaAudioDisc2 (Track 09).bin" BINARY
  TRACK 09 AUDIO
    INDEX 01 00:00:00
FILE "SakunaAudioDisc2 (Track 10).bin" BINARY
  TRACK 10 AUDIO
    INDEX 01 00:00:00
FILE "SakunaAudioDisc2 (Track 11).bin" BINARY
  TRACK 11 AUDIO
    INDEX 01 00:00:00
FILE "SakunaAudioDisc2 (Track 12).bin" BINARY
  TRACK 12 AUDIO
    INDEX 01 00:00:00
FILE "SakunaAudioDisc2 (Track 13).bin" BINARY
  TRACK 13 AUDIO
    INDEX 01 00:00:00

    Write Offset: 0

Logs: https://drive.google.com/drive/u/1/fold … kSrlXpljqn

Common Disc Info:
    Title: Sakuna: of Rice and Ruin: original soundtrack: DISC 1 · Forest
    System: Audio CD
    Media Type: CD-ROM
    Category: Audio
    Region: USA
    Disc Serial: 82046-CD1

    Ringcode Information:
        Data Side Mastering Code (laser branded/etched): CDV/CA C20080991 Discs 1 of 3
        Data Side Mastering SID Code: IFPI LW43
        Data Side Toolstamp or Mastering Code (engraved/stamped): (REQUIRED, IF EXISTS)
        Data Side Mould SID Code: IFPI ALJ05
        Data Side Additional Mould: (REQUIRED, IF EXISTS)
        Label Side Mould SID Code: (REQUIRED, IF EXISTS)
    Barcode: 8    59716  00648    2
    Error Count: 0
    Comments: Comes with the Nintendo Switch "Divine Edition" of Sakuna: of Rice and Ruin. Game serial on the Divine Edition box is "HAC P AUSDA    82048". Serial on the soundtrack case is 82046-DP. Written below the track list:

Music by Hiroyuki Oshima

Yanato Planting Song & Yanato Planting Song - Festival -
    Performed by Tauemon: Ryota Yano / Myrthe: Hikari Kubota /
    Kinta: Soma Maeda / Yui: Aoi Koga / Kaimaru: Rika Momokawa

Yanato Planting Song - Oracle -
    Performed by Saya Asakura (Solaya Label (o., Ltd.)


    Contents:
1.     Mist
2.     Purification
3.     Uproar
4.     Howling Wind
5.     Guidance
6.     Rugged
7.     Blessing -Plum-
8.     Yanato Planting Song
9.     Echo
10.    Mayhem
11.    Exaltation
12.    Tumble
13.    Tomfoolery
14.    Peace Restored
15.    Repose

Version and Editions:
    Version: (REQUIRED, IF EXISTS)
    Edition/Release: Divine Edition

Extras:
    Primary Volume Descriptor (PVD): Disc has no PVD

Tracks and Write Offsets:
    DAT:

<rom name="SakunaAudioDisc1 (Track 01).bin" size="31265136" crc="8039ace2" md5="43539ea2f051894384726e7b01255de0" sha1="33c4ee7bf25a84fee70acab41a2bac8beb5ad0ba"/>
<rom name="SakunaAudioDisc1 (Track 02).bin" size="48940416" crc="5d5c459d" md5="21de11d8b700bfdf8de8ec26d0c88fff" sha1="3929b3b58f114a12799b4fe19aae0966501cadb3"/>
<rom name="SakunaAudioDisc1 (Track 03).bin" size="29444688" crc="05e885c1" md5="d0b6d00c1a5741367d0ccba49651ec35" sha1="4076d5af311f91dee1fcb778cd5a289e96de11a6"/>
<rom name="SakunaAudioDisc1 (Track 04).bin" size="47867904" crc="d5de3718" md5="73a83de020a99b315a932eb8d02199d0" sha1="e2f306d22609b3e0995db8434875a2d2f7c9d5c2"/>
<rom name="SakunaAudioDisc1 (Track 05).bin" size="39419520" crc="cbe26ea0" md5="29f1e737389748c19bbc385974b14673" sha1="0d9a4a197ef97fb5e81b268bdf65ba1411b6b2b2"/>
<rom name="SakunaAudioDisc1 (Track 06).bin" size="43646064" crc="b7f692a6" md5="ee6ab1249ed0f44defad1ec06e26236a" sha1="7e6493d6d549f2d9090088ff48671b3f968197b6"/>
<rom name="SakunaAudioDisc1 (Track 07).bin" size="29950368" crc="5e853eb4" md5="bdb16689ef153c48210bef77d54909e9" sha1="e3924e9e575ebd5eed0724aa7c21737b0cf6d114"/>
<rom name="SakunaAudioDisc1 (Track 08).bin" size="31761408" crc="1b30f6b5" md5="0639fbd261791eaf7507cec5ad82fd6c" sha1="6b3cc73d6946d9df54b306764e4da1962614fce2"/>
<rom name="SakunaAudioDisc1 (Track 09).bin" size="58524816" crc="d7e1d868" md5="ed4e9032b0eda979104859b02c70472a" sha1="5ccf52b37517109468bba6eab16fda60c5472a45"/>
<rom name="SakunaAudioDisc1 (Track 10).bin" size="44055312" crc="705be124" md5="da212f72a4b0e9df21a3a5f1cf093554" sha1="445a1bc945defcf605770df3f0fd5a403ceb618e"/>
<rom name="SakunaAudioDisc1 (Track 11).bin" size="36493632" crc="2c762654" md5="2bc693233bd63da4349105001cd6d83a" sha1="e47d7f9d683626ecc9c45e37872f8f0a1009bec6"/>
<rom name="SakunaAudioDisc1 (Track 12).bin" size="30895872" crc="609fd64d" md5="cd01d577651e5ecde54a768617235bff" sha1="48a26515f21823c5c7a5a374e7be1b9a2efa58d3"/>
<rom name="SakunaAudioDisc1 (Track 13).bin" size="35618688" crc="d562dbfb" md5="620ae4917e8adecc9019a19060a391c2" sha1="9f05f6f759d29b91f3c011c0c15a8895108b1160"/>
<rom name="SakunaAudioDisc1 (Track 14).bin" size="52414320" crc="05e75770" md5="caaab7470121a15faa03ffdf6186de95" sha1="b5a79a4e208dfb4f3262dd6a4e5321c0f6c827fb"/>
<rom name="SakunaAudioDisc1 (Track 15).bin" size="44116464" crc="a6ec9feb" md5="5100c31707f441823cebc8bea619d81f" sha1="aa2eb6b1ed731b8013feb86564bd66e884041973"/>

    Cuesheet:

FILE "SakunaAudioDisc1 (Track 01).bin" BINARY
  TRACK 01 AUDIO
    INDEX 01 00:00:00
FILE "SakunaAudioDisc1 (Track 02).bin" BINARY
  TRACK 02 AUDIO
    INDEX 01 00:00:00
FILE "SakunaAudioDisc1 (Track 03).bin" BINARY
  TRACK 03 AUDIO
    INDEX 01 00:00:00
FILE "SakunaAudioDisc1 (Track 04).bin" BINARY
  TRACK 04 AUDIO
    INDEX 01 00:00:00
FILE "SakunaAudioDisc1 (Track 05).bin" BINARY
  TRACK 05 AUDIO
    INDEX 01 00:00:00
FILE "SakunaAudioDisc1 (Track 06).bin" BINARY
  TRACK 06 AUDIO
    INDEX 01 00:00:00
FILE "SakunaAudioDisc1 (Track 07).bin" BINARY
  TRACK 07 AUDIO
    INDEX 01 00:00:00
FILE "SakunaAudioDisc1 (Track 08).bin" BINARY
  TRACK 08 AUDIO
    INDEX 01 00:00:00
FILE "SakunaAudioDisc1 (Track 09).bin" BINARY
  TRACK 09 AUDIO
    INDEX 01 00:00:00
FILE "SakunaAudioDisc1 (Track 10).bin" BINARY
  TRACK 10 AUDIO
    INDEX 01 00:00:00
FILE "SakunaAudioDisc1 (Track 11).bin" BINARY
  TRACK 11 AUDIO
    INDEX 01 00:00:00
FILE "SakunaAudioDisc1 (Track 12).bin" BINARY
  TRACK 12 AUDIO
    INDEX 01 00:00:00
FILE "SakunaAudioDisc1 (Track 13).bin" BINARY
  TRACK 13 AUDIO
    INDEX 01 00:00:00
FILE "SakunaAudioDisc1 (Track 14).bin" BINARY
  TRACK 14 AUDIO
    INDEX 01 00:00:00
FILE "SakunaAudioDisc1 (Track 15).bin" BINARY
  TRACK 15 AUDIO
    INDEX 01 00:00:00

    Write Offset: 0

Logs: https://drive.google.com/drive/folders/ … sp=sharing