1

(0 replies, posted in New Dumps)

Dumped with both redumper and DIC on an LG UH12NS240 flashed with Ribshark's firmware. Redumper and DIC logs attatched to post.

(Is "Bundle Version Apple OEM" the correct edition? This was an OEM bundle with Powermac 6500s).

Common Disc Info:
    Title: MechWarrior 2: 31st Century Combat
    Foreign Title (Non-latin): (OPTIONAL)
    Disc Number / Letter: (OPTIONAL)
    Disc Title: (OPTIONAL)
    System: Apple Macintosh
    Media Type: CD-ROM
    Category: Games
    Region: USA
    Languages: English
    Disc Serial: CDD-4095-101-U3

    Ringcode Information:
        Data Side Mastering Code (laser branded/etched): *1R*   6911370A
        Data Side Mastering SID Code: IFPI L433
        Data Side Toolstamp or Mastering Code (engraved/stamped): B2
        Data Side Mould SID Code: IFPI 7456
        Data Side Additional Mould: (REQUIRED, IF EXISTS)
        Label Side Mould SID Code: (REQUIRED, IF EXISTS)
    Barcode: (OPTIONAL)
    Error Count: 0
    Comments: 3D Accelerated for the 6500, not to be sold seperately
    Contents: (OPTIONAL)

Version and Editions:
    Version: (REQUIRED, IF EXISTS)
    Edition/Release: Bundle Version Apple OEM

Extras:
    Primary Volume Descriptor (PVD): Disc has no PVD

Copy Protection:
    Copy Protection: None

Tracks and Write Offsets:
    DAT:

<rom name="dump_221222_151216_devsg1 (Track 01).bin" size="218743056" crc="e61f0e11" md5="85bfe5393e7a16a4900e06506484d3e7" sha1="82db2e23e5f74f320c33df065e0471a2bdec2016" />
<rom name="dump_221222_151216_devsg1 (Track 02).bin" size="24486672" crc="9b50be80" md5="0699f23796903adc5fbebcaadd3e9108" sha1="991437c84032b99c6e78c83f0c708d5cff74338c" />
<rom name="dump_221222_151216_devsg1 (Track 03).bin" size="18524352" crc="8b7c3db2" md5="f08cb0eba853ef02792d0f0bd14a26e9" sha1="0ad9a78191c8dbf2d2e9483ab197ad05e455a940" />
<rom name="dump_221222_151216_devsg1 (Track 04).bin" size="20290704" crc="0c337571" md5="b4fb315fdb708a3df294dc72f5830849" sha1="a6a70d5e5ffa0794a13b8cc9e0865c8ee91933fe" />
<rom name="dump_221222_151216_devsg1 (Track 05).bin" size="18265632" crc="b4c6b053" md5="a2d53a8285e9de8405438675845de3f4" sha1="5c305a0c04c3305d3d57db9c053349f4ea0243b1" />
<rom name="dump_221222_151216_devsg1 (Track 06).bin" size="24881808" crc="10b0f442" md5="228b4cebcd0f5cd7248bf3f10c1af6a0" sha1="0e143439a6fe5b2c0072060d5387eea45d68e1ea" />
<rom name="dump_221222_151216_devsg1 (Track 07).bin" size="19380480" crc="0dfdacf8" md5="063823ad645b78885cf9a47f4dbe4d6c" sha1="ca57dee78d3799eb3ad0cb048b6d7a9498632be4" />
<rom name="dump_221222_151216_devsg1 (Track 08).bin" size="23665824" crc="4a461129" md5="00c2e8de9205f6742c8cf06ae3ddf273" sha1="05fc6afa8adf01520025c631e65406e2e0e84c79" />
<rom name="dump_221222_151216_devsg1 (Track 09).bin" size="18524352" crc="8b7c3db2" md5="f08cb0eba853ef02792d0f0bd14a26e9" sha1="0ad9a78191c8dbf2d2e9483ab197ad05e455a940" />
<rom name="dump_221222_151216_devsg1 (Track 10).bin" size="24068016" crc="9f43988b" md5="7dbf629125893f6335177ae0401e50dd" sha1="88961d63e83536b321400c9cee0858e4cb138741" />
<rom name="dump_221222_151216_devsg1 (Track 11).bin" size="18265632" crc="b4c6b053" md5="a2d53a8285e9de8405438675845de3f4" sha1="5c305a0c04c3305d3d57db9c053349f4ea0243b1" />
<rom name="dump_221222_151216_devsg1 (Track 12).bin" size="23903376" crc="31adf24b" md5="11372038189d6209fac930f16c73f56a" sha1="5f6c61004d53d77985e50f36ed752b01dc6f0000" />
<rom name="dump_221222_151216_devsg1 (Track 13).bin" size="23985696" crc="6ede599f" md5="d05fc2061ccfedcf866ff1d4fec962be" sha1="f8e39a1f6a15ae97c9738cdfc3ff32a003137841" />
<rom name="dump_221222_151216_devsg1 (Track 14).bin" size="20290704" crc="0c337571" md5="b4fb315fdb708a3df294dc72f5830849" sha1="a6a70d5e5ffa0794a13b8cc9e0865c8ee91933fe" />
<rom name="dump_221222_151216_devsg1 (Track 15).bin" size="24672480" crc="c2f9764d" md5="1c49c9a83c006e93ef364fba46604fb8" sha1="6c90705f09f044fcf25dced7eada6ac587332036" />
<rom name="dump_221222_151216_devsg1 (Track 16).bin" size="22339296" crc="0177551d" md5="81a1f57f7dab47f0e0694ee231a2d07d" sha1="edc61e06db37365f982fc716f852fe568ff6acd0" />
<rom name="dump_221222_151216_devsg1 (Track 17).bin" size="33551280" crc="bd8b2168" md5="2c972d5d4dcae4d587f08a491a461a91" sha1="3ec526d275b3c396f13fa7594ac8c8d3f0da2be6" />
<rom name="dump_221222_151216_devsg1 (Track 18).bin" size="21497280" crc="c72a0202" md5="e9fefbe956d6e3ad11165d952ad30fd3" sha1="9c4011def64fe114747822ed685d0d53493bf532" />
<rom name="dump_221222_151216_devsg1 (Track 19).bin" size="28249872" crc="9e2bcbab" md5="beb1dd04a93f449a41c9bf72200df9f0" sha1="69992770e59730d8355c54dca9468e8581c5010e" />
<rom name="dump_221222_151216_devsg1 (Track 20).bin" size="24752448" crc="a14c8aa6" md5="f3ca1d2f5dc9cc9d333cbaa0e58ae3db" sha1="7902aa6f82c35b8be730f9a6ae6339907d117c76" />
<rom name="dump_221222_151216_devsg1 (Track 21).bin" size="22790880" crc="56fbfd90" md5="c52e2e96e776b82e9c4952145955be25" sha1="bc30c6ba260c712dde721f75e670e12b1f323852" />
<rom name="dump_221222_151216_devsg1 (Track 22).bin" size="22475712" crc="6bd7c3df" md5="416f87680a40abea2c355166917ef345" sha1="ee196aa4a1a9f0e871a5d811ff500aea31481727" />
<rom name="dump_221222_151216_devsg1 (Track 23).bin" size="20963376" crc="f99c499b" md5="21a6bf723bf9459fe6ade109c1a5b7c0" sha1="dc6ad372d2e97ab02484b0895be6928c3bd7d9a0" />
<rom name="dump_221222_151216_devsg1 (Track 24).bin" size="18265632" crc="b4c6b053" md5="a2d53a8285e9de8405438675845de3f4" sha1="5c305a0c04c3305d3d57db9c053349f4ea0243b1" />
<rom name="dump_221222_151216_devsg1 (Track 25).bin" size="22783824" crc="d14a29f5" md5="5415ab0dc66c26750d17b52ae28a224d" sha1="b025c2207e858c8530ae587cb65c7eddf1a42e22" />
<rom name="dump_221222_151216_devsg1 (Track 26).bin" size="21163296" crc="e2fdaea2" md5="13d81d595d5b9482719c2d4727604698" sha1="a58ef49821439a4eacee45df21c0e0e444e5ef0d" />
<rom name="dump_221222_151216_devsg1 (Track 27).bin" size="969024" crc="a5ec2d0e" md5="5864663980c6930239dd69590920d86c" sha1="2e81c1df5b9e6059a8f0450a0c9e596773b1dc1c" />

    Cuesheet:

CATALOG 0000000000000
FILE "dump_221222_151216_devsg1 (Track 01).bin" BINARY
  TRACK 01 MODE1/2352
    INDEX 01 00:00:00
FILE "dump_221222_151216_devsg1 (Track 02).bin" BINARY
  TRACK 02 AUDIO
    INDEX 00 00:00:00
    INDEX 01 00:01:00
FILE "dump_221222_151216_devsg1 (Track 03).bin" BINARY
  TRACK 03 AUDIO
    INDEX 01 00:00:00
FILE "dump_221222_151216_devsg1 (Track 04).bin" BINARY
  TRACK 04 AUDIO
    INDEX 01 00:00:00
FILE "dump_221222_151216_devsg1 (Track 05).bin" BINARY
  TRACK 05 AUDIO
    INDEX 01 00:00:00
FILE "dump_221222_151216_devsg1 (Track 06).bin" BINARY
  TRACK 06 AUDIO
    INDEX 01 00:00:00
FILE "dump_221222_151216_devsg1 (Track 07).bin" BINARY
  TRACK 07 AUDIO
    INDEX 01 00:00:00
FILE "dump_221222_151216_devsg1 (Track 08).bin" BINARY
  TRACK 08 AUDIO
    INDEX 01 00:00:00
FILE "dump_221222_151216_devsg1 (Track 09).bin" BINARY
  TRACK 09 AUDIO
    INDEX 01 00:00:00
FILE "dump_221222_151216_devsg1 (Track 10).bin" BINARY
  TRACK 10 AUDIO
    INDEX 01 00:00:00
FILE "dump_221222_151216_devsg1 (Track 11).bin" BINARY
  TRACK 11 AUDIO
    INDEX 01 00:00:00
FILE "dump_221222_151216_devsg1 (Track 12).bin" BINARY
  TRACK 12 AUDIO
    INDEX 01 00:00:00
FILE "dump_221222_151216_devsg1 (Track 13).bin" BINARY
  TRACK 13 AUDIO
    INDEX 01 00:00:00
FILE "dump_221222_151216_devsg1 (Track 14).bin" BINARY
  TRACK 14 AUDIO
    INDEX 01 00:00:00
FILE "dump_221222_151216_devsg1 (Track 15).bin" BINARY
  TRACK 15 AUDIO
    INDEX 01 00:00:00
FILE "dump_221222_151216_devsg1 (Track 16).bin" BINARY
  TRACK 16 AUDIO
    INDEX 01 00:00:00
FILE "dump_221222_151216_devsg1 (Track 17).bin" BINARY
  TRACK 17 AUDIO
    INDEX 01 00:00:00
FILE "dump_221222_151216_devsg1 (Track 18).bin" BINARY
  TRACK 18 AUDIO
    INDEX 01 00:00:00
FILE "dump_221222_151216_devsg1 (Track 19).bin" BINARY
  TRACK 19 AUDIO
    INDEX 01 00:00:00
FILE "dump_221222_151216_devsg1 (Track 20).bin" BINARY
  TRACK 20 AUDIO
    INDEX 01 00:00:00
FILE "dump_221222_151216_devsg1 (Track 21).bin" BINARY
  TRACK 21 AUDIO
    INDEX 01 00:00:00
FILE "dump_221222_151216_devsg1 (Track 22).bin" BINARY
  TRACK 22 AUDIO
    INDEX 01 00:00:00
FILE "dump_221222_151216_devsg1 (Track 23).bin" BINARY
  TRACK 23 AUDIO
    INDEX 01 00:00:00
FILE "dump_221222_151216_devsg1 (Track 24).bin" BINARY
  TRACK 24 AUDIO
    INDEX 01 00:00:00
FILE "dump_221222_151216_devsg1 (Track 25).bin" BINARY
  TRACK 25 AUDIO
    INDEX 01 00:00:00
FILE "dump_221222_151216_devsg1 (Track 26).bin" BINARY
  TRACK 26 AUDIO
    INDEX 01 00:00:00
FILE "dump_221222_151216_devsg1 (Track 27).bin" BINARY
  TRACK 27 AUDIO
    INDEX 01 00:00:00

    Write Offset: 0

Dumping Info:
    Dumping Program: Redumper

Matches http://redump.org/disc/12864/

Dumped with an LG UH12NS240 flashed with Ribshark's firmware.

Redumper reports 0 errors because it doesnt count the last sector of track 1 containing audio silence as an error.

Common Disc Info:
    Title: MechWarrior 2: 31st Century Combat
    Foreign Title (Non-latin): (OPTIONAL)
    Disc Number / Letter: (OPTIONAL)
    Disc Title: (OPTIONAL)
    System: IBM PC compatible
    Media Type: CD-ROM
    Category: Games
    Region: USA
    Languages: English
    Disc Serial: 1000005-101-US

    Ringcode Information:
        Data Side Mastering Code (laser branded/etched): CDD3115 R3H
        Data Side Mastering SID Code: IFPI L238
        Data Side Toolstamp or Mastering Code (engraved/stamped): 5
        Data Side Mould SID Code: IFPI 4111
        Data Side Additional Mould: (REQUIRED, IF EXISTS)
        Label Side Mould SID Code: (REQUIRED, IF EXISTS)
    Barcode: (OPTIONAL)
    Error Count: 0
    Comments: Offered only with Micron PCs
    Contents: (OPTIONAL)

Version and Editions:
    Version: (REQUIRED, IF EXISTS)
    Edition/Release: Bundle Version Micron OEM

Extras:
    Primary Volume Descriptor (PVD):

0320 : 20 20 20 20 20 20 20 20  20 20 20 20 20 30 30 30                000
0330 : 30 30 30 30 30 30 30 30  30 30 30 30 30 00 30 30   0000000000000.00
0340 : 30 30 30 30 30 30 30 30  30 30 30 30 30 30 00 30   00000000000000.0
0350 : 30 30 30 30 30 30 30 30  30 30 30 30 30 30 30 00   000000000000000.
0360 : 30 30 30 30 30 30 30 30  30 30 30 30 30 30 30 30   0000000000000000
0370 : 00 01 00 00 00 00 00 00  00 00 00 00 00 00 00 00   ................

Copy Protection:
    Copy Protection: (CHECK WITH PROTECTIONID)

Tracks and Write Offsets:
    DAT:

<rom name="dump_221222_134915_devsg1 (Track 01).bin" size="147557424" crc="0c14a9a3" md5="249c8dbcb1fc4d57c134f73d71dc2692" sha1="b67fdddb32c26500361f70084c45065db1027bf9" />
<rom name="dump_221222_134915_devsg1 (Track 02).bin" size="24310272" crc="7b956d91" md5="50c7c931886cb3425a8a5746e5302575" sha1="2258e0973b1c13ebfdf8efdffa681049829d102a" />
<rom name="dump_221222_134915_devsg1 (Track 03).bin" size="25232256" crc="1f706267" md5="fa6c694e40d973b4a8ff83770815bbee" sha1="848dbf4f65054cd0c66e689a19fff492ee952ad2" />
<rom name="dump_221222_134915_devsg1 (Track 04).bin" size="20293056" crc="e60aa101" md5="21199a7f05096843d8b96b397dd5d1ef" sha1="16d27c32991bbcffcb417ac98a04502340249af6" />
<rom name="dump_221222_134915_devsg1 (Track 05).bin" size="18263280" crc="c6827a9a" md5="f09c755a26980f16804c5808a8c62528" sha1="e9813975f2f38076d875c1dc5a80fa32ef9e704f" />
<rom name="dump_221222_134915_devsg1 (Track 06).bin" size="24881808" crc="e3999a4f" md5="ab1823c381d6496b9649359c60c86f23" sha1="754fdc4aee90d0ad82ccc43c8b10ad05cf4c22c0" />
<rom name="dump_221222_134915_devsg1 (Track 07).bin" size="19380480" crc="084c7da2" md5="cb47eedb5923adefff18bf558ce2e1cf" sha1="fd6ea776b5189917dae77c7403ae13983f5e7698" />
<rom name="dump_221222_134915_devsg1 (Track 08).bin" size="23665824" crc="ff031bfa" md5="077596fc2457c454b4f7eff1d7506f0e" sha1="354b180c68eca334b051d1424140ddce95260cd2" />
<rom name="dump_221222_134915_devsg1 (Track 09).bin" size="18524352" crc="8ab4a7df" md5="88263e9c57e0184f9cea23baf0653a56" sha1="3586357ec80322b7ad03befd1a8023a19c4a9f16" />
<rom name="dump_221222_134915_devsg1 (Track 10).bin" size="24068016" crc="4a85f50d" md5="8e1caa44068db045a911812d6c5fe568" sha1="5372c4f17d3cff2f043cc08e5ba20c13fc8fbbfe" />
<rom name="dump_221222_134915_devsg1 (Track 11).bin" size="25930800" crc="20563503" md5="4bb8b4289b96e90a8e5085e0e9aa81ec" sha1="9d10183e5066d4a637cb9508d6a90d87982df6ca" />
<rom name="dump_221222_134915_devsg1 (Track 12).bin" size="23903376" crc="448b80bb" md5="17b58eb1fe375871e933af7705b1ae6d" sha1="b32a5c7da5c3db1b47dbca0b4065ab2eb302d384" />
<rom name="dump_221222_134915_devsg1 (Track 13).bin" size="23985696" crc="a0427076" md5="3a37ec5db8243726a3551b7a738a370d" sha1="c0ddb88951fc913b26becdb4c5a76fe36883eb1a" />
<rom name="dump_221222_134915_devsg1 (Track 14).bin" size="26055456" crc="17e4a6aa" md5="56d1f81fda4cede99d3563ef610f69b9" sha1="f8c85ce6bc3b638f0358ae8e4e62eb19008193fc" />
<rom name="dump_221222_134915_devsg1 (Track 15).bin" size="24672480" crc="349a0649" md5="f357615bfcb31913cca7341b4ff447e1" sha1="e7fa405a6b7e6416c6ef4670073ea5f6875bb879" />
<rom name="dump_221222_134915_devsg1 (Track 16).bin" size="22339296" crc="86441203" md5="c0ac96cf14884841e68d6c9fa47e5775" sha1="5479495bcc846412fb65cbeceb4aab0be6c8dc23" />
<rom name="dump_221222_134915_devsg1 (Track 17).bin" size="33553632" crc="8227c40a" md5="556cc3e1683d07e142f106ee0bedb155" sha1="8a9a8f52c9c9ac493cd617c4cf31627e9b4e2159" />
<rom name="dump_221222_134915_devsg1 (Track 18).bin" size="21494928" crc="5ed2011a" md5="5eebd518a9c67da376929a7f4f508e97" sha1="67d7ee8abae8d838a2fa8a13225190aaeb5d499a" />
<rom name="dump_221222_134915_devsg1 (Track 19).bin" size="28249872" crc="253f819a" md5="8e6a589992e2bb819479fa52ba0cc376" sha1="9dbf983de6deed68eeaec3c19085ca08fb512bfd" />
<rom name="dump_221222_134915_devsg1 (Track 20).bin" size="24752448" crc="672f7aa4" md5="84e9dbe303f2e7355c4b74fdce8e4370" sha1="225da680c17f6c01d83bb3cba8ad1911ed5b6bad" />
<rom name="dump_221222_134915_devsg1 (Track 21).bin" size="22790880" crc="2d23062d" md5="45a1ad8bbb0ef02b8349bdcf18667c38" sha1="e45c48615093cc6c3bdbc2bcad923b387643876a" />
<rom name="dump_221222_134915_devsg1 (Track 22).bin" size="22475712" crc="76ea8800" md5="5a806cb45de0ba39470538f2263285b6" sha1="d292e3b675ab06fc4b0953b6c61324ce65ad6121" />
<rom name="dump_221222_134915_devsg1 (Track 23).bin" size="20963376" crc="f4da8469" md5="e9be19b50f8b5974bba61b5f9a3eceba" sha1="99d277d65851316577e3847c38c2ae9183a0f05d" />
<rom name="dump_221222_134915_devsg1 (Track 24).bin" size="32330592" crc="e38b6f8a" md5="c807fb61db77177d24f64c4ae71931e1" sha1="68649846cada7d2f04c6f2839ef2300ffb9327b5" />
<rom name="dump_221222_134915_devsg1 (Track 25).bin" size="22783824" crc="dc8a1532" md5="7166801ed2c0207e23d962e590d06773" sha1="2d3361f6135ce3cdaaed89f7a5a34f71f7a70a26" />
<rom name="dump_221222_134915_devsg1 (Track 26).bin" size="21163296" crc="c08c1b34" md5="200245eb4b60ca49ccd61d6ebfb6d55b" sha1="46569a66c2df95702947137b9f47e67722d815fe" />
<rom name="dump_221222_134915_devsg1 (Track 27).bin" size="1319472" crc="2e841ae6" md5="752289f8dacaa6e318c644abc299d318" sha1="abf11ad863ce9b4b96d0cb44cf1c498fe56c1414" />

    Cuesheet:

CATALOG 0000000000000
FILE "dump_221222_134915_devsg1 (Track 01).bin" BINARY
  TRACK 01 MODE1/2352
    INDEX 01 00:00:00
FILE "dump_221222_134915_devsg1 (Track 02).bin" BINARY
  TRACK 02 AUDIO
    INDEX 00 00:00:00
    INDEX 01 00:01:74
FILE "dump_221222_134915_devsg1 (Track 03).bin" BINARY
  TRACK 03 AUDIO
    INDEX 00 00:00:00
    INDEX 01 00:01:74
FILE "dump_221222_134915_devsg1 (Track 04).bin" BINARY
  TRACK 04 AUDIO
    INDEX 00 00:00:00
    INDEX 01 00:01:74
FILE "dump_221222_134915_devsg1 (Track 05).bin" BINARY
  TRACK 05 AUDIO
    INDEX 00 00:00:00
    INDEX 01 00:01:73
FILE "dump_221222_134915_devsg1 (Track 06).bin" BINARY
  TRACK 06 AUDIO
    INDEX 00 00:00:00
    INDEX 01 00:01:74
FILE "dump_221222_134915_devsg1 (Track 07).bin" BINARY
  TRACK 07 AUDIO
    INDEX 00 00:00:00
    INDEX 01 00:01:74
FILE "dump_221222_134915_devsg1 (Track 08).bin" BINARY
  TRACK 08 AUDIO
    INDEX 00 00:00:00
    INDEX 01 00:01:74
FILE "dump_221222_134915_devsg1 (Track 09).bin" BINARY
  TRACK 09 AUDIO
    INDEX 00 00:00:00
    INDEX 01 00:01:74
FILE "dump_221222_134915_devsg1 (Track 10).bin" BINARY
  TRACK 10 AUDIO
    INDEX 00 00:00:00
    INDEX 01 00:01:74
FILE "dump_221222_134915_devsg1 (Track 11).bin" BINARY
  TRACK 11 AUDIO
    INDEX 00 00:00:00
    INDEX 01 00:01:74
FILE "dump_221222_134915_devsg1 (Track 12).bin" BINARY
  TRACK 12 AUDIO
    INDEX 00 00:00:00
    INDEX 01 00:01:74
FILE "dump_221222_134915_devsg1 (Track 13).bin" BINARY
  TRACK 13 AUDIO
    INDEX 00 00:00:00
    INDEX 01 00:01:74
FILE "dump_221222_134915_devsg1 (Track 14).bin" BINARY
  TRACK 14 AUDIO
    INDEX 00 00:00:00
    INDEX 01 00:01:74
FILE "dump_221222_134915_devsg1 (Track 15).bin" BINARY
  TRACK 15 AUDIO
    INDEX 00 00:00:00
    INDEX 01 00:01:74
FILE "dump_221222_134915_devsg1 (Track 16).bin" BINARY
  TRACK 16 AUDIO
    INDEX 00 00:00:00
    INDEX 01 00:01:74
FILE "dump_221222_134915_devsg1 (Track 17).bin" BINARY
  TRACK 17 AUDIO
    INDEX 00 00:00:00
    INDEX 01 00:01:74
FILE "dump_221222_134915_devsg1 (Track 18).bin" BINARY
  TRACK 18 AUDIO
    INDEX 00 00:00:00
    INDEX 01 00:01:73
FILE "dump_221222_134915_devsg1 (Track 19).bin" BINARY
  TRACK 19 AUDIO
    INDEX 00 00:00:00
    INDEX 01 00:01:74
FILE "dump_221222_134915_devsg1 (Track 20).bin" BINARY
  TRACK 20 AUDIO
    INDEX 00 00:00:00
    INDEX 01 00:01:74
FILE "dump_221222_134915_devsg1 (Track 21).bin" BINARY
  TRACK 21 AUDIO
    INDEX 00 00:00:00
    INDEX 01 00:01:74
FILE "dump_221222_134915_devsg1 (Track 22).bin" BINARY
  TRACK 22 AUDIO
    INDEX 00 00:00:00
    INDEX 01 00:01:74
FILE "dump_221222_134915_devsg1 (Track 23).bin" BINARY
  TRACK 23 AUDIO
    INDEX 00 00:00:00
    INDEX 01 00:01:74
FILE "dump_221222_134915_devsg1 (Track 24).bin" BINARY
  TRACK 24 AUDIO
    INDEX 00 00:00:00
    INDEX 01 00:01:74
FILE "dump_221222_134915_devsg1 (Track 25).bin" BINARY
  TRACK 25 AUDIO
    INDEX 00 00:00:00
    INDEX 01 00:01:74
FILE "dump_221222_134915_devsg1 (Track 26).bin" BINARY
  TRACK 26 AUDIO
    INDEX 00 00:00:00
    INDEX 01 00:01:74
FILE "dump_221222_134915_devsg1 (Track 27).bin" BINARY
  TRACK 27 AUDIO
    INDEX 00 00:00:00
    INDEX 01 00:01:74

    Write Offset: +222

Dumping Info:
    Dumping Program: Redumper

Dumped with both redumper and DIC on an LG UH12NS240 flashed with Ribshark's firmware. Redumper and DIC logs attatched to post.

Common Disc Info:
    Title: MechWarrior 2: 31st Century Combat
    Foreign Title (Non-latin): (OPTIONAL)
    Disc Number / Letter: (OPTIONAL)
    Disc Title: (OPTIONAL)
    System: IBM PC compatible
    Media Type: CD-ROM
    Category: Games
    Region: Netherlands
    Languages: English
    Disc Serial: MWR844AT-CD

    Ringcode Information:
        Data Side Mastering Code (laser branded/etched): ■ Sono press ROMM X-2490/ D0183 B ■
        Data Side Mastering SID Code: (REQUIRED, IF EXISTS)
        Data Side Toolstamp or Mastering Code (engraved/stamped): (REQUIRED, IF EXISTS)
        Data Side Mould SID Code: IFPI 0767
        Data Side Additional Mould: (REQUIRED, IF EXISTS)
        Label Side Mould SID Code: (REQUIRED, IF EXISTS)
    Barcode: 9  789054 322870
    Error Count: 0
    Comments: Serial on back next to barcode:
MSTR D01083
MWR8AT-BI
              ISBN: 90-5432-287-X
    Contents: (OPTIONAL)

Version and Editions:
    Version: (REQUIRED, IF EXISTS)
    Edition/Release: Softkey

Extras:
    Primary Volume Descriptor (PVD):

0320 : 20 20 20 20 20 20 20 20  20 20 20 20 20 30 30 30                000
0330 : 30 30 30 30 30 30 30 30  30 30 30 30 30 00 30 30   0000000000000.00
0340 : 30 30 30 30 30 30 30 30  30 30 30 30 30 30 00 30   00000000000000.0
0350 : 30 30 30 30 30 30 30 30  30 30 30 30 30 30 30 00   000000000000000.
0360 : 30 30 30 30 30 30 30 30  30 30 30 30 30 30 30 30   0000000000000000
0370 : 00 01 00 00 00 00 00 00  00 00 00 00 00 00 00 00   ................

Copy Protection:
    Copy Protection: None

Tracks and Write Offsets:
    DAT:

<rom name="dump_221220_232905_devsg0 (Track 01).bin" size="214163712" crc="a44aa901" md5="407df36684392642cb6e740240a26f8f" sha1="2ae7bfdb92e248b39e15d25deb4117bf34048e1e" />
<rom name="dump_221220_232905_devsg0 (Track 02).bin" size="24663072" crc="29f4d34c" md5="f777f5a0ee25fe1a7a219aa08ed3b294" sha1="e7e6ed8a23e09a7beea2bc1be22033b7d6a08556" />
<rom name="dump_221220_232905_devsg0 (Track 03).bin" size="18524352" crc="1810a4f4" md5="1b11edbfc7b700f848d7d7596e40bce3" sha1="e3d21f7d7b9650b16dfc84f9b8e2bb817797d129" />
<rom name="dump_221220_232905_devsg0 (Track 04).bin" size="20290704" crc="944f4487" md5="c9edf54597aa07ca8e7f15705014b9ad" sha1="bb68a72de1f40c3525515a181fda6acc70245577" />
<rom name="dump_221220_232905_devsg0 (Track 05).bin" size="18265632" crc="20326c4b" md5="3e3426399d93838f18c1a51f5a94271a" sha1="6d9dcd4283b98a688857583509b625104ab63cd4" />
<rom name="dump_221220_232905_devsg0 (Track 06).bin" size="24881808" crc="8f525fc5" md5="fee6d0e6d4a49486c7de9e322af0ed17" sha1="e9ddf1f615a674eafb8ec7cbca64af3a8ba174ab" />
<rom name="dump_221220_232905_devsg0 (Track 07).bin" size="19380480" crc="753bde4e" md5="7845d4ac78fd457e95b8fd3328eb1a32" sha1="ad8f755944d3c25f8f4d24832c2a37d498e2dc32" />
<rom name="dump_221220_232905_devsg0 (Track 08).bin" size="23665824" crc="8ff3b2d7" md5="78258f8d2914dd6dab5174bec3f86d27" sha1="768af0e79259f553fbcee5e17493d59c9876b2eb" />
<rom name="dump_221220_232905_devsg0 (Track 09).bin" size="18524352" crc="e9663b42" md5="85feaf09fcb8ff3d672f363188de5d45" sha1="973b1e38f4d1da7f2d661d58d10b7cea8d4581e7" />
<rom name="dump_221220_232905_devsg0 (Track 10).bin" size="24068016" crc="3d337720" md5="1493498d84854a79cf7b59fb8336e3b3" sha1="c14910d61aac0d44e4d4896f001f312e4115d432" />
<rom name="dump_221220_232905_devsg0 (Track 11).bin" size="19380480" crc="e77a12b6" md5="b238e04ee62689f4fa38ad5131a75ec8" sha1="f2601e801595a83a90bf9edd2158a3607c7d74d9" />
<rom name="dump_221220_232905_devsg0 (Track 12).bin" size="23903376" crc="d6660e5d" md5="453d1463185d085d0f075ac4ff29159d" sha1="f1b27e5ebe07ee9ea4856e33b028dc0a0114f0d6" />
<rom name="dump_221220_232905_devsg0 (Track 13).bin" size="23985696" crc="e3a18b60" md5="33258ff65aca1b6deccd26881b416ccb" sha1="92ef656b13f44ed1c4958b46f001f033d355227d" />
<rom name="dump_221220_232905_devsg0 (Track 14).bin" size="26055456" crc="867e9eec" md5="71e653bfd26214e37a67511338d4f918" sha1="a4f6386e331d95416f612cf365fdfe64f202037d" />
<rom name="dump_221220_232905_devsg0 (Track 15).bin" size="24672480" crc="06697cf3" md5="bcec35ef6c7b44cb5a83b05e2451af75" sha1="44ef596958ac09f28fa9a2b4a43d830796ad0286" />
<rom name="dump_221220_232905_devsg0 (Track 16).bin" size="22339296" crc="50d908e5" md5="0bba97b5e31ffc6bcafa2f221a3675c7" sha1="7a1128222ee1f40a9332dd95312b1afa41c0ecc4" />
<rom name="dump_221220_232905_devsg0 (Track 17).bin" size="18265632" crc="968da96c" md5="d59e2b1e38c82fb3b4d8ae2eab6e2940" sha1="4126cb73cfc80bc1ef03acf94b72d1f378901ee4" />
<rom name="dump_221220_232905_devsg0 (Track 18).bin" size="21497280" crc="d16896a5" md5="10a7eab4b920b9e65cfa0eb393ff8031" sha1="d545def5534dd8c2856ae493c76b66a9a7da6fcc" />
<rom name="dump_221220_232905_devsg0 (Track 19).bin" size="28249872" crc="1b3b9fac" md5="b438ea5d277c7ad27be0d78e5799e61e" sha1="961de7cece3c6e49b834cd177beb3940548fca7c" />
<rom name="dump_221220_232905_devsg0 (Track 20).bin" size="24752448" crc="61083abc" md5="95e98b8d3b356f7ffba70e13931e4ffc" sha1="2988ed2eb48b698ba14095a31aa9d588ee6a686d" />
<rom name="dump_221220_232905_devsg0 (Track 21).bin" size="22790880" crc="c02789b8" md5="d6e98c60bda18ced15a9ebbde4337f85" sha1="db6a5ed4686b55fca7eb395644cbef9e3893dd7c" />
<rom name="dump_221220_232905_devsg0 (Track 22).bin" size="22475712" crc="5e30dac5" md5="519301834cffbab8f7642fbe1a478a22" sha1="8acd27e1d053eec3fd652704e51d4d7d15781bd4" />
<rom name="dump_221220_232905_devsg0 (Track 23).bin" size="20963376" crc="819cbcb9" md5="fe1fe89923f695e8e64f5e7f8a042d19" sha1="3ce049a2acf76008bdf6c1357773c1226b0939ec" />
<rom name="dump_221220_232905_devsg0 (Track 24).bin" size="32330592" crc="22e99a25" md5="1a61df8fcc3a90fa4b200e3084895822" sha1="74b0a2e7840a06e29e9f5ad7db0ae2cdd8ec2ef6" />
<rom name="dump_221220_232905_devsg0 (Track 25).bin" size="22783824" crc="e851918b" md5="8072110d0c9363877c4fd5d6412f9806" sha1="00a7ef500b2827f5099416c1fa111d67f7a818ae" />
<rom name="dump_221220_232905_devsg0 (Track 26).bin" size="21163296" crc="21b81d8e" md5="4f8d76e33e95a452eb7691e66d0f1385" sha1="c87b4bbbeb484217e79888b2a790965d2a6de285" />
<rom name="dump_221220_232905_devsg0 (Track 27).bin" size="969024" crc="ed4630da" md5="3b966e3455df01433f5b2fb46c0809c6" sha1="fa3f252315702e53ab16c1c25c795e6dec3e761d" />

    Cuesheet:

FILE "dump_221220_232905_devsg0 (Track 01).bin" BINARY
  TRACK 01 MODE1/2352
    INDEX 01 00:00:00
FILE "dump_221220_232905_devsg0 (Track 02).bin" BINARY
  TRACK 02 AUDIO
    INDEX 00 00:00:00
    INDEX 01 00:02:00
FILE "dump_221220_232905_devsg0 (Track 03).bin" BINARY
  TRACK 03 AUDIO
    INDEX 01 00:00:00
FILE "dump_221220_232905_devsg0 (Track 04).bin" BINARY
  TRACK 04 AUDIO
    INDEX 01 00:00:00
FILE "dump_221220_232905_devsg0 (Track 05).bin" BINARY
  TRACK 05 AUDIO
    INDEX 01 00:00:00
FILE "dump_221220_232905_devsg0 (Track 06).bin" BINARY
  TRACK 06 AUDIO
    INDEX 01 00:00:00
FILE "dump_221220_232905_devsg0 (Track 07).bin" BINARY
  TRACK 07 AUDIO
    INDEX 01 00:00:00
FILE "dump_221220_232905_devsg0 (Track 08).bin" BINARY
  TRACK 08 AUDIO
    INDEX 01 00:00:00
FILE "dump_221220_232905_devsg0 (Track 09).bin" BINARY
  TRACK 09 AUDIO
    INDEX 01 00:00:00
FILE "dump_221220_232905_devsg0 (Track 10).bin" BINARY
  TRACK 10 AUDIO
    INDEX 01 00:00:00
FILE "dump_221220_232905_devsg0 (Track 11).bin" BINARY
  TRACK 11 AUDIO
    INDEX 01 00:00:00
FILE "dump_221220_232905_devsg0 (Track 12).bin" BINARY
  TRACK 12 AUDIO
    INDEX 01 00:00:00
FILE "dump_221220_232905_devsg0 (Track 13).bin" BINARY
  TRACK 13 AUDIO
    INDEX 01 00:00:00
FILE "dump_221220_232905_devsg0 (Track 14).bin" BINARY
  TRACK 14 AUDIO
    INDEX 01 00:00:00
FILE "dump_221220_232905_devsg0 (Track 15).bin" BINARY
  TRACK 15 AUDIO
    INDEX 01 00:00:00
FILE "dump_221220_232905_devsg0 (Track 16).bin" BINARY
  TRACK 16 AUDIO
    INDEX 01 00:00:00
FILE "dump_221220_232905_devsg0 (Track 17).bin" BINARY
  TRACK 17 AUDIO
    INDEX 01 00:00:00
FILE "dump_221220_232905_devsg0 (Track 18).bin" BINARY
  TRACK 18 AUDIO
    INDEX 01 00:00:00
FILE "dump_221220_232905_devsg0 (Track 19).bin" BINARY
  TRACK 19 AUDIO
    INDEX 01 00:00:00
FILE "dump_221220_232905_devsg0 (Track 20).bin" BINARY
  TRACK 20 AUDIO
    INDEX 01 00:00:00
FILE "dump_221220_232905_devsg0 (Track 21).bin" BINARY
  TRACK 21 AUDIO
    INDEX 01 00:00:00
FILE "dump_221220_232905_devsg0 (Track 22).bin" BINARY
  TRACK 22 AUDIO
    INDEX 01 00:00:00
FILE "dump_221220_232905_devsg0 (Track 23).bin" BINARY
  TRACK 23 AUDIO
    INDEX 01 00:00:00
FILE "dump_221220_232905_devsg0 (Track 24).bin" BINARY
  TRACK 24 AUDIO
    INDEX 01 00:00:00
FILE "dump_221220_232905_devsg0 (Track 25).bin" BINARY
  TRACK 25 AUDIO
    INDEX 01 00:00:00
FILE "dump_221220_232905_devsg0 (Track 26).bin" BINARY
  TRACK 26 AUDIO
    INDEX 01 00:00:00
FILE "dump_221220_232905_devsg0 (Track 27).bin" BINARY
  TRACK 27 AUDIO
    INDEX 01 00:00:00

    Write Offset: -12

Dumping Info:
    Dumping Program: Redumper

Dumped with both redumper and DIC on an LG UH12NS240 flashed with Ribshark's firmware. Apparently a verdict was reached that audio tracks of any kind aren't accepted on ASUS/LG even if the first track is data, so if that's still true then this must be discarded until the verdict is changed; otherwise, it should presumably be accepted as normal. Redumper logs attatched to post, DIC logs linked below. Yes, the disc lacks both a mastering and mould SID.

Common Disc Info:
    Title: Mechwarrior 2: Mercenaries
    Foreign Title (Non-latin): (OPTIONAL)
    Disc Number / Letter: (OPTIONAL)
    Disc Title: (OPTIONAL)
    System: IBM PC compatible
    Media Type: CD-ROM
    Category: Games
    Region: USA
    Languages: English
    Disc Serial: 1000211.101.US

    Ringcode Information:
        Data Side Mastering Code (laser branded/etched): B3743  RF109455    R72 
        Data Side Mastering SID Code: (REQUIRED, IF EXISTS)
        Data Side Toolstamp or Mastering Code (engraved/stamped): *M1 S2
        Data Side Mould SID Code: (REQUIRED, IF EXISTS)
        Data Side Additional Mould: (REQUIRED, IF EXISTS)
        Label Side Mould SID Code: (REQUIRED, IF EXISTS)
    Barcode: (OPTIONAL)
    Error Count: 0
    Comments: Offered only with Techmedia's 3DZoneMaster Ultrasonic Positioning Devices.
    Contents: 
<b>Videos</b>
Hyper Blade
Interstate '76
Time Commando

Ad (image) for Mechwarrior 2, Mechwarrior 2: Ghost Bear's Legacy, and Netmech
Ad/Teaser image for upcoming "Project X" to be unveiled in Fall 1997

Version and Editions:
    Version: (REQUIRED, IF EXISTS)
    Edition/Release: Bundle Version Techmedia OEM

Extras:
    Primary Volume Descriptor (PVD):

0320 : 20 20 20 20 20 20 20 20  20 20 20 20 20 30 30 30                000
0330 : 30 30 30 30 30 30 30 30  30 30 30 30 30 00 30 30   0000000000000.00
0340 : 30 30 30 30 30 30 30 30  30 30 30 30 30 30 00 30   00000000000000.0
0350 : 30 30 30 30 30 30 30 30  30 30 30 30 30 30 30 00   000000000000000.
0360 : 30 30 30 30 30 30 30 30  30 30 30 30 30 30 30 30   0000000000000000
0370 : 00 01 00 00 00 00 00 00  00 00 00 00 00 00 00 00   ................

Copy Protection:
    Copy Protection: (CHECK WITH PROTECTIONID)

Tracks and Write Offsets:
    DAT:

<rom name="dump_221220_000947_devsg0 (Track 01).bin" size="270216576" crc="19c38a9b" md5="afe9d5af2672574cc6573d3f56e0ae5a" sha1="780529c6da55944e4d9eb326f4f2c75f6eb9114b" />
<rom name="dump_221220_000947_devsg0 (Track 02).bin" size="22158192" crc="6812d394" md5="345877ea6d5b56913fa95d2f216e5a6e" sha1="5e779d66784797408eef81f9c7480ec5da818c5b" />
<rom name="dump_221220_000947_devsg0 (Track 03).bin" size="21817152" crc="e4b74cb1" md5="7a5d218d5bfb361a43e137e2df3b8b82" sha1="e3c1067adeda2cfb8292afd808076fac03f3bd22" />
<rom name="dump_221220_000947_devsg0 (Track 04).bin" size="21800688" crc="3c2386c0" md5="0d4ffe1e2eea1f7fdf356d77e04d8769" sha1="89e3c56ff6397db31abb90c27a751d31f5242847" />
<rom name="dump_221220_000947_devsg0 (Track 05).bin" size="22979040" crc="b50098d3" md5="63491a96cc78b0f5819631f5c1921667" sha1="fc95dee0eab14d140f9c4197399a84002718448a" />
<rom name="dump_221220_000947_devsg0 (Track 06).bin" size="22894368" crc="39058c4d" md5="830d5ff4dcee650026aee66205d73c07" sha1="153da9eeb9f3f5bfe228f16ea9f1bd31637a7800" />
<rom name="dump_221220_000947_devsg0 (Track 07).bin" size="22971984" crc="9e644550" md5="2f8675e1967ec3694a6b9e8aab4a0716" sha1="9a342f4cc8d2dcc9eeed2dca3bc1bee2cc15f1c4" />
<rom name="dump_221220_000947_devsg0 (Track 08).bin" size="21379680" crc="16f64fbd" md5="8111d8c8f09c3c5bae6f45807d8f7d04" sha1="3a42b398d81fc41b598bbb9fb8cd605c055c288f" />
<rom name="dump_221220_000947_devsg0 (Track 09).bin" size="21803040" crc="115f7839" md5="e84cdd8a2396fa7e5fd2a13b1e8ae50b" sha1="c1a8c61fa1d332ab530fddd649392a5e9c1f90da" />
<rom name="dump_221220_000947_devsg0 (Track 10).bin" size="23254224" crc="d4797549" md5="4ccea858da167d51822f27a9f20487ba" sha1="bb3bca3f2b166c64426fabba09994d0546b341dd" />
<rom name="dump_221220_000947_devsg0 (Track 11).bin" size="21828912" crc="6f9d3aa4" md5="44af1bfe22abcf79d103ebd89abc6018" sha1="9832f5c5f42889ac3a934d7a3e669385dfe789dc" />
<rom name="dump_221220_000947_devsg0 (Track 12).bin" size="21821856" crc="7a41d6e4" md5="6b2c3a5690721bdfc3f4e8a7d05f9f49" sha1="4a8b848e704d6f1ff6dc55ecd191efc90c235c70" />
<rom name="dump_221220_000947_devsg0 (Track 13).bin" size="21901824" crc="3208d56a" md5="17f870d7a7b4f5497319b0f085d51e78" sha1="dd117a052277f42b2226202c1826b4a1c6f133e9" />
<rom name="dump_221220_000947_devsg0 (Track 14).bin" size="22934352" crc="1c0226a6" md5="1d8f132d331e6ce5be312d3cad5c5738" sha1="aeb3a58fc76159a222f9f48db98dbe2858f18742" />
<rom name="dump_221220_000947_devsg0 (Track 15).bin" size="22567440" crc="88b4f29a" md5="dc4395899d906630c8835ca295447559" sha1="f2395e78c38bc42d56872a91de649b1ba5101186" />
<rom name="dump_221220_000947_devsg0 (Track 16).bin" size="21643104" crc="e2a972ab" md5="6b4687b432f3e0b70b560dd8beb96899" sha1="c47aec9ca3b4a6cb7d445b3e4aa7dbb70c23b199" />
<rom name="dump_221220_000947_devsg0 (Track 17).bin" size="21619584" crc="caca528a" md5="771e21efa68deb1101d4ce992e2f612e" sha1="046a10adb3ae352339b87515ebed73f127feaba4" />
<rom name="dump_221220_000947_devsg0 (Track 18).bin" size="20695248" crc="fc9bd131" md5="84963df56a9b2561e3bf8ef50a5264da" sha1="4c8cb84cf7b71711ce31e6d1c14a477ae818dce4" />
<rom name="dump_221220_000947_devsg0 (Track 19).bin" size="22247568" crc="f2592422" md5="581771dbdde36a462655f9d09e2f2cdd" sha1="3a7a1b58e9dbaa9aceab210e3170b626a73e29e7" />
<rom name="dump_221220_000947_devsg0 (Track 20).bin" size="45301872" crc="03bdddc2" md5="159215a54eb2b8f7b6735727196e4ad6" sha1="632ae1af8523525129f5e82b24efa9bbe6866b9e" />
<rom name="dump_221220_000947_devsg0 (Track 21).bin" size="15017520" crc="892bb66b" md5="993152cd45e098728a38d7f9bccc66ae" sha1="75919f65acc3b1d40f999cf980af4542cf291809" />
<rom name="dump_221220_000947_devsg0 (Track 22).bin" size="18312672" crc="d96985d0" md5="73458ef414d8153b03f15fc2d6e203e2" sha1="4a67d5aa28a204d0752320891a695d1d681eea50" />

    Cuesheet:

CATALOG 0000000000000
FILE "dump_221220_000947_devsg0 (Track 01).bin" BINARY
  TRACK 01 MODE1/2352
    INDEX 01 00:00:00
FILE "dump_221220_000947_devsg0 (Track 02).bin" BINARY
  TRACK 02 AUDIO
    INDEX 00 00:00:00
    INDEX 01 00:01:00
FILE "dump_221220_000947_devsg0 (Track 03).bin" BINARY
  TRACK 03 AUDIO
    INDEX 01 00:00:00
FILE "dump_221220_000947_devsg0 (Track 04).bin" BINARY
  TRACK 04 AUDIO
    INDEX 01 00:00:00
FILE "dump_221220_000947_devsg0 (Track 05).bin" BINARY
  TRACK 05 AUDIO
    INDEX 01 00:00:00
FILE "dump_221220_000947_devsg0 (Track 06).bin" BINARY
  TRACK 06 AUDIO
    INDEX 01 00:00:00
FILE "dump_221220_000947_devsg0 (Track 07).bin" BINARY
  TRACK 07 AUDIO
    INDEX 01 00:00:00
FILE "dump_221220_000947_devsg0 (Track 08).bin" BINARY
  TRACK 08 AUDIO
    INDEX 01 00:00:00
FILE "dump_221220_000947_devsg0 (Track 09).bin" BINARY
  TRACK 09 AUDIO
    INDEX 01 00:00:00
FILE "dump_221220_000947_devsg0 (Track 10).bin" BINARY
  TRACK 10 AUDIO
    INDEX 01 00:00:00
FILE "dump_221220_000947_devsg0 (Track 11).bin" BINARY
  TRACK 11 AUDIO
    INDEX 01 00:00:00
FILE "dump_221220_000947_devsg0 (Track 12).bin" BINARY
  TRACK 12 AUDIO
    INDEX 01 00:00:00
FILE "dump_221220_000947_devsg0 (Track 13).bin" BINARY
  TRACK 13 AUDIO
    INDEX 01 00:00:00
FILE "dump_221220_000947_devsg0 (Track 14).bin" BINARY
  TRACK 14 AUDIO
    INDEX 01 00:00:00
FILE "dump_221220_000947_devsg0 (Track 15).bin" BINARY
  TRACK 15 AUDIO
    INDEX 01 00:00:00
FILE "dump_221220_000947_devsg0 (Track 16).bin" BINARY
  TRACK 16 AUDIO
    INDEX 01 00:00:00
FILE "dump_221220_000947_devsg0 (Track 17).bin" BINARY
  TRACK 17 AUDIO
    INDEX 01 00:00:00
FILE "dump_221220_000947_devsg0 (Track 18).bin" BINARY
  TRACK 18 AUDIO
    INDEX 01 00:00:00
FILE "dump_221220_000947_devsg0 (Track 19).bin" BINARY
  TRACK 19 AUDIO
    INDEX 01 00:00:00
FILE "dump_221220_000947_devsg0 (Track 20).bin" BINARY
  TRACK 20 AUDIO
    INDEX 01 00:00:00
FILE "dump_221220_000947_devsg0 (Track 21).bin" BINARY
  TRACK 21 AUDIO
    INDEX 01 00:00:00
FILE "dump_221220_000947_devsg0 (Track 22).bin" BINARY
  TRACK 22 AUDIO
    INDEX 01 00:00:00

    Write Offset: 0

Dumping Info:
    Dumping Program: Redumper


DIC logs: https://web.archive.org/web/20221220202 … w2mzone.7z

Matches http://redump.org/disc/12864/

Dumped with an LG UH12NS240 flashed with Ribshark's firmware.

Redumper reports 0 errors because it doesnt count the last sector of track 1 containing audio silence as an error.

Common Disc Info:
    Title: MechWarrior 2: 31st Century Combat
    Foreign Title (Non-latin): (OPTIONAL)
    Disc Number / Letter: (OPTIONAL)
    Disc Title: (OPTIONAL)
    System: IBM PC compatible
    Media Type: CD-ROM
    Category: Games
    Region: Australia
    Languages: English
    Disc Serial: CDD-3502-101-U3

    Ringcode Information:
        Data Side Mastering Code (laser branded/etched): CDD3115 R6H
        Data Side Mastering SID Code: IFPI L238
        Data Side Toolstamp or Mastering Code (engraved/stamped): 5
        Data Side Mould SID Code: IFPI 4111
        Data Side Additional Mould: (REQUIRED, IF EXISTS)
        Label Side Mould SID Code: (REQUIRED, IF EXISTS)
    Barcode: (OPTIONAL)
    Error Count: 0
    Comments: (OPTIONAL)
    Contents: (OPTIONAL)

Version and Editions:
    Version: (REQUIRED, IF EXISTS)
    Edition/Release: Pentium Processor Edition

Extras:
    Primary Volume Descriptor (PVD):

0320 : 20 20 20 20 20 20 20 20  20 20 20 20 20 30 30 30                000
0330 : 30 30 30 30 30 30 30 30  30 30 30 30 30 00 30 30   0000000000000.00
0340 : 30 30 30 30 30 30 30 30  30 30 30 30 30 30 00 30   00000000000000.0
0350 : 30 30 30 30 30 30 30 30  30 30 30 30 30 30 30 00   000000000000000.
0360 : 30 30 30 30 30 30 30 30  30 30 30 30 30 30 30 30   0000000000000000
0370 : 00 01 00 00 00 00 00 00  00 00 00 00 00 00 00 00   ................

Copy Protection:
    Copy Protection: (CHECK WITH PROTECTIONID)

Tracks and Write Offsets:
    DAT:

<rom name="dump_221219_211120_devsg1 (Track 01).bin" size="147557424" crc="0c14a9a3" md5="249c8dbcb1fc4d57c134f73d71dc2692" sha1="b67fdddb32c26500361f70084c45065db1027bf9" />
<rom name="dump_221219_211120_devsg1 (Track 02).bin" size="24310272" crc="7b956d91" md5="50c7c931886cb3425a8a5746e5302575" sha1="2258e0973b1c13ebfdf8efdffa681049829d102a" />
<rom name="dump_221219_211120_devsg1 (Track 03).bin" size="25232256" crc="1f706267" md5="fa6c694e40d973b4a8ff83770815bbee" sha1="848dbf4f65054cd0c66e689a19fff492ee952ad2" />
<rom name="dump_221219_211120_devsg1 (Track 04).bin" size="20293056" crc="e60aa101" md5="21199a7f05096843d8b96b397dd5d1ef" sha1="16d27c32991bbcffcb417ac98a04502340249af6" />
<rom name="dump_221219_211120_devsg1 (Track 05).bin" size="18263280" crc="c6827a9a" md5="f09c755a26980f16804c5808a8c62528" sha1="e9813975f2f38076d875c1dc5a80fa32ef9e704f" />
<rom name="dump_221219_211120_devsg1 (Track 06).bin" size="24881808" crc="e3999a4f" md5="ab1823c381d6496b9649359c60c86f23" sha1="754fdc4aee90d0ad82ccc43c8b10ad05cf4c22c0" />
<rom name="dump_221219_211120_devsg1 (Track 07).bin" size="19380480" crc="084c7da2" md5="cb47eedb5923adefff18bf558ce2e1cf" sha1="fd6ea776b5189917dae77c7403ae13983f5e7698" />
<rom name="dump_221219_211120_devsg1 (Track 08).bin" size="23665824" crc="ff031bfa" md5="077596fc2457c454b4f7eff1d7506f0e" sha1="354b180c68eca334b051d1424140ddce95260cd2" />
<rom name="dump_221219_211120_devsg1 (Track 09).bin" size="18524352" crc="8ab4a7df" md5="88263e9c57e0184f9cea23baf0653a56" sha1="3586357ec80322b7ad03befd1a8023a19c4a9f16" />
<rom name="dump_221219_211120_devsg1 (Track 10).bin" size="24068016" crc="4a85f50d" md5="8e1caa44068db045a911812d6c5fe568" sha1="5372c4f17d3cff2f043cc08e5ba20c13fc8fbbfe" />
<rom name="dump_221219_211120_devsg1 (Track 11).bin" size="25930800" crc="20563503" md5="4bb8b4289b96e90a8e5085e0e9aa81ec" sha1="9d10183e5066d4a637cb9508d6a90d87982df6ca" />
<rom name="dump_221219_211120_devsg1 (Track 12).bin" size="23903376" crc="448b80bb" md5="17b58eb1fe375871e933af7705b1ae6d" sha1="b32a5c7da5c3db1b47dbca0b4065ab2eb302d384" />
<rom name="dump_221219_211120_devsg1 (Track 13).bin" size="23985696" crc="a0427076" md5="3a37ec5db8243726a3551b7a738a370d" sha1="c0ddb88951fc913b26becdb4c5a76fe36883eb1a" />
<rom name="dump_221219_211120_devsg1 (Track 14).bin" size="26055456" crc="17e4a6aa" md5="56d1f81fda4cede99d3563ef610f69b9" sha1="f8c85ce6bc3b638f0358ae8e4e62eb19008193fc" />
<rom name="dump_221219_211120_devsg1 (Track 15).bin" size="24672480" crc="349a0649" md5="f357615bfcb31913cca7341b4ff447e1" sha1="e7fa405a6b7e6416c6ef4670073ea5f6875bb879" />
<rom name="dump_221219_211120_devsg1 (Track 16).bin" size="22339296" crc="86441203" md5="c0ac96cf14884841e68d6c9fa47e5775" sha1="5479495bcc846412fb65cbeceb4aab0be6c8dc23" />
<rom name="dump_221219_211120_devsg1 (Track 17).bin" size="33553632" crc="8227c40a" md5="556cc3e1683d07e142f106ee0bedb155" sha1="8a9a8f52c9c9ac493cd617c4cf31627e9b4e2159" />
<rom name="dump_221219_211120_devsg1 (Track 18).bin" size="21494928" crc="5ed2011a" md5="5eebd518a9c67da376929a7f4f508e97" sha1="67d7ee8abae8d838a2fa8a13225190aaeb5d499a" />
<rom name="dump_221219_211120_devsg1 (Track 19).bin" size="28249872" crc="253f819a" md5="8e6a589992e2bb819479fa52ba0cc376" sha1="9dbf983de6deed68eeaec3c19085ca08fb512bfd" />
<rom name="dump_221219_211120_devsg1 (Track 20).bin" size="24752448" crc="672f7aa4" md5="84e9dbe303f2e7355c4b74fdce8e4370" sha1="225da680c17f6c01d83bb3cba8ad1911ed5b6bad" />
<rom name="dump_221219_211120_devsg1 (Track 21).bin" size="22790880" crc="2d23062d" md5="45a1ad8bbb0ef02b8349bdcf18667c38" sha1="e45c48615093cc6c3bdbc2bcad923b387643876a" />
<rom name="dump_221219_211120_devsg1 (Track 22).bin" size="22475712" crc="76ea8800" md5="5a806cb45de0ba39470538f2263285b6" sha1="d292e3b675ab06fc4b0953b6c61324ce65ad6121" />
<rom name="dump_221219_211120_devsg1 (Track 23).bin" size="20963376" crc="f4da8469" md5="e9be19b50f8b5974bba61b5f9a3eceba" sha1="99d277d65851316577e3847c38c2ae9183a0f05d" />
<rom name="dump_221219_211120_devsg1 (Track 24).bin" size="32330592" crc="e38b6f8a" md5="c807fb61db77177d24f64c4ae71931e1" sha1="68649846cada7d2f04c6f2839ef2300ffb9327b5" />
<rom name="dump_221219_211120_devsg1 (Track 25).bin" size="22783824" crc="dc8a1532" md5="7166801ed2c0207e23d962e590d06773" sha1="2d3361f6135ce3cdaaed89f7a5a34f71f7a70a26" />
<rom name="dump_221219_211120_devsg1 (Track 26).bin" size="21163296" crc="c08c1b34" md5="200245eb4b60ca49ccd61d6ebfb6d55b" sha1="46569a66c2df95702947137b9f47e67722d815fe" />
<rom name="dump_221219_211120_devsg1 (Track 27).bin" size="1319472" crc="2e841ae6" md5="752289f8dacaa6e318c644abc299d318" sha1="abf11ad863ce9b4b96d0cb44cf1c498fe56c1414" />

    Cuesheet:

CATALOG 0000000000000
FILE "dump_221219_211120_devsg1 (Track 01).bin" BINARY
  TRACK 01 MODE1/2352
    INDEX 01 00:00:00
FILE "dump_221219_211120_devsg1 (Track 02).bin" BINARY
  TRACK 02 AUDIO
    INDEX 00 00:00:00
    INDEX 01 00:01:74
FILE "dump_221219_211120_devsg1 (Track 03).bin" BINARY
  TRACK 03 AUDIO
    INDEX 00 00:00:00
    INDEX 01 00:01:74
FILE "dump_221219_211120_devsg1 (Track 04).bin" BINARY
  TRACK 04 AUDIO
    INDEX 00 00:00:00
    INDEX 01 00:01:74
FILE "dump_221219_211120_devsg1 (Track 05).bin" BINARY
  TRACK 05 AUDIO
    INDEX 00 00:00:00
    INDEX 01 00:01:73
FILE "dump_221219_211120_devsg1 (Track 06).bin" BINARY
  TRACK 06 AUDIO
    INDEX 00 00:00:00
    INDEX 01 00:01:74
FILE "dump_221219_211120_devsg1 (Track 07).bin" BINARY
  TRACK 07 AUDIO
    INDEX 00 00:00:00
    INDEX 01 00:01:74
FILE "dump_221219_211120_devsg1 (Track 08).bin" BINARY
  TRACK 08 AUDIO
    INDEX 00 00:00:00
    INDEX 01 00:01:74
FILE "dump_221219_211120_devsg1 (Track 09).bin" BINARY
  TRACK 09 AUDIO
    INDEX 00 00:00:00
    INDEX 01 00:01:74
FILE "dump_221219_211120_devsg1 (Track 10).bin" BINARY
  TRACK 10 AUDIO
    INDEX 00 00:00:00
    INDEX 01 00:01:74
FILE "dump_221219_211120_devsg1 (Track 11).bin" BINARY
  TRACK 11 AUDIO
    INDEX 00 00:00:00
    INDEX 01 00:01:74
FILE "dump_221219_211120_devsg1 (Track 12).bin" BINARY
  TRACK 12 AUDIO
    INDEX 00 00:00:00
    INDEX 01 00:01:74
FILE "dump_221219_211120_devsg1 (Track 13).bin" BINARY
  TRACK 13 AUDIO
    INDEX 00 00:00:00
    INDEX 01 00:01:74
FILE "dump_221219_211120_devsg1 (Track 14).bin" BINARY
  TRACK 14 AUDIO
    INDEX 00 00:00:00
    INDEX 01 00:01:74
FILE "dump_221219_211120_devsg1 (Track 15).bin" BINARY
  TRACK 15 AUDIO
    INDEX 00 00:00:00
    INDEX 01 00:01:74
FILE "dump_221219_211120_devsg1 (Track 16).bin" BINARY
  TRACK 16 AUDIO
    INDEX 00 00:00:00
    INDEX 01 00:01:74
FILE "dump_221219_211120_devsg1 (Track 17).bin" BINARY
  TRACK 17 AUDIO
    INDEX 00 00:00:00
    INDEX 01 00:01:74
FILE "dump_221219_211120_devsg1 (Track 18).bin" BINARY
  TRACK 18 AUDIO
    INDEX 00 00:00:00
    INDEX 01 00:01:73
FILE "dump_221219_211120_devsg1 (Track 19).bin" BINARY
  TRACK 19 AUDIO
    INDEX 00 00:00:00
    INDEX 01 00:01:74
FILE "dump_221219_211120_devsg1 (Track 20).bin" BINARY
  TRACK 20 AUDIO
    INDEX 00 00:00:00
    INDEX 01 00:01:74
FILE "dump_221219_211120_devsg1 (Track 21).bin" BINARY
  TRACK 21 AUDIO
    INDEX 00 00:00:00
    INDEX 01 00:01:74
FILE "dump_221219_211120_devsg1 (Track 22).bin" BINARY
  TRACK 22 AUDIO
    INDEX 00 00:00:00
    INDEX 01 00:01:74
FILE "dump_221219_211120_devsg1 (Track 23).bin" BINARY
  TRACK 23 AUDIO
    INDEX 00 00:00:00
    INDEX 01 00:01:74
FILE "dump_221219_211120_devsg1 (Track 24).bin" BINARY
  TRACK 24 AUDIO
    INDEX 00 00:00:00
    INDEX 01 00:01:74
FILE "dump_221219_211120_devsg1 (Track 25).bin" BINARY
  TRACK 25 AUDIO
    INDEX 00 00:00:00
    INDEX 01 00:01:74
FILE "dump_221219_211120_devsg1 (Track 26).bin" BINARY
  TRACK 26 AUDIO
    INDEX 00 00:00:00
    INDEX 01 00:01:74
FILE "dump_221219_211120_devsg1 (Track 27).bin" BINARY
  TRACK 27 AUDIO
    INDEX 00 00:00:00
    INDEX 01 00:01:74

    Write Offset: +222

Dumping Info:
    Dumping Program: Redumper

Logs attatched to post.