http://redump.org/disc/82794/

I understand that the files on the disc label this disc as a beta, but I purchased this myself at retail back when it came out.  I have attached an image with the box and contents.

This definitely came from a retail release of the game.  It seems to me that labeling it Category: Preproduction and Edition: Beta is inaccurate in this case. 

Sony did release an actual Phase 4 beta disc.  The disc looks like this https://archive.org/details/EverQuestUSAPhase4Beta and matches this submission http://redump.org/disc/54994/

http://redump.org/disc/49110/
Logs: https://drive.google.com/file/d/1IC9M78 … sp=sharing

Common Disc Info:
    Title: Quest for Glory V: Dragon Fire
    Foreign Title (Non-latin): 
    Disc Number / Letter: 
    Disc Title: Original Music Soundtrack & Interactive Sneak Preview
    System: IBM PC Compatible
    Media Type: CD-ROM
    Category: Demos
    Matching IDs: 49110
    Region: USA
    Languages: English
    Disc Serial: 

    Ringcode Information:
        Data Side Mastering Code (laser branded/etched): NIMBUS    W7032610    :·
        Data Side Mastering SID Code: IFPI L126
        Data Side Toolstamp or Mastering Code (engraved/stamped): 
        Data Side Mould SID Code: IFPI 8006
        Data Side Additional Mould: 
        Label Side Mould SID Code: 
        Label Side Additional Mould: 
    Barcode: 0 20626 70326 0
    Error Count: 4502
    Comments: Multisession
Session 1: 0-217445
Session 2: 228846-319073

    Contents: [+]Quest for Glory V: Dragon Fire Sneak Peek (PC/Mac Hybrid)

Version and Editions:
    Version: 
    Edition/Release: Collection Series

Extras:
    Primary Volume Descriptor (PVD):

0320 : 20 20 20 20 20 20 20 20  20 20 20 20 20 31 39 39                199
0330 : 37 31 32 31 38 31 38 31  32 30 30 30 30 00 31 39   7121818120000.19
0340 : 39 37 31 32 31 39 31 35  32 38 30 33 30 30 00 00   97121915280300..
0350 : 00 00 00 00 00 00 00 00  00 00 00 00 00 00 00 00   ................
0360 : 00 00 00 00 00 00 00 00  00 00 00 00 00 00 00 00   ................
0370 : 00 01 00 00 00 00 00 00  00 00 00 00 00 00 00 00   ................

Copy Protection:
    Copy Protection: Executable-Based Online Registration 2.0.0

Tracks and Write Offsets:
    DAT:

<rom name="Quest for Glory V - Dragon Fire (USA) (Original Music Soundtrack &amp; Interactive Sneak Preview) (Track 01).bin" size="46390848" crc="5f47adf5" md5="f58cf91a0e118a3695022b77d543309e" sha1="cac6ae1f3222f4c8f207dbe9dd20bc1697c0fbe7" />
<rom name="Quest for Glory V - Dragon Fire (USA) (Original Music Soundtrack &amp; Interactive Sneak Preview) (Track 02).bin" size="25025280" crc="30be52c2" md5="d3ee9ec10e1da63057ebd3aad6183f42" sha1="a5c92c0c1ca362b0ffa2bfdfe1a4f4c2132d1a84" />
<rom name="Quest for Glory V - Dragon Fire (USA) (Original Music Soundtrack &amp; Interactive Sneak Preview) (Track 03).bin" size="29675184" crc="aee1179f" md5="b74a3612d6c18068e36a5f14c9bc3a51" sha1="7c69e9fc64dd19d031036f8316436a9b1a9bc231" />
<rom name="Quest for Glory V - Dragon Fire (USA) (Original Music Soundtrack &amp; Interactive Sneak Preview) (Track 04).bin" size="49780080" crc="41a59b27" md5="288300a17410e5cd6a87c4eadd80ac40" sha1="0bad4a2486afdde1e036793fbc71104c6eb848fe" />
<rom name="Quest for Glory V - Dragon Fire (USA) (Original Music Soundtrack &amp; Interactive Sneak Preview) (Track 05).bin" size="25098192" crc="9477a914" md5="290a55501b61a6bd20526da095c28efe" sha1="f2e1cff501a14d64df3f4592bd21bedf7182c728" />
<rom name="Quest for Glory V - Dragon Fire (USA) (Original Music Soundtrack &amp; Interactive Sneak Preview) (Track 06).bin" size="11054400" crc="62662b6f" md5="89b10b07150978a785a059838d5f2adc" sha1="7bc93a8493968a78e5ff05fdff75c4371a344566" />
<rom name="Quest for Glory V - Dragon Fire (USA) (Original Music Soundtrack &amp; Interactive Sneak Preview) (Track 07).bin" size="29541120" crc="c2a415b0" md5="a0fe4c9f17168ddb9a6dfdabb22c8b1a" sha1="0412bbf30bf929556ea188aabc24b2ae54020ffb" />
<rom name="Quest for Glory V - Dragon Fire (USA) (Original Music Soundtrack &amp; Interactive Sneak Preview) (Track 08).bin" size="20523552" crc="c73abacb" md5="96461ec863a1da14749f06dda8766957" sha1="0c0474a5132d525562276307a968cb405d6ad2e8" />
<rom name="Quest for Glory V - Dragon Fire (USA) (Original Music Soundtrack &amp; Interactive Sneak Preview) (Track 09).bin" size="25587408" crc="6f000c41" md5="6d6baf1a7d12995dad063d0f94981513" sha1="b982d054a6fe4c39ec83b8a394f321251d468ce6" />
<rom name="Quest for Glory V - Dragon Fire (USA) (Original Music Soundtrack &amp; Interactive Sneak Preview) (Track 10).bin" size="39475968" crc="2dffa55d" md5="64e451a05ef40abcf263ccbea49bfde7" sha1="28021cc79ca1aec823586166c79a6bd06ed5ea4d" />
<rom name="Quest for Glory V - Dragon Fire (USA) (Original Music Soundtrack &amp; Interactive Sneak Preview) (Track 11).bin" size="25752048" crc="d1a871c6" md5="cfc3d46e53c45065f2b5e5f98448b0fa" sha1="e336dc85f258767be9418833fdaa96541ef31751" />
<rom name="Quest for Glory V - Dragon Fire (USA) (Original Music Soundtrack &amp; Interactive Sneak Preview) (Track 12).bin" size="19902624" crc="9bd4ef28" md5="ba639ba2c8b7cb0e1f0e5aff659ad14f" sha1="1ae68fd1cdabe6e40075190192977ad55c88e80c" />
<rom name="Quest for Glory V - Dragon Fire (USA) (Original Music Soundtrack &amp; Interactive Sneak Preview) (Track 13).bin" size="34233360" crc="6e2b0bd0" md5="6c2ce6d9ce8adf3731b5744dde4f9a6b" sha1="2430ed2b87bd34a67838724b8c3720e4cd6dab36" />
<rom name="Quest for Glory V - Dragon Fire (USA) (Original Music Soundtrack &amp; Interactive Sneak Preview) (Track 14).bin" size="40635504" crc="e4a7068c" md5="56235ed423933716c97efff7d700b96c" sha1="9cfe855c92158109935b3dc824a214844f02605f" />
<rom name="Quest for Glory V - Dragon Fire (USA) (Original Music Soundtrack &amp; Interactive Sneak Preview) (Track 15).bin" size="11908176" crc="8e1c737f" md5="eb6a689ff6ea532e0313457a2a8bf684" sha1="040f5fb3d6ff56b76e34a7aa3bc5babd27c3d36a" />
<rom name="Quest for Glory V - Dragon Fire (USA) (Original Music Soundtrack &amp; Interactive Sneak Preview) (Track 16).bin" size="36453648" crc="15cf8fe6" md5="f8f1c40c8527b40f22633ba1b374399a" sha1="a5f7abf523ce0764cb3b3fe24289058810d7f599" />
<rom name="Quest for Glory V - Dragon Fire (USA) (Original Music Soundtrack &amp; Interactive Sneak Preview) (Track 17).bin" size="25488624" crc="6d09aeba" md5="fa3cb7067a24e5023c7a9c0853967301" sha1="ef3a605ad2a3bd43f19b23f05c347abefb144e97" />
<rom name="Quest for Glory V - Dragon Fire (USA) (Original Music Soundtrack &amp; Interactive Sneak Preview) (Track 18).bin" size="14906976" crc="aa39f95f" md5="66912f66a2d4c6d113e16a70a9595e78" sha1="12228d4c93f38f4a8be242cd4ec13ed12bd3ec94" />
<rom name="Quest for Glory V - Dragon Fire (USA) (Original Music Soundtrack &amp; Interactive Sneak Preview) (Track 19).bin" size="212216256" crc="99f760b2" md5="6b332923f2089c08a4198f51fbbc7a63" sha1="4034a595b3b91bc44f0c285690850d879a53321c" />

    Cuesheet:

REM SESSION 01
FILE "Quest for Glory V - Dragon Fire (USA) (Original Music Soundtrack & Interactive Sneak Preview) (Track 01).bin" BINARY
  TRACK 01 AUDIO
    INDEX 01 00:00:00
FILE "Quest for Glory V - Dragon Fire (USA) (Original Music Soundtrack & Interactive Sneak Preview) (Track 02).bin" BINARY
  TRACK 02 AUDIO
    INDEX 00 00:00:00
    INDEX 01 00:01:33
FILE "Quest for Glory V - Dragon Fire (USA) (Original Music Soundtrack & Interactive Sneak Preview) (Track 03).bin" BINARY
  TRACK 03 AUDIO
    INDEX 00 00:00:00
    INDEX 01 00:02:00
FILE "Quest for Glory V - Dragon Fire (USA) (Original Music Soundtrack & Interactive Sneak Preview) (Track 04).bin" BINARY
  TRACK 04 AUDIO
    INDEX 00 00:00:00
    INDEX 01 00:02:00
FILE "Quest for Glory V - Dragon Fire (USA) (Original Music Soundtrack & Interactive Sneak Preview) (Track 05).bin" BINARY
  TRACK 05 AUDIO
    INDEX 00 00:00:00
    INDEX 01 00:00:01
FILE "Quest for Glory V - Dragon Fire (USA) (Original Music Soundtrack & Interactive Sneak Preview) (Track 06).bin" BINARY
  TRACK 06 AUDIO
    INDEX 00 00:00:00
    INDEX 01 00:03:00
FILE "Quest for Glory V - Dragon Fire (USA) (Original Music Soundtrack & Interactive Sneak Preview) (Track 07).bin" BINARY
  TRACK 07 AUDIO
    INDEX 00 00:00:00
    INDEX 01 00:02:00
FILE "Quest for Glory V - Dragon Fire (USA) (Original Music Soundtrack & Interactive Sneak Preview) (Track 08).bin" BINARY
  TRACK 08 AUDIO
    INDEX 00 00:00:00
    INDEX 01 00:03:00
FILE "Quest for Glory V - Dragon Fire (USA) (Original Music Soundtrack & Interactive Sneak Preview) (Track 09).bin" BINARY
  TRACK 09 AUDIO
    INDEX 00 00:00:00
    INDEX 01 00:02:00
FILE "Quest for Glory V - Dragon Fire (USA) (Original Music Soundtrack & Interactive Sneak Preview) (Track 10).bin" BINARY
  TRACK 10 AUDIO
    INDEX 00 00:00:00
    INDEX 01 00:02:00
FILE "Quest for Glory V - Dragon Fire (USA) (Original Music Soundtrack & Interactive Sneak Preview) (Track 11).bin" BINARY
  TRACK 11 AUDIO
    INDEX 00 00:00:00
    INDEX 01 00:00:02
FILE "Quest for Glory V - Dragon Fire (USA) (Original Music Soundtrack & Interactive Sneak Preview) (Track 12).bin" BINARY
  TRACK 12 AUDIO
    INDEX 00 00:00:00
    INDEX 01 00:02:00
FILE "Quest for Glory V - Dragon Fire (USA) (Original Music Soundtrack & Interactive Sneak Preview) (Track 13).bin" BINARY
  TRACK 13 AUDIO
    INDEX 00 00:00:00
    INDEX 01 00:02:00
FILE "Quest for Glory V - Dragon Fire (USA) (Original Music Soundtrack & Interactive Sneak Preview) (Track 14).bin" BINARY
  TRACK 14 AUDIO
    INDEX 00 00:00:00
    INDEX 01 00:02:00
FILE "Quest for Glory V - Dragon Fire (USA) (Original Music Soundtrack & Interactive Sneak Preview) (Track 15).bin" BINARY
  TRACK 15 AUDIO
    INDEX 00 00:00:00
    INDEX 01 00:01:00
FILE "Quest for Glory V - Dragon Fire (USA) (Original Music Soundtrack & Interactive Sneak Preview) (Track 16).bin" BINARY
  TRACK 16 AUDIO
    INDEX 00 00:00:00
    INDEX 01 00:04:00
FILE "Quest for Glory V - Dragon Fire (USA) (Original Music Soundtrack & Interactive Sneak Preview) (Track 17).bin" BINARY
  TRACK 17 AUDIO
    INDEX 00 00:00:00
    INDEX 01 00:03:00
FILE "Quest for Glory V - Dragon Fire (USA) (Original Music Soundtrack & Interactive Sneak Preview) (Track 18).bin" BINARY
  TRACK 18 AUDIO
    INDEX 00 00:00:00
    INDEX 01 00:00:01
REM LEAD-OUT 01:30:00
REM SESSION 02
REM LEAD-IN 00:00:00
REM PREGAP 50:51:21
FILE "Quest for Glory V - Dragon Fire (USA) (Original Music Soundtrack & Interactive Sneak Preview) (Track 19).bin" BINARY
  TRACK 19 MODE1/2352
    INDEX 01 00:00:00

    Write Offset: 0

http://redump.org/disc/2904/
Logs: https://drive.google.com/file/d/18mNU4e … sp=sharing

Common Disc Info:
    Title: Druid: Daemons of the Mind
    Foreign Title (Non-latin): 
    Disc Number / Letter: 
    Disc Title: 
    System: IBM PC Compatible
    Media Type: CD-ROM
    Category: Games
    Matching IDs: 2904
    Region: USA
    Languages: English
    Disc Serial: 

    Ringcode Information:
        Data Side Mastering Code (laser branded/etched): CD-ROM DADR    0LHM3<1618>DRUID
        Data Side Mastering SID Code: 
        Data Side Toolstamp or Mastering Code (engraved/stamped): 
        Data Side Mould SID Code: IFPI 8127
        Data Side Additional Mould: 
        Label Side Mould SID Code: 
        Label Side Additional Mould: 
    Barcode: 
    Error Count: 0
    Comments: [T:ISBN]: 0-926846-81-7
    Contents: [+]<b>Extras</b>:
Jagged Alliance Demo
Realms of Arkania: Star Trail Demo
Realms of Arkania: Shadows over Riva Demo
Wizardry Gold Demo

Version and Editions:
    Version: 1.0
    Edition/Release: Original

Extras:
    Primary Volume Descriptor (PVD):

0320 : 20 20 20 20 20 20 20 20  20 20 20 20 20 31 39 39                199
0330 : 35 31 30 32 37 31 32 33  34 34 38 30 30 30 31 39   5102712344800019
0340 : 39 35 31 30 32 37 31 32  33 34 34 38 30 30 30 31   9510271234480001
0350 : 39 39 35 31 30 32 37 31  32 33 34 34 38 30 30 30   9951027123448000
0360 : 31 39 39 35 31 30 32 37  31 32 33 34 34 38 30 30   1995102712344800
0370 : 30 01 00 00 00 00 00 00  00 00 00 00 00 00 00 00   0...............

Copy Protection:
    Copy Protection: None found

Tracks and Write Offsets:
    DAT:

<rom name="Druid - Daemons of the Mind (USA) (Track 1).bin" size="248220672" crc="d636b237" md5="1a7c0c5885e8db314b4d868facc9b0cd" sha1="71ef16cb12541c96f8ca91bc09a591939d7fe1ba" />
<rom name="Druid - Daemons of the Mind (USA) (Track 2).bin" size="209034000" crc="7ad5867b" md5="27bf3b34956ccdf7d40be2ada0cd64dd" sha1="6039d51d581731c67f18d91b595ab7e1d8fef4a4" />
<rom name="Druid - Daemons of the Mind (USA) (Track 3).bin" size="23468256" crc="fdaa2013" md5="c02e8c782b7ba16ca2f980187f662e52" sha1="bb043ebd37cbb0c9115eb126deb0d959eeccc6a8" />

    Cuesheet:

CATALOG 0000000000000
FILE "Druid - Daemons of the Mind (USA) (Track 1).bin" BINARY
  TRACK 01 MODE1/2352
    INDEX 01 00:00:00
FILE "Druid - Daemons of the Mind (USA) (Track 2).bin" BINARY
  TRACK 02 AUDIO
    INDEX 00 00:00:00
    INDEX 01 00:01:74
FILE "Druid - Daemons of the Mind (USA) (Track 3).bin" BINARY
  TRACK 03 AUDIO
    INDEX 01 00:00:00

    Write Offset: 222

4

(0 replies, posted in Verifications)

http://redump.org/disc/9799/
Logs: https://drive.google.com/file/d/1_5ssGc … sp=sharing

Common Disc Info:
    Title: U.S. Navy Fighters: Gold
    Foreign Title (Non-latin): 
    Disc Number / Letter: 
    Disc Title: 
    System: IBM PC Compatible
    Media Type: CD-ROM
    Category: Games
    Matching IDs: 9799
    Region: USA
    Languages: English
    Disc Serial: 7654

    Ringcode Information:
        Data Side Mastering Code (laser branded/etched): a Allied Record Company    A1766 CC 765407-2 R70
        Data Side Mastering SID Code: 
        Data Side Toolstamp or Mastering Code (engraved/stamped): ARC *M1S2
        Data Side Mould SID Code: 
        Data Side Additional Mould: 
        Label Side Mould SID Code: 
        Label Side Additional Mould: 
    Barcode: 
    Error Count: 0
    Comments: 
    Contents: 

Version and Editions:
    Version: 1.0
    Edition/Release: Original

Extras:
    Primary Volume Descriptor (PVD):

0320 : 00 00 00 00 00 00 00 00  00 00 00 00 00 31 39 39   .............199
0330 : 35 30 39 30 31 31 32 30  30 30 30 30 30 E0 31 39   5090112000000.19
0340 : 39 35 30 39 30 31 31 32  30 30 30 30 30 30 E0 30   95090112000000.0
0350 : 30 30 30 30 30 30 30 30  30 30 30 30 30 30 30 00   000000000000000.
0360 : 31 39 39 35 30 39 30 31  31 32 30 30 30 30 30 30   1995090112000000
0370 : E0 01 00 00 00 00 00 00  00 00 00 00 00 00 00 00   ................

Copy Protection:
    Copy Protection: None found

Tracks and Write Offsets:
    DAT:

<rom name="U.S. Navy Fighters - Gold (USA).bin" size="220333008" crc="ca842a3a" md5="6c9ca7ab7fc89b031f82cead0446ba25" sha1="547d6ac17cae9afd90647c4b46fa57774fce6ac3" />

    Cuesheet:

CATALOG 0000000000000
FILE "U.S. Navy Fighters - Gold (USA).bin" BINARY
  TRACK 01 MODE1/2352
    INDEX 01 00:00:00

    Write Offset: 222

http://redump.org/disc/13207/
Logs: https://drive.google.com/file/d/15pHeRv … sp=sharing

Common Disc Info:
    Title: Sid Meier's Civilization II
    Foreign Title (Non-latin): 
    Disc Number / Letter: 
    Disc Title: 
    System: IBM PC Compatible
    Media Type: CD-ROM
    Category: Games
    Matching IDs: 13207
    Region: USA
    Languages: English
    Disc Serial: 0-492-47-101

    Ringcode Information:
        Data Side Mastering Code (laser branded/etched): (0-492-47-101/SPEC.HOLO.)    C2 110137-01    FM10845    
        Data Side Mastering SID Code: IFPI L892
        Data Side Toolstamp or Mastering Code (engraved/stamped): 
        Data Side Mould SID Code: 
        Data Side Additional Mould: 
        Label Side Mould SID Code: 
        Label Side Additional Mould: 
    Barcode: 
    Error Count: 0
    Comments: [T:ISBN]
    Contents: 

Version and Editions:
    Version: 1.0
    Edition/Release: Original

Extras:
    Primary Volume Descriptor (PVD):

0320 : 20 20 20 20 20 20 20 20  20 20 20 20 20 30 30 30                000
0330 : 30 30 30 30 30 30 30 30  30 30 30 30 30 00 30 30   0000000000000.00
0340 : 30 30 30 30 30 30 30 30  30 30 30 30 30 30 00 30   00000000000000.0
0350 : 30 30 30 30 30 30 30 30  30 30 30 30 30 30 30 00   000000000000000.
0360 : 30 30 30 30 30 30 30 30  30 30 30 30 30 30 30 30   0000000000000000
0370 : 00 01 00 00 00 00 00 00  00 00 00 00 00 00 00 00   ................

Copy Protection:
    Copy Protection: None found

Tracks and Write Offsets:
    DAT:

<rom name="Sid Meier's Civilization II (USA) (Track 01).bin" size="430677072" crc="afb1a161" md5="a58b877f778569abc42aca7d0f90093d" sha1="0f08ba46a793c9d7d3fc5b245618e1f6dd31107a" />
<rom name="Sid Meier's Civilization II (USA) (Track 02).bin" size="6634992" crc="a4a837af" md5="a0e9f0ce285eaa4935725153ffb896b0" sha1="5f486ef66b1226ebd3b43ab38b91fb7b88142e35" />
<rom name="Sid Meier's Civilization II (USA) (Track 03).bin" size="8326080" crc="5b7cf240" md5="5be7a7d5e2126394122d2853204f1cc3" sha1="3658167dc00a5c802283cba6a31ff7b1f245e157" />
<rom name="Sid Meier's Civilization II (USA) (Track 04).bin" size="18061008" crc="fbb2628f" md5="5081218bbda26640f77bf8c190e4f9c3" sha1="3064a73a4dd49da4b25af5e8d161218df4afa00d" />
<rom name="Sid Meier's Civilization II (USA) (Track 05).bin" size="22515696" crc="4937de32" md5="599f9c4f105906844c3bce770522d545" sha1="4cb6ee292ef2b21ae8ed2f29faa5ac1d2451f874" />
<rom name="Sid Meier's Civilization II (USA) (Track 06).bin" size="22141728" crc="4216ae25" md5="4e0418c503ec5f5fdfdefc6011a86f11" sha1="9b908e92a80558954d57c5b61ff091203e5df301" />
<rom name="Sid Meier's Civilization II (USA) (Track 07).bin" size="29691648" crc="70209089" md5="a594c1f4237e32ffaf57b75d009ee543" sha1="1762353a485da89d58bfc8c34712fce07bd3d015" />
<rom name="Sid Meier's Civilization II (USA) (Track 08).bin" size="28520352" crc="70690cc5" md5="1d3ef08afc7c0978f4474958dbd1b444" sha1="fd8e0e0fd83a4557776b0d2dddfe4e240fcc5ef5" />
<rom name="Sid Meier's Civilization II (USA) (Track 09).bin" size="19474560" crc="0a5d74e4" md5="8ed178d401da94554b95dcfb44ad7a7b" sha1="cd499552903a10c5358a392ee9472f326aaf4078" />
<rom name="Sid Meier's Civilization II (USA) (Track 10).bin" size="26253024" crc="ea6d5149" md5="49da2a4bc2076e3758121aeb1b9b8b34" sha1="a6ad515a72949727bcf5309cec89404f2dcebc1f" />

    Cuesheet:

FILE "Sid Meier's Civilization II (USA) (Track 01).bin" BINARY
  TRACK 01 MODE1/2352
    INDEX 01 00:00:00
FILE "Sid Meier's Civilization II (USA) (Track 02).bin" BINARY
  TRACK 02 AUDIO
    INDEX 00 00:00:00
    INDEX 01 00:02:00
FILE "Sid Meier's Civilization II (USA) (Track 03).bin" BINARY
  TRACK 03 AUDIO
    INDEX 00 00:00:00
    INDEX 01 00:01:73
FILE "Sid Meier's Civilization II (USA) (Track 04).bin" BINARY
  TRACK 04 AUDIO
    INDEX 00 00:00:00
    INDEX 01 00:01:73
FILE "Sid Meier's Civilization II (USA) (Track 05).bin" BINARY
  TRACK 05 AUDIO
    INDEX 00 00:00:00
    INDEX 01 00:01:73
FILE "Sid Meier's Civilization II (USA) (Track 06).bin" BINARY
  TRACK 06 AUDIO
    INDEX 00 00:00:00
    INDEX 01 00:01:73
FILE "Sid Meier's Civilization II (USA) (Track 07).bin" BINARY
  TRACK 07 AUDIO
    INDEX 00 00:00:00
    INDEX 01 00:01:73
FILE "Sid Meier's Civilization II (USA) (Track 08).bin" BINARY
  TRACK 08 AUDIO
    INDEX 00 00:00:00
    INDEX 01 00:01:73
FILE "Sid Meier's Civilization II (USA) (Track 09).bin" BINARY
  TRACK 09 AUDIO
    INDEX 00 00:00:00
    INDEX 01 00:01:73
FILE "Sid Meier's Civilization II (USA) (Track 10).bin" BINARY
  TRACK 10 AUDIO
    INDEX 00 00:00:00
    INDEX 01 00:01:73

    Write Offset: -22

http://redump.org/disc/43731/
Logs: https://drive.google.com/file/d/1VmkJM8 … sp=sharing

Common Disc Info:
    Title: Deadlock: Planetary Conquest
    Foreign Title (Non-latin): 
    Disc Number / Letter: 
    Disc Title: 
    System: IBM PC Compatible
    Media Type: CD-ROM
    Category: Games
    Matching IDs: 43731
    Region: USA
    Languages: English
    Disc Serial: 5000-00444

    Ringcode Information:
        Data Side Mastering Code (laser branded/etched): 1 75011 RE-1 WAMO R B01
        Data Side Mastering SID Code: IFPI L907
        Data Side Toolstamp or Mastering Code (engraved/stamped): M1S4
        Data Side Mould SID Code: IFPI 2U3U
        Data Side Additional Mould: 
        Label Side Mould SID Code: 
        Label Side Additional Mould: 
    Barcode: 
    Error Count: 0
    Comments: Box Serial: 6010-00255
Player's Manual Serial: 3050-00257
Colony Leader's Guidebook Serial: 3050-00258

    Contents: 

Version and Editions:
    Version: 1.20
    Edition/Release: Original

Extras:
    Primary Volume Descriptor (PVD):

0320 : 20 20 20 20 20 20 20 20  20 20 20 20 20 31 39 39                199
0330 : 36 30 38 31 34 30 34 30  30 30 30 00 30 00 30 30   60814040000.0.00
0340 : 30 30 30 30 30 30 30 30  30 30 30 30 00 30 00 30   000000000000.0.0
0350 : 30 30 30 30 30 30 30 30  30 30 30 30 30 00 30 00   0000000000000.0.
0360 : 30 30 30 30 30 30 30 30  30 30 30 30 30 30 00 30   00000000000000.0
0370 : 00 01 00 00 00 00 00 00  00 00 00 00 00 00 00 00   ................

Copy Protection:
    Copy Protection: None found

Tracks and Write Offsets:
    DAT:

<rom name="Deadlock - Planetary Conquest (USA).bin" size="674024400" crc="51ef35ce" md5="bc748675bf791ddd8b6d49b9c153c465" sha1="fef5fd715f42aa534e75e37ebff65ce65a700dad" />

    Cuesheet:

CATALOG 0000000000000
FILE "Deadlock - Planetary Conquest (USA).bin" BINARY
  TRACK 01 MODE1/2352
    INDEX 01 00:00:00

    Write Offset: 0

7

(0 replies, posted in Verifications)

http://redump.org/disc/47628/
Logs: https://drive.google.com/file/d/1mQrdXB … sp=sharing

Common Disc Info:
    Title: Crusader: No Remorse
    Foreign Title (Non-latin): 
    Disc Number / Letter: 
    Disc Title: 
    System: IBM PC Compatible
    Media Type: CD-ROM
    Category: Games
    Matching IDs: 47628
    Region: USA
    Languages: English
    Disc Serial: EA 1008707

    Ringcode Information:
        Data Side Mastering Code (laser branded/etched): ORI-1008799A    + +    61666-01
        Data Side Mastering SID Code: IFPI L028
        Data Side Toolstamp or Mastering Code (engraved/stamped): 
        Data Side Mould SID Code:     IFPI 1015
        Data Side Additional Mould: 
        Label Side Mould SID Code: 
        Label Side Additional Mould: 
    Barcode: 
    Error Count: 0
    Comments:
    Contents: 

Version and Editions:
    Version: 1.01
    Edition/Release: Original

Extras:
    Primary Volume Descriptor (PVD):

0320 : 20 20 20 20 20 20 20 20  20 20 20 20 20 31 39 39                199
0330 : 35 30 39 31 34 31 37 31  32 30 33 30 30 00 31 39   5091417120300.19
0340 : 39 35 30 39 31 34 31 37  31 32 30 33 30 30 00 30   95091417120300.0
0350 : 30 30 30 30 30 30 20 30  30 30 30 30 30 30 30 00   000000 00000000.
0360 : 31 39 39 35 30 39 31 34  31 37 31 32 30 33 30 30   1995091417120300
0370 : 00 01 00 00 00 00 00 00  00 00 00 00 00 00 00 00   ................

Copy Protection:
    Copy Protection: None found

Tracks and Write Offsets:
    DAT:

<rom name="Crusader - No Remorse (USA).bin" size="635573904" crc="b1f81236" md5="6816061dfde772cbf42dc362e2623f50" sha1="bb8ad33552a33db7a454dff6428816718fe7b1f0" />

    Cuesheet:

CATALOG 0000000000000
FILE "Crusader - No Remorse (USA).bin" BINARY
  TRACK 01 MODE1/2352
    INDEX 01 00:00:00

    Write Offset: 222

8

(0 replies, posted in Verifications)

http://redump.org/disc/21542/
Logs: https://drive.google.com/file/d/1sfx12V … sp=sharing

Common Disc Info:
    Title: Magic Carpet
    Foreign Title (Non-latin): 
    Disc Number / Letter: 
    Disc Title: 
    System: IBM PC Compatible
    Media Type: CD-ROM
    Category: Games
    Matching IDs: 21542
    Region: USA
    Languages: English, French, German, Italian
    Disc Serial: 7463

    Ringcode Information:
        Data Side Mastering Code (laser branded/etched): STARPAK 756321    + +    51999-01    
        Data Side Mastering SID Code: IFPI L027
        Data Side Toolstamp or Mastering Code (engraved/stamped): 
        Data Side Mould SID Code: 
        Data Side Additional Mould: 
        Label Side Mould SID Code: 
        Label Side Additional Mould: 
    Barcode: 
    Error Count: 0
    Comments: 
    Contents: 

Version and Editions:
    Version: Beta v8.0 - Oct 20 1994
    Edition/Release: Original

Extras:
    Primary Volume Descriptor (PVD):

0320 : 20 20 20 20 20 20 20 20  20 20 20 20 20 31 39 39                199
0330 : 34 31 30 32 38 31 33 33  38 33 30 30 30 20 31 39   4102813383000 19
0340 : 39 34 31 30 32 38 31 33  33 38 33 30 30 30 20 00   94102813383000 .
0350 : 00 00 00 00 00 00 00 00  00 00 00 00 00 00 00 00   ................
0360 : 00 00 00 00 00 00 00 00  00 00 00 00 00 00 00 00   ................
0370 : 00 01 00 00 00 00 00 00  00 00 00 00 00 00 00 00   ................

Copy Protection:
    Copy Protection: None found

Tracks and Write Offsets:
    DAT:

<rom name="Magic Carpet (USA) (En,Fr,De,It).bin" size="187962432" crc="a582a504" md5="690993cdf01212acd0bed44f7f474508" sha1="b19e58666c7405708367c745100b53826f9c99fc" />

    Cuesheet:

CATALOG 0000000000000
FILE "Magic Carpet (USA) (En,Fr,De,It).bin" BINARY
  TRACK 01 MODE1/2352
    FLAGS DCP
    INDEX 01 00:00:00

    Write Offset: 222

9

(0 replies, posted in Verifications)

http://redump.org/disc/21542/
Logs: https://drive.google.com/file/d/1sfx12V … sp=sharing

Common Disc Info:
    Title: Magic Carpet
    Foreign Title (Non-latin): 
    Disc Number / Letter: 
    Disc Title: 
    System: IBM PC Compatible
    Media Type: CD-ROM
    Category: Games
    Matching IDs: 21542
    Region: USA
    Languages: English, French, German, Italian
    Disc Serial: 7463

    Ringcode Information:
        Data Side Mastering Code (laser branded/etched): STARPAK 756321    + +    51999-01    
        Data Side Mastering SID Code: IFPI L027
        Data Side Toolstamp or Mastering Code (engraved/stamped): 
        Data Side Mould SID Code: 
        Data Side Additional Mould: 
        Label Side Mould SID Code: 
        Label Side Additional Mould: 
    Barcode: 
    Error Count: 0
    Comments: 
    Contents: 

Version and Editions:
    Version: Beta v8.0 - Oct 20 1994
    Edition/Release: Original

Extras:
    Primary Volume Descriptor (PVD):

0320 : 20 20 20 20 20 20 20 20  20 20 20 20 20 31 39 39                199
0330 : 34 31 30 32 38 31 33 33  38 33 30 30 30 20 31 39   4102813383000 19
0340 : 39 34 31 30 32 38 31 33  33 38 33 30 30 30 20 00   94102813383000 .
0350 : 00 00 00 00 00 00 00 00  00 00 00 00 00 00 00 00   ................
0360 : 00 00 00 00 00 00 00 00  00 00 00 00 00 00 00 00   ................
0370 : 00 01 00 00 00 00 00 00  00 00 00 00 00 00 00 00   ................

Copy Protection:
    Copy Protection: None found

Tracks and Write Offsets:
    DAT:

<rom name="Magic Carpet (USA) (En,Fr,De,It).bin" size="187962432" crc="a582a504" md5="690993cdf01212acd0bed44f7f474508" sha1="b19e58666c7405708367c745100b53826f9c99fc" />

    Cuesheet:

CATALOG 0000000000000
FILE "Magic Carpet (USA) (En,Fr,De,It).bin" BINARY
  TRACK 01 MODE1/2352
    FLAGS DCP
    INDEX 01 00:00:00

    Write Offset: 222

http://redump.org/disc/53002/
Logs: https://drive.google.com/file/d/1RFQ034 … sp=sharing

Common Disc Info:
    Title: Heroes of Might and Magic II: The Succession Wars
    Foreign Title (Non-latin): 
    Disc Number / Letter: 
    Disc Title: 
    System: IBM PC Compatible
    Media Type: CD-ROM
    Category: Games
    Matching IDs: 53002
    Region: USA, Italy
    Languages: English
    Disc Serial: PCD 490-D91

    Ringcode Information:
        Data Side Mastering Code (laser branded/etched): NIMBUS    PCD 490-D91V1.0    ·
        Data Side Mastering SID Code: IFPI L126
        Data Side Toolstamp or Mastering Code (engraved/stamped): 
        Data Side Mould SID Code: IFPI 2406
        Data Side Additional Mould: 
        Label Side Mould SID Code: 
        Label Side Additional Mould: 
    Barcode: 
    Error Count: 0
    Comments: 
    Contents: 

Version and Editions:
    Version: 1.0
    Edition/Release: Original

Extras:
    Primary Volume Descriptor (PVD):

0320 : 20 20 20 20 20 20 20 20  20 20 20 20 20 31 39 39                199
0330 : 36 31 30 30 31 31 31 34  38 32 32 30 30 00 31 39   6100111482200.19
0340 : 39 36 31 31 30 34 31 36  33 38 34 39 30 30 00 00   96110416384900..
0350 : 00 00 00 00 00 00 00 00  00 00 00 00 00 00 00 00   ................
0360 : 00 00 00 00 00 00 00 00  00 00 00 00 00 00 00 00   ................
0370 : 00 01 00 00 00 00 00 00  00 00 00 00 00 00 00 00   ................

Copy Protection:
    Copy Protection: None found

Tracks and Write Offsets:
    DAT:

<rom name="Heroes of Might and Magic II - The Succession Wars (USA, Italy) (Track 01).bin" size="284382672" crc="b21339fc" md5="9acffa11cfcb67a2353c9bac92a12f4a" sha1="6a500bfc645593189c6b86eb266c94132242ee39" />
<rom name="Heroes of Might and Magic II - The Succession Wars (USA, Italy) (Track 02).bin" size="20224848" crc="e6edcef3" md5="bb8248223219151e1f03b3c79e5581a8" sha1="036ce9dad54be235f5285a35184b12de52b2e048" />
<rom name="Heroes of Might and Magic II - The Succession Wars (USA, Italy) (Track 03).bin" size="20888112" crc="078e2556" md5="4f484dedd6cd368555f9134865aadc50" sha1="743a940013df16d0ec9c6a412ea31cbe6838a6c9" />
<rom name="Heroes of Might and Magic II - The Succession Wars (USA, Italy) (Track 04).bin" size="19258176" crc="a664c4f3" md5="70603007dd1d6c72e822e544cace7ed0" sha1="de00973319e5f07fc9bc2d5bfd39cf178cc3d58d" />
<rom name="Heroes of Might and Magic II - The Succession Wars (USA, Italy) (Track 05).bin" size="44076480" crc="911841a8" md5="4d75edae5404590dd06356286edab2ef" sha1="cbab3a1f92c3c0df5b92d69e701ac928b8f6ee03" />
<rom name="Heroes of Might and Magic II - The Succession Wars (USA, Italy) (Track 06).bin" size="20770512" crc="9bf02369" md5="81f9471537a71f01b97032f9c34ba191" sha1="3a4e879cc71385ece03ba5019a0222c205fd5b4c" />
<rom name="Heroes of Might and Magic II - The Succession Wars (USA, Italy) (Track 07).bin" size="25173456" crc="f3fe0ee5" md5="bcaa9fa01ad99113014852495e8d9805" sha1="7c26a2b210ee42ce099c4f5c6333d90bd92c6c1e" />
<rom name="Heroes of Might and Magic II - The Succession Wars (USA, Italy) (Track 08).bin" size="26109552" crc="e0fdcd03" md5="6df499026f4de231c8b4993c58ef8c39" sha1="319c4b8d9fee2ea2959ba11ad48c3db40b80fad0" />
<rom name="Heroes of Might and Magic II - The Succession Wars (USA, Italy) (Track 09).bin" size="21946512" crc="748c1482" md5="dedbe839b3716b739fdb327e70e3ca53" sha1="936d9edc50cb95fba2a7e60588cb02fd47851d4f" />
<rom name="Heroes of Might and Magic II - The Succession Wars (USA, Italy) (Track 10).bin" size="21791280" crc="eba36883" md5="94ec37ab4e740b214928c8f14c77d363" sha1="2fb04be3d7c0374a55b007801a4ccf826f353891" />
<rom name="Heroes of Might and Magic II - The Succession Wars (USA, Italy) (Track 11).bin" size="20819904" crc="d61375c8" md5="9a1942956c5b7945eea831a5df106090" sha1="da5985beb4f3b8fdd387a77b631e465415fce21f" />
<rom name="Heroes of Might and Magic II - The Succession Wars (USA, Italy) (Track 12).bin" size="22633296" crc="e3268fb0" md5="23b4e5e242e80550b90601b09c766f57" sha1="c95d986df36f0eb1f6cd0f1a5923b1a85327e85d" />
<rom name="Heroes of Might and Magic II - The Succession Wars (USA, Italy) (Track 13).bin" size="20563536" crc="5e3564c1" md5="3a4549c33f61870ea0361b232793a747" sha1="2d62ace38fc08e2746370f832cb4b5e7c208cdcf" />
<rom name="Heroes of Might and Magic II - The Succession Wars (USA, Italy) (Track 14).bin" size="22426320" crc="b68a48da" md5="da1a4fcc49fff9bba87ce5a2586dfdff" sha1="14aae27301c7f134f86186d60eef902f7e4b4301" />
<rom name="Heroes of Might and Magic II - The Succession Wars (USA, Italy) (Track 15).bin" size="26109552" crc="dd4257d3" md5="e6df89ef23a773c5d181fbfda739a067" sha1="0a75e5e332bf499da8de99295b7aeec3159c474b" />
<rom name="Heroes of Might and Magic II - The Succession Wars (USA, Italy) (Track 16).bin" size="19352256" crc="89dddeaf" md5="88af3291f7653d5c1ea30f6c0eee3d7e" sha1="ee7c6192b53a85574a286c4bd794034944f13e17" />
<rom name="Heroes of Might and Magic II - The Succession Wars (USA, Italy) (Track 17).bin" size="21170352" crc="0f0f20b6" md5="ca716ec115cfd1ead91f73179426a8c1" sha1="02af396a553481630bff7570f5a5b2ac30c55634" />
<rom name="Heroes of Might and Magic II - The Succession Wars (USA, Italy) (Track 18).bin" size="22932000" crc="4dc1112b" md5="72a10f03bfb15043b7fda1f33d4bf0f0" sha1="d0d33eef0b22d03312854332e942908a71233cfa" />
<rom name="Heroes of Might and Magic II - The Succession Wars (USA, Italy) (Track 19).bin" size="3876096" crc="3e699e4d" md5="586a67a3e14e547835ca45e542d2979b" sha1="ae89824ebb90aeb8b440a09b86c9009e67e10177" />
<rom name="Heroes of Might and Magic II - The Succession Wars (USA, Italy) (Track 20).bin" size="1093680" crc="5e9d3d7b" md5="c7de591c8a9c39ece2d7509701cd1cb5" sha1="d11cb5f176c65bcb99bca94af2803322296ef956" />
<rom name="Heroes of Might and Magic II - The Succession Wars (USA, Italy) (Track 21).bin" size="1425312" crc="7e350e13" md5="9cda156ffee4287c8c3ace18368a0449" sha1="b8c8b9a8585c913000ff8203ef92cd6148f89e29" />
<rom name="Heroes of Might and Magic II - The Succession Wars (USA, Italy) (Track 22).bin" size="10115952" crc="64fd5d1c" md5="5d6e7dbecc15d98d20a9add30dc85898" sha1="7dc76c8aa5bf812aa9ed8fde23536fafa9a66287" />
<rom name="Heroes of Might and Magic II - The Succession Wars (USA, Italy) (Track 23).bin" size="1860432" crc="0fa60e31" md5="7d009f521b46e4901fdfb65ace6e8fc6" sha1="e07f0a0d87eaf6457938a438d7e249cc0d9ea79f" />
<rom name="Heroes of Might and Magic II - The Succession Wars (USA, Italy) (Track 24).bin" size="9495024" crc="ce1de75d" md5="91e3eceb4e715be48db9994a03add19a" sha1="4c9f209acb4027e62986f5f817edfb88d9a456f5" />
<rom name="Heroes of Might and Magic II - The Succession Wars (USA, Italy) (Track 25).bin" size="1058400" crc="9b037b52" md5="f6ae88125b508475956365c6f1c58c02" sha1="399f8979a6ef21c77de93da22bb41468c76cefe4" />
<rom name="Heroes of Might and Magic II - The Succession Wars (USA, Italy) (Track 26).bin" size="1058400" crc="c2f1cd40" md5="e65ef95afbbae7bb43c399b5ccae5b29" sha1="5c0e0d8496925e7b20ae7a62ac865a26c6110c0c" />
<rom name="Heroes of Might and Magic II - The Succession Wars (USA, Italy) (Track 27).bin" size="1058400" crc="b5e45d84" md5="2993ecbb8b38ca1ab9bd363a8c55fd1f" sha1="a4b5c8dd4e1f36a94eb2776dff0ae7007151c2e2" />
<rom name="Heroes of Might and Magic II - The Succession Wars (USA, Italy) (Track 28).bin" size="11355456" crc="fd2fab15" md5="cc95133e1c9a7ff5aaebbf511a20801e" sha1="9cccdb5582472108ffa5a89f7638045677b2e002" />
<rom name="Heroes of Might and Magic II - The Succession Wars (USA, Italy) (Track 29).bin" size="1178352" crc="f4800685" md5="d4e8e84784e48f99bc32f44f45984b0c" sha1="8830a8ff89939b05862f23901034e835961c5014" />
<rom name="Heroes of Might and Magic II - The Succession Wars (USA, Italy) (Track 30).bin" size="1058400" crc="36ac9f11" md5="8633a2aa87cd1ae9ea024b02179b2f56" sha1="255ea60721663ee61a78381ba92a4507f82ab7a1" />
<rom name="Heroes of Might and Magic II - The Succession Wars (USA, Italy) (Track 31).bin" size="1128960" crc="d8d915f1" md5="698631990228ea4f7d0e18b090bb78be" sha1="996d690ba54b4c094a6e22a2eab4c1ea5c8d8f33" />
<rom name="Heroes of Might and Magic II - The Succession Wars (USA, Italy) (Track 32).bin" size="1136016" crc="c885994c" md5="cb9ac9f09adee63a7fbc9a4e9a6ab264" sha1="20a61fa8e374a6d276d4ba03552796272645d504" />
<rom name="Heroes of Might and Magic II - The Succession Wars (USA, Italy) (Track 33).bin" size="1378272" crc="c4f10f7a" md5="64a1414e5b0c531e1de9164c6ba4ccf3" sha1="5b78f55d33c951f155cc209bf49ae21ea1ba16f2" />
<rom name="Heroes of Might and Magic II - The Succession Wars (USA, Italy) (Track 34).bin" size="1058400" crc="e22baef6" md5="df8682404af3e43640946c4859dc9238" sha1="7697b05ef24a6e9c2980dc42c60a72ae80ed581c" />
<rom name="Heroes of Might and Magic II - The Succession Wars (USA, Italy) (Track 35).bin" size="1058400" crc="e21baf4f" md5="4c083d187a81e27882236f3cbd548fb3" sha1="ef25f681a64e839bbb6c3145546c31ae368c1c90" />
<rom name="Heroes of Might and Magic II - The Succession Wars (USA, Italy) (Track 36).bin" size="1211280" crc="6930d75b" md5="7104c63c8d21a3554b8a21e672e7b26a" sha1="93bb60186f6e92d32b2b523ea8ca7670faef80da" />
<rom name="Heroes of Might and Magic II - The Succession Wars (USA, Italy) (Track 37).bin" size="1058400" crc="a614785f" md5="04a31a5cbae714303dae7f94e0a987c4" sha1="4cd11b5c4c25fc2ed721910f47ce9c43dccfe0aa" />
<rom name="Heroes of Might and Magic II - The Succession Wars (USA, Italy) (Track 38).bin" size="1105440" crc="c133df0e" md5="945ae93f61ef5f7e327375ccce459b4e" sha1="e4b5a96616b7b9ee8d0b5776e60f91fea3083601" />
<rom name="Heroes of Might and Magic II - The Succession Wars (USA, Italy) (Track 39).bin" size="1159536" crc="30bafd12" md5="1cc9dd9da4dc25431bb9bd5df91752b5" sha1="ebb828665387184cdea44d72fc795f75bad2413b" />
<rom name="Heroes of Might and Magic II - The Succession Wars (USA, Italy) (Track 40).bin" size="1058400" crc="1f8c52bd" md5="b18872de33765ea23f666ab7ef77df94" sha1="28577caa464f8bac6470d9d00bb4be44ca304f1d" />
<rom name="Heroes of Might and Magic II - The Succession Wars (USA, Italy) (Track 41).bin" size="1058400" crc="b37e8a5b" md5="148814b7c87a5be7c0c517de0d558b52" sha1="ba27a374013211a8c79f6d63d672436825afb713" />
<rom name="Heroes of Might and Magic II - The Succession Wars (USA, Italy) (Track 42).bin" size="13752144" crc="4ee6686e" md5="67f05a1f897e7c0845e438fb4a29b670" sha1="5bd9c8b24befff8873f508320ee54a829374d7f4" />
<rom name="Heroes of Might and Magic II - The Succession Wars (USA, Italy) (Track 43).bin" size="13411104" crc="ddbd6a35" md5="6bc140c97a84efd21c7c5604816f8b41" sha1="0e4e06a3d6ada8491d16300e1556a90ceefc2a08" />

    Cuesheet:

CATALOG 0000000000000
FILE "Heroes of Might and Magic II - The Succession Wars (USA, Italy) (Track 01).bin" BINARY
  TRACK 01 MODE1/2352
    INDEX 01 00:00:00
FILE "Heroes of Might and Magic II - The Succession Wars (USA, Italy) (Track 02).bin" BINARY
  TRACK 02 AUDIO
    INDEX 00 00:00:00
    INDEX 01 00:02:00
FILE "Heroes of Might and Magic II - The Succession Wars (USA, Italy) (Track 03).bin" BINARY
  TRACK 03 AUDIO
    INDEX 01 00:00:00
FILE "Heroes of Might and Magic II - The Succession Wars (USA, Italy) (Track 04).bin" BINARY
  TRACK 04 AUDIO
    INDEX 01 00:00:00
FILE "Heroes of Might and Magic II - The Succession Wars (USA, Italy) (Track 05).bin" BINARY
  TRACK 05 AUDIO
    INDEX 01 00:00:00
FILE "Heroes of Might and Magic II - The Succession Wars (USA, Italy) (Track 06).bin" BINARY
  TRACK 06 AUDIO
    INDEX 01 00:00:00
FILE "Heroes of Might and Magic II - The Succession Wars (USA, Italy) (Track 07).bin" BINARY
  TRACK 07 AUDIO
    INDEX 01 00:00:00
FILE "Heroes of Might and Magic II - The Succession Wars (USA, Italy) (Track 08).bin" BINARY
  TRACK 08 AUDIO
    INDEX 01 00:00:00
FILE "Heroes of Might and Magic II - The Succession Wars (USA, Italy) (Track 09).bin" BINARY
  TRACK 09 AUDIO
    INDEX 01 00:00:00
FILE "Heroes of Might and Magic II - The Succession Wars (USA, Italy) (Track 10).bin" BINARY
  TRACK 10 AUDIO
    INDEX 01 00:00:00
FILE "Heroes of Might and Magic II - The Succession Wars (USA, Italy) (Track 11).bin" BINARY
  TRACK 11 AUDIO
    INDEX 01 00:00:00
FILE "Heroes of Might and Magic II - The Succession Wars (USA, Italy) (Track 12).bin" BINARY
  TRACK 12 AUDIO
    INDEX 01 00:00:00
FILE "Heroes of Might and Magic II - The Succession Wars (USA, Italy) (Track 13).bin" BINARY
  TRACK 13 AUDIO
    INDEX 01 00:00:00
FILE "Heroes of Might and Magic II - The Succession Wars (USA, Italy) (Track 14).bin" BINARY
  TRACK 14 AUDIO
    INDEX 01 00:00:00
FILE "Heroes of Might and Magic II - The Succession Wars (USA, Italy) (Track 15).bin" BINARY
  TRACK 15 AUDIO
    INDEX 01 00:00:00
FILE "Heroes of Might and Magic II - The Succession Wars (USA, Italy) (Track 16).bin" BINARY
  TRACK 16 AUDIO
    INDEX 01 00:00:00
FILE "Heroes of Might and Magic II - The Succession Wars (USA, Italy) (Track 17).bin" BINARY
  TRACK 17 AUDIO
    INDEX 01 00:00:00
FILE "Heroes of Might and Magic II - The Succession Wars (USA, Italy) (Track 18).bin" BINARY
  TRACK 18 AUDIO
    INDEX 01 00:00:00
FILE "Heroes of Might and Magic II - The Succession Wars (USA, Italy) (Track 19).bin" BINARY
  TRACK 19 AUDIO
    INDEX 01 00:00:00
FILE "Heroes of Might and Magic II - The Succession Wars (USA, Italy) (Track 20).bin" BINARY
  TRACK 20 AUDIO
    INDEX 01 00:00:00
FILE "Heroes of Might and Magic II - The Succession Wars (USA, Italy) (Track 21).bin" BINARY
  TRACK 21 AUDIO
    INDEX 01 00:00:00
FILE "Heroes of Might and Magic II - The Succession Wars (USA, Italy) (Track 22).bin" BINARY
  TRACK 22 AUDIO
    INDEX 01 00:00:00
FILE "Heroes of Might and Magic II - The Succession Wars (USA, Italy) (Track 23).bin" BINARY
  TRACK 23 AUDIO
    INDEX 01 00:00:00
FILE "Heroes of Might and Magic II - The Succession Wars (USA, Italy) (Track 24).bin" BINARY
  TRACK 24 AUDIO
    INDEX 01 00:00:00
FILE "Heroes of Might and Magic II - The Succession Wars (USA, Italy) (Track 25).bin" BINARY
  TRACK 25 AUDIO
    INDEX 01 00:00:00
FILE "Heroes of Might and Magic II - The Succession Wars (USA, Italy) (Track 26).bin" BINARY
  TRACK 26 AUDIO
    INDEX 01 00:00:00
FILE "Heroes of Might and Magic II - The Succession Wars (USA, Italy) (Track 27).bin" BINARY
  TRACK 27 AUDIO
    INDEX 01 00:00:00
FILE "Heroes of Might and Magic II - The Succession Wars (USA, Italy) (Track 28).bin" BINARY
  TRACK 28 AUDIO
    INDEX 01 00:00:00
FILE "Heroes of Might and Magic II - The Succession Wars (USA, Italy) (Track 29).bin" BINARY
  TRACK 29 AUDIO
    INDEX 01 00:00:00
FILE "Heroes of Might and Magic II - The Succession Wars (USA, Italy) (Track 30).bin" BINARY
  TRACK 30 AUDIO
    INDEX 01 00:00:00
FILE "Heroes of Might and Magic II - The Succession Wars (USA, Italy) (Track 31).bin" BINARY
  TRACK 31 AUDIO
    INDEX 01 00:00:00
FILE "Heroes of Might and Magic II - The Succession Wars (USA, Italy) (Track 32).bin" BINARY
  TRACK 32 AUDIO
    INDEX 01 00:00:00
FILE "Heroes of Might and Magic II - The Succession Wars (USA, Italy) (Track 33).bin" BINARY
  TRACK 33 AUDIO
    INDEX 01 00:00:00
FILE "Heroes of Might and Magic II - The Succession Wars (USA, Italy) (Track 34).bin" BINARY
  TRACK 34 AUDIO
    INDEX 01 00:00:00
FILE "Heroes of Might and Magic II - The Succession Wars (USA, Italy) (Track 35).bin" BINARY
  TRACK 35 AUDIO
    INDEX 01 00:00:00
FILE "Heroes of Might and Magic II - The Succession Wars (USA, Italy) (Track 36).bin" BINARY
  TRACK 36 AUDIO
    INDEX 01 00:00:00
FILE "Heroes of Might and Magic II - The Succession Wars (USA, Italy) (Track 37).bin" BINARY
  TRACK 37 AUDIO
    INDEX 01 00:00:00
FILE "Heroes of Might and Magic II - The Succession Wars (USA, Italy) (Track 38).bin" BINARY
  TRACK 38 AUDIO
    INDEX 01 00:00:00
FILE "Heroes of Might and Magic II - The Succession Wars (USA, Italy) (Track 39).bin" BINARY
  TRACK 39 AUDIO
    INDEX 01 00:00:00
FILE "Heroes of Might and Magic II - The Succession Wars (USA, Italy) (Track 40).bin" BINARY
  TRACK 40 AUDIO
    INDEX 01 00:00:00
FILE "Heroes of Might and Magic II - The Succession Wars (USA, Italy) (Track 41).bin" BINARY
  TRACK 41 AUDIO
    INDEX 01 00:00:00
FILE "Heroes of Might and Magic II - The Succession Wars (USA, Italy) (Track 42).bin" BINARY
  TRACK 42 AUDIO
    INDEX 01 00:00:00
FILE "Heroes of Might and Magic II - The Succession Wars (USA, Italy) (Track 43).bin" BINARY
  TRACK 43 AUDIO
    INDEX 01 00:00:00

    Write Offset: 0

11

(0 replies, posted in Verifications)

http://redump.org/disc/55118/
Logs: https://drive.google.com/file/d/1nyidVL … sp=sharing

Common Disc Info:
    Title: JumpStart Advanced Preschool
    Foreign Title (Non-latin): 
    Disc Number / Letter: 2
    Disc Title: Basic Typing: Kid Keys 2.0
    System: IBM PC Compatible
    Media Type: CD-ROM
    Category: Educational
    Matching IDs: 55118
    Region: USA
    Languages: English
    Disc Serial: 95768

    Ringcode Information:
        Data Side Mastering Code (laser branded/etched): MTR4698    (443005) 95768 07    Made in Mexico
        Data Side Mastering SID Code: IFPI LM86
        Data Side Toolstamp or Mastering Code (engraved/stamped): 
        Data Side Mould SID Code: IFPI KM09
        Data Side Additional Mould: 
        Label Side Mould SID Code: 
        Label Side Additional Mould: 
    Barcode: 8 76930 00738 5
    Error Count: 0
    Comments: 
    Contents: 

Version and Editions:
    Version: 2.3c
    Edition/Release: Original

Extras:
    Primary Volume Descriptor (PVD):

0320 : 20 20 20 20 20 20 20 20  20 20 20 20 20 32 30 30                200
0330 : 38 31 32 32 33 32 31 31  31 30 35 30 30 30 32 30   8122321110500020
0340 : 30 38 31 32 32 33 32 31  31 31 30 35 30 30 30 39   0812232111050009
0350 : 39 39 39 31 32 33 31 30  30 30 30 30 30 30 30 30   9991231000000000
0360 : 39 39 39 39 31 32 33 31  30 30 30 30 30 30 30 30   9999123100000000
0370 : 30 01 00 00 00 00 00 00  00 00 00 00 00 00 00 00   0...............

Copy Protection:
    Copy Protection: None found

Tracks and Write Offsets:
    DAT:

<rom name="JumpStart Advanced Preschool (USA) (Disc 2) (Basic Typing).bin" size="124853568" crc="95121d3c" md5="4c5b6eb3e85490790962961ebd4c76da" sha1="60ef08216b18a102e3e8cc521013fc9720d4fbc9" />

    Cuesheet:

FILE "JumpStart Advanced Preschool (USA) (Disc 2) (Basic Typing).bin" BINARY
  TRACK 01 MODE1/2352
    INDEX 01 00:00:00

    Write Offset: -12

http://redump.org/disc/11145/
Logs: https://drive.google.com/file/d/1zNbPQz … sp=sharing

Common Disc Info:
    Title: Lands of Lore: Guardians of Destiny
    Foreign Title (Non-latin): 
    Disc Number / Letter: 4
    Disc Title: 
    System: IBM PC Compatible
    Media Type: CD-ROM
    Category: Games
    Matching IDs: 11145
    Region: USA
    Languages: English
    Disc Serial: D83029-4

    Ringcode Information:
        Data Side Mastering Code (laser branded/etched): D83029-4    Technicolor    C2    123867-01    
        Data Side Mastering SID Code: IFPI L892
        Data Side Toolstamp or Mastering Code (engraved/stamped): 
        Data Side Mould SID Code: IFPI 2T09
        Data Side Additional Mould: 
        Label Side Mould SID Code: 
        Label Side Additional Mould: 
    Barcode: 
    Error Count: 0
    Comments:
    Contents: 

Version and Editions:
    Version: 
    Edition/Release: Original

Extras:
    Primary Volume Descriptor (PVD):

0320 : 20 20 20 20 20 20 20 20  20 20 20 20 20 30 30 30                000
0330 : 30 30 30 30 30 30 30 30  30 30 30 30 30 00 30 30   0000000000000.00
0340 : 30 30 30 30 30 30 30 30  30 30 30 30 30 30 00 30   00000000000000.0
0350 : 30 30 30 30 30 30 30 30  30 30 30 30 30 30 30 00   000000000000000.
0360 : 30 30 30 30 30 30 30 30  30 30 30 30 30 30 30 30   0000000000000000
0370 : 00 01 00 00 00 00 00 00  00 00 00 00 00 00 00 00   ................

Copy Protection:
    Copy Protection: None found

Tracks and Write Offsets:
    DAT:

<rom name="Lands of Lore - Guardians of Destiny (USA) (Disc 4).bin" size="775235664" crc="77a381f5" md5="695c85b5230a8d0121318dacb5ce9b28" sha1="a53646bedd46e9704f458c894117b0a91d6312b0" />

    Cuesheet:

FILE "Lands of Lore - Guardians of Destiny (USA) (Disc 4).bin" BINARY
  TRACK 01 MODE1/2352
    INDEX 01 00:00:00

    Write Offset: -22

http://redump.org/disc/11144/
Logs: https://drive.google.com/file/d/1LitVy0 … sp=sharing

Common Disc Info:
    Title: Lands of Lore: Guardians of Destiny
    Foreign Title (Non-latin): 
    Disc Number / Letter: 3
    Disc Title: 
    System: IBM PC Compatible
    Media Type: CD-ROM
    Category: Games
    Matching IDs: 11144
    Region: USA
    Languages: English
    Disc Serial: D83029-3

    Ringcode Information:
        Data Side Mastering Code (laser branded/etched): D83029-3    Technicolor    C2    123866-04
        Data Side Mastering SID Code: IFPI L892
        Data Side Toolstamp or Mastering Code (engraved/stamped): 
        Data Side Mould SID Code: IFPI 2T05
        Data Side Additional Mould: 
        Label Side Mould SID Code: 
        Label Side Additional Mould: 
    Barcode: 
    Error Count: 0
    Comments:
    Contents: 

Version and Editions:
    Version: 
    Edition/Release: Original

Extras:
    Primary Volume Descriptor (PVD):

0320 : 20 20 20 20 20 20 20 20  20 20 20 20 20 30 30 30                000
0330 : 30 30 30 30 30 30 30 30  30 30 30 30 30 00 30 30   0000000000000.00
0340 : 30 30 30 30 30 30 30 30  30 30 30 30 30 30 00 30   00000000000000.0
0350 : 30 30 30 30 30 30 30 30  30 30 30 30 30 30 30 00   000000000000000.
0360 : 30 30 30 30 30 30 30 30  30 30 30 30 30 30 30 30   0000000000000000
0370 : 00 01 00 00 00 00 00 00  00 00 00 00 00 00 00 00   ................

Copy Protection:
    Copy Protection: None found

Tracks and Write Offsets:
    DAT:

<rom name="Lands of Lore - Guardians of Destiny (USA) (Disc 3).bin" size="636747552" crc="057b0145" md5="db6a454ab96b4ce345a3a6cbb58f37f9" sha1="3453d9c6c13f90204242ac6178fcae32600f4c45" />

    Cuesheet:

FILE "Lands of Lore - Guardians of Destiny (USA) (Disc 3).bin" BINARY
  TRACK 01 MODE1/2352
    INDEX 01 00:00:00

    Write Offset: -22

http://redump.org/disc/11143/
Logs: https://drive.google.com/file/d/1cWVvdQ … sp=sharing

Common Disc Info:
    Title: Lands of Lore: Guardians of Destiny
    Foreign Title (Non-latin): 
    Disc Number / Letter: 2
    Disc Title: 
    System: IBM PC Compatible
    Media Type: CD-ROM
    Category: Games
    Matching IDs: 11143
    Region: USA
    Languages: English
    Disc Serial: D83029-2

    Ringcode Information:
        Data Side Mastering Code (laser branded/etched): D83029-2    Technicolor    C2    123865-03
        Data Side Mastering SID Code: IFPI L892
        Data Side Toolstamp or Mastering Code (engraved/stamped): 
        Data Side Mould SID Code: IFPI 2T01
        Data Side Additional Mould: 
        Label Side Mould SID Code: 
        Label Side Additional Mould: 
    Barcode: 
    Error Count: 0
    Comments: 
    Contents: 

Version and Editions:
    Version: 
    Edition/Release: Original

Extras:
    Primary Volume Descriptor (PVD):

0320 : 20 20 20 20 20 20 20 20  20 20 20 20 20 30 30 30                000
0330 : 30 30 30 30 30 30 30 30  30 30 30 30 30 00 30 30   0000000000000.00
0340 : 30 30 30 30 30 30 30 30  30 30 30 30 30 30 00 30   00000000000000.0
0350 : 30 30 30 30 30 30 30 30  30 30 30 30 30 30 30 00   000000000000000.
0360 : 30 30 30 30 30 30 30 30  30 30 30 30 30 30 30 30   0000000000000000
0370 : 00 01 00 00 00 00 00 00  00 00 00 00 00 00 00 00   ................

Copy Protection:
    Copy Protection: None found

Tracks and Write Offsets:
    DAT:

<rom name="Lands of Lore - Guardians of Destiny (USA) (Disc 2).bin" size="749448336" crc="10c09816" md5="b942e83dfaf6c8b56ec7aaf18e7f684f" sha1="c29efcd6f13b08845dacaa17b98da51a667e5c28" />

    Cuesheet:

FILE "Lands of Lore - Guardians of Destiny (USA) (Disc 2).bin" BINARY
  TRACK 01 MODE1/2352
    INDEX 01 00:00:00

    Write Offset: -22

http://redump.org/disc/11142/
Logs: https://drive.google.com/file/d/1caXt2a … sp=sharing

Common Disc Info:
    Title: Lands of Lore: Guardians of Destiny
    Foreign Title (Non-latin): 
    Disc Number / Letter: 1
    Disc Title: 
    System: IBM PC Compatible
    Media Type: CD-ROM
    Category: Games
    Matching IDs: 11142
    Region: USA
    Languages: English
    Disc Serial: D83029-1

    Ringcode Information:
        Data Side Mastering Code (laser branded/etched): D83029-1    Technicolor    C1.1    123864-02
        Data Side Mastering SID Code: IFPI L891
        Data Side Toolstamp or Mastering Code (engraved/stamped): 
        Data Side Mould SID Code: IFPI 2T08
        Data Side Additional Mould: 
        Label Side Mould SID Code: 
        Label Side Additional Mould: 
    Barcode: 
    Error Count: 0
    Comments: Files dated: 9/9/1997
    Contents: 

Version and Editions:
    Version: 
    Edition/Release: Original

Extras:
    Primary Volume Descriptor (PVD):

0320 : 20 20 20 20 20 20 20 20  20 20 20 20 20 30 30 30                000
0330 : 30 30 30 30 30 30 30 30  30 30 30 30 30 00 30 30   0000000000000.00
0340 : 30 30 30 30 30 30 30 30  30 30 30 30 30 30 00 30   00000000000000.0
0350 : 30 30 30 30 30 30 30 30  30 30 30 30 30 30 30 00   000000000000000.
0360 : 30 30 30 30 30 30 30 30  30 30 30 30 30 30 30 30   0000000000000000
0370 : 00 01 00 00 00 00 00 00  00 00 00 00 00 00 00 00   ................

Copy Protection:
    Copy Protection: None found

Tracks and Write Offsets:
    DAT:

<rom name="Lands of Lore - Guardians of Destiny (USA) (Disc 1).bin" size="714697536" crc="1e713b00" md5="fdd4b04aa27db815e2d83099b46519c7" sha1="9de637c31a8e9a3b4174a7d4a65f6346dea73f2c" />

    Cuesheet:

FILE "Lands of Lore - Guardians of Destiny (USA) (Disc 1).bin" BINARY
  TRACK 01 MODE1/2352
    INDEX 01 00:00:00

    Write Offset: -22

http://redump.org/disc/21464/
Logs: https://drive.google.com/file/d/1vpeTeH … sp=sharing

Common Disc Info:
    Title: The Sims 2: Glamour Life Stuff
    Foreign Title (Non-latin): 
    Disc Number / Letter: 
    Disc Title: 
    System: IBM PC Compatible
    Media Type: CD-ROM
    Category: Add-Ons
    Matching IDs: 21464
    Region: USA
    Languages: English, Spanish
    Disc Serial: 1520807

    Ringcode Information:
        Data Side Mastering Code (laser branded/etched): (302738) 1520807 04
        Data Side Mastering SID Code: IFPI LV77
        Data Side Toolstamp or Mastering Code (engraved/stamped): 0102
        Data Side Mould SID Code: 
        Data Side Additional Mould: 
        Label Side Mould SID Code: 
        Label Side Additional Mould: 
    Barcode: 0 14633 15208 1
    Error Count: 585
    Comments: [T:ISBN]: 0-7845-4030-6
    Contents: 

Version and Editions:
    Version: 1.5.0.121
    Edition/Release: Original

Extras:
    Primary Volume Descriptor (PVD):

0320 : 20 20 20 20 20 20 20 20  20 20 20 20 20 32 30 30                200
0330 : 36 30 37 32 31 30 37 32  39 34 38 30 30 00 32 30   6072107294800.20
0340 : 30 36 30 37 32 31 30 37  32 39 34 38 30 30 00 30   06072107294800.0
0350 : 30 30 30 30 30 30 30 30  30 30 30 30 30 30 30 00   000000000000000.
0360 : 30 30 30 30 30 30 30 30  30 30 30 30 30 30 30 30   0000000000000000
0370 : 00 01 00 00 00 00 00 00  00 00 00 00 00 00 00 00   ................

Copy Protection:
    Copy Protection: CD-Key / Serial 1.05.02.01, EA CdKey Registration Module 1.05.02.01, Executable-Based Online Registration 1.0.0.59, SafeDisc 1-3, SafeDisc 2, SafeDisc 4.60.000

Tracks and Write Offsets:
    DAT:

<rom name="Sims 2, The - Glamour Life Stuff (USA) (En,Es).bin" size="354418176" crc="e2ea5b20" md5="59cb3442838b1bcb4fe8795cb3dcbe80" sha1="46df1ff95a2c341ecdad525c13da297d1704081f" />

    Cuesheet:

FILE "Sims 2, The - Glamour Life Stuff (USA) (En,Es).bin" BINARY
  TRACK 01 MODE1/2352
    INDEX 01 00:00:00

    Write Offset: -12

http://redump.org/disc/40605/
Logs: https://drive.google.com/file/d/1qvUbJD … sp=sharing

Common Disc Info:
    Title: The Sims 2: Celebration! Stuff
    Foreign Title (Non-latin): 
    Disc Number / Letter: 
    Disc Title: 
    System: IBM PC Compatible
    Media Type: CD-ROM
    Category: Add-Ons
    Matching IDs: 40605
    Region: USA
    Languages: English, Spanish
    Disc Serial: 1564707

    Ringcode Information:
        Data Side Mastering Code (laser branded/etched): (324086) 1564707    03
        Data Side Mastering SID Code: IFPI L895
        Data Side Toolstamp or Mastering Code (engraved/stamped): 
        Data Side Mould SID Code: IFPI 2T02
        Data Side Additional Mould: NIMBUS/CA
        Label Side Mould SID Code: 
        Label Side Additional Mould: 
    Barcode: 0 14633 15647 8
    Error Count: 581
    Comments: [T:ISBN]: 0-7845-4245-7
    Contents: 

Version and Editions:
    Version: 1.8.0.64
    Edition/Release: Original

Extras:
    Primary Volume Descriptor (PVD):

0320 : 20 20 20 20 20 20 20 20  20 20 20 20 20 32 30 30                200
0330 : 37 30 33 30 32 31 31 34  32 35 35 30 30 00 32 30   7030211425500.20
0340 : 30 37 30 33 30 32 31 31  34 32 35 35 30 30 00 30   07030211425500.0
0350 : 30 30 30 30 30 30 30 30  30 30 30 30 30 30 30 00   000000000000000.
0360 : 30 30 30 30 30 30 30 30  30 30 30 30 30 30 30 30   0000000000000000
0370 : 00 01 00 00 00 00 00 00  00 00 00 00 00 00 00 00   ................

Copy Protection:
    Copy Protection: CD-Key / Serial 1.05.02.01, EA CdKey Registration Module 1.05.02.01, Executable-Based Online Registration 1.0.0.59, SafeDisc 1-3, SafeDisc 2, SafeDisc 4.60.000

Tracks and Write Offsets:
    DAT:

<rom name="Sims 2, The - Celebration! Stuff (USA) (En,Es).bin" size="365119776" crc="2f1cf2d6" md5="c9d7fb421433ff57d4d22ccef82a92f0" sha1="0d5fbb7003988d62babc63ea31c9c8015a9183a2" />

    Cuesheet:

FILE "Sims 2, The - Celebration! Stuff (USA) (En,Es).bin" BINARY
  TRACK 01 MODE1/2352
    INDEX 01 00:00:00

    Write Offset: -12

http://redump.org/disc/37843/
Logs: https://drive.google.com/file/d/1vR_0uG … sp=sharing

Common Disc Info:
    Title: The Sims 2: IKEA Home Stuff
    Foreign Title (Non-latin): 
    Disc Number / Letter: 
    Disc Title: 
    System: IBM PC Compatible
    Media Type: CD-ROM
    Category: Add-Ons
    Matching IDs: 37843
    Region: USA
    Languages: English, Spanish
    Disc Serial: 1578207

    Ringcode Information:
        Data Side Mastering Code (laser branded/etched): 1578207    arvato digital services BERTELSMANN    + +    HF94401
        Data Side Mastering SID Code: IFPI LB48
        Data Side Toolstamp or Mastering Code (engraved/stamped): A04
        Data Side Mould SID Code: IFPI 10J4
        Data Side Additional Mould: 
        Label Side Mould SID Code: 
        Label Side Additional Mould: 
    Barcode: 0 14633 15782 6
    Error Count: 1
    Comments: [T:ISBN]: 0-7845-4520-0, 0-7845-4464-6
    Contents: 

Version and Editions:
    Version: 1.15.0.62
    Edition/Release: Original

Extras:
    Primary Volume Descriptor (PVD):

0320 : 20 20 20 20 20 20 20 20  20 20 20 20 20 32 30 30                200
0330 : 38 30 35 32 37 31 34 34  32 31 31 30 30 E4 32 30   8052714421100.20
0340 : 30 38 30 35 32 37 31 34  34 32 31 31 30 30 E4 30   08052714421100.0
0350 : 30 30 30 30 30 30 30 30  30 30 30 30 30 30 30 00   000000000000000.
0360 : 32 30 30 38 30 35 32 37  31 34 34 32 31 31 30 30   2008052714421100
0370 : E4 01 00 20 20 20 20 20  20 20 20 20 20 20 20 20   ...

Copy Protection:
    Copy Protection: EA CdKey Registration Module 1.08.01.03, SecuROM 7.37.0007
    SubIntention Data (SecuROM/LibCrypt):

MSF: 00:01:74 Q-Data: 410100 00:40:01 00 00:03:74 2ef1
MSF: 01:08:50 Q-Data: 410101 21:06:50 00 05:08:50 0a8f
MSF: 01:20:31 Q-Data: 410101 21:18:31 00 05:20:31 d0ed
MSF: 01:27:55 Q-Data: 410101 11:25:55 00 09:27:55 944d
MSF: 01:39:71 Q-Data: 410101 01:37:70 00 01:39:f1 c0a1
MSF: 02:32:02 Q-Data: 410101 02:30:03 00 02:32:82 e868
MSF: 02:48:61 Q-Data: 410101 02:46:60 00 02:48:e1 6c4c
MSF: 02:51:49 Q-Data: 410101 02:09:49 00 02:53:49 bf57
MSF: 02:53:31 Q-Data: 410101 12:51:31 00 0a:53:31 2ec7
MSF: 02:54:64 Q-Data: 410101 0a:52:64 00 12:54:64 4585
MSF: 03:12:26 Q-Data: 410101 03:10:27 00 03:12:a6 b183

Tracks and Write Offsets:
    DAT:

<rom name="Sims 2, The - IKEA Home Stuff (USA) (En,Es).bin" size="442778112" crc="78dd27b3" md5="4f253b265d4f73a72067f98ff6788c3f" sha1="78cee00595d603acc25c5d9b2e1053c1ec7c0a29" />

    Cuesheet:

FILE "Sims 2, The - IKEA Home Stuff (USA) (En,Es).bin" BINARY
  TRACK 01 MODE1/2352
    INDEX 01 00:00:00

    Write Offset: -12

http://redump.org/disc/82649/
Logs: https://drive.google.com/file/d/196-KVG … sp=sharing

Common Disc Info:
    Title: The Sims 2: University
    Foreign Title (Non-latin): 
    Disc Number / Letter: 2
    Disc Title: Expansion Pack
    System: IBM PC Compatible
    Media Type: CD-ROM
    Category: Games
    Matching IDs: 82649
    Region: USA
    Languages: English, Spanish
    Disc Serial: 1491737

    Ringcode Information:
        Data Side Mastering Code (laser branded/etched): 1491737 R2N
        Data Side Mastering SID Code: IPFI L250
        Data Side Toolstamp or Mastering Code (engraved/stamped): 01
        Data Side Mould SID Code: IFPI 4163
        Data Side Additional Mould: 
        Label Side Mould SID Code: 
        Label Side Additional Mould: 
    Barcode: 0 14633 14917 3
    Error Count: 0
    Comments: [T:ISBN] 0-7845-3582-5
    Contents: 

Version and Editions:
    Version: 1.1.0.286
    Edition/Release: Rerelease

Extras:
    Primary Volume Descriptor (PVD):

0320 : 20 20 20 20 20 20 20 20  20 20 20 20 20 32 30 30                200
0330 : 35 31 30 33 31 31 39 35  39 33 30 30 30 E0 32 30   5103119593000.20
0340 : 30 35 31 30 33 31 31 39  35 39 33 30 30 30 E0 30   05103119593000.0
0350 : 30 30 30 30 30 30 30 30  30 30 30 30 30 30 30 00   000000000000000.
0360 : 32 30 30 35 31 30 33 31  31 39 35 39 33 30 30 30   2005103119593000
0370 : E0 01 00 20 20 20 20 20  20 20 20 20 20 20 20 20   ...

Copy Protection:
    Copy Protection: None found

Tracks and Write Offsets:
    DAT:

<rom name="Sims 2, The - University (Expansion Pack) (USA) (En,Es) (Disc 2) (Rerelease).bin" size="271867680" crc="dd41f853" md5="7c017426442efdbf17bc8c8acb65a8b2" sha1="15e016e3cbd80730dbaef455e94760d175e422d2" />

    Cuesheet:

FILE "Sims 2, The - University (Expansion Pack) (USA) (En,Es) (Disc 2) (Rerelease).bin" BINARY
  TRACK 01 MODE1/2352
    INDEX 01 00:00:00

    Write Offset: 0

http://redump.org/disc/82648/
Logs: https://drive.google.com/file/d/1pSZNjl … sp=sharing

Common Disc Info:
    Title: The Sims 2: University
    Foreign Title (Non-latin): 
    Disc Number / Letter: 1
    Disc Title: Expansion Pack
    System: IBM PC Compatible
    Media Type: CD-ROM
    Category: Games
    Matching IDs: 82648
    Region: USA
    Languages: English, Spanish
    Disc Serial: 1491727

    Ringcode Information:
        Data Side Mastering Code (laser branded/etched): E    1491727 R5N
        Data Side Mastering SID Code: IFPI L250
        Data Side Toolstamp or Mastering Code (engraved/stamped): 01
        Data Side Mould SID Code:     IFPI 4156
        Data Side Additional Mould: 
        Label Side Mould SID Code: 
        Label Side Additional Mould: 
    Barcode: 0 14633 14917 3
    Error Count: 583
    Comments: 0-7845-3582-5
    Contents: 

Version and Editions:
    Version: 1.1.0.286
    Edition/Release: Rerelease

Extras:
    Primary Volume Descriptor (PVD):

0320 : 20 20 20 20 20 20 20 20  20 20 20 20 20 32 30 30                200
0330 : 35 31 30 33 31 31 39 35  36 31 34 30 30 00 32 30   5103119561400.20
0340 : 30 35 31 30 33 31 31 39  35 36 31 34 30 30 00 30   05103119561400.0
0350 : 30 30 30 30 30 30 30 30  30 30 30 30 30 30 30 00   000000000000000.
0360 : 30 30 30 30 30 30 30 30  30 30 30 30 30 30 30 30   0000000000000000
0370 : 00 01 00 00 00 00 00 00  00 00 00 00 00 00 00 00   ................

Copy Protection:
    Copy Protection: CD-Key / Serial, CD-Key / Serial 1.05.04.00, EA CdKey Registration Module 1.05.04.00, Executable-Based Online Registration 1.0.0.58, SafeDisc 1-3, SafeDisc 2, SafeDisc 4.00.001

Tracks and Write Offsets:
    DAT:

<rom name="Sims 2, The - University (Expansion Pack) (USA) (En,Es) (Disc 1) (Rerelease).bin" size="713869632" crc="3b06738d" md5="daa901f6fdfc9000935bedd995f6439a" sha1="42345754841640bdee42fe7f709c504e2fdc87ca" />

    Cuesheet:

FILE "Sims 2, The - University (Expansion Pack) (USA) (En,Es) (Disc 1) (Rerelease).bin" BINARY
  TRACK 01 MODE1/2352
    INDEX 01 00:00:00

    Write Offset: 0

http://redump.org/disc/82650/
Logs: https://drive.google.com/file/d/1U0bPu3 … sp=sharing

Common Disc Info:
    Title: The Sims 2: Open for Business
    Foreign Title (Non-latin): 
    Disc Number / Letter: 
    Disc Title: Expansion Pack
    System: IBM PC Compatible
    Media Type: CD-ROM
    Category: Add-Ons
    Matching IDs: 82650
    Region: USA
    Languages: English, Spanish
    Disc Serial: 1515707

    Ringcode Information:
        Data Side Mastering Code (laser branded/etched): (295501) 1515707 11
        Data Side Mastering SID Code: IFPI LV77
        Data Side Toolstamp or Mastering Code (engraved/stamped): 0102
        Data Side Mould SID Code: 
        Data Side Additional Mould: 
        Label Side Mould SID Code: 
        Label Side Additional Mould: 
    Barcode: 0 14633 15157 2
    Error Count: 584
    Comments: [T:ISBN]: 0-7845-3868-9
    Contents: 

Version and Editions:
    Version: 1.3.0.249
    Edition/Release: Original

Extras:
    Primary Volume Descriptor (PVD):

0320 : 20 20 20 20 20 20 20 20  20 20 20 20 20 32 30 30                200
0330 : 36 30 32 30 36 31 38 30  34 31 39 30 30 00 32 30   6020618041900.20
0340 : 30 36 30 32 30 36 31 38  30 34 31 39 30 30 00 30   06020618041900.0
0350 : 30 30 30 30 30 30 30 30  30 30 30 30 30 30 30 00   000000000000000.
0360 : 30 30 30 30 30 30 30 30  30 30 30 30 30 30 30 30   0000000000000000
0370 : 00 01 00 00 00 00 00 00  00 00 00 00 00 00 00 00   ................

Copy Protection:
    Copy Protection: CD-Key / Serial 1.05.02.01, EA CdKey Registration Module 1.05.02.01, Executable-Based Online Registration 1.0.0.59, SafeDisc 1-3, SafeDisc 2, SafeDisc 4.60.000

Tracks and Write Offsets:
    DAT:

<rom name="Sims 2, The - Open for Business (Expansion Pack) (USA) (En,Es) (Alt).bin" size="740228496" crc="3ce30f0a" md5="164a926d27436ccc70bfea299807916d" sha1="257313e0460448676cee88eb3852a6ed89087965" />

    Cuesheet:

FILE "Sims 2, The - Open for Business (Expansion Pack) (USA) (En,Es) (Alt).bin" BINARY
  TRACK 01 MODE1/2352
    INDEX 01 00:00:00

    Write Offset: -12

http://redump.org/disc/75822/
Logs: https://drive.google.com/file/d/1KjqcDm … sp=sharing

Common Disc Info:
    Title: The Sims 2: Pets
    Foreign Title (Non-latin): 
    Disc Number / Letter: 2
    Disc Title: Expansion Pack
    System: IBM PC Compatible
    Media Type: CD-ROM
    Category: Add-Ons
    Matching IDs: 75822
    Region: USA
    Languages: English
    Disc Serial: 1526317

    Ringcode Information:
        Data Side Mastering Code (laser branded/etched): (335380) 1526317 05
        Data Side Mastering SID Code: IFPI LV77
        Data Side Toolstamp or Mastering Code (engraved/stamped): 0001
        Data Side Mould SID Code: IFPI KK1B
        Data Side Additional Mould: 
        Label Side Mould SID Code: 
        Label Side Additional Mould: 
    Barcode: 0 14633 15263 0
    Error Count: 0
    Comments: [T:ISBN]: 0-7845-4115-9
    Contents: 

Version and Editions:
    Version: 1.6.0.259
    Edition/Release: 

Extras:
    Primary Volume Descriptor (PVD):

0320 : 20 20 20 20 20 20 20 20  20 20 20 20 20 32 30 30                200
0330 : 36 30 39 30 39 30 37 32  31 34 30 30 30 E4 32 30   6090907214000.20
0340 : 30 36 30 39 30 39 30 37  32 31 34 30 30 30 E4 30   06090907214000.0
0350 : 30 30 30 30 30 30 30 30  30 30 30 30 30 30 30 00   000000000000000.
0360 : 32 30 30 36 30 39 30 39  30 37 32 31 34 30 30 30   2006090907214000
0370 : E4 01 00 20 20 20 20 20  20 20 20 20 20 20 20 20   ...

Copy Protection:
    Copy Protection: None found

Tracks and Write Offsets:
    DAT:

<rom name="Sims 2, The - Pets (Expansion Pack) (USA) (Disc 2) (Alt).bin" size="242891040" crc="e937eb1d" md5="73ab29a47635bfa9c39690f55b6c69d0" sha1="f231ba3dcd770266a414129212e5a3dc98e47323" />

    Cuesheet:

FILE "Sims 2, The - Pets (Expansion Pack) (USA) (Disc 2) (Alt).bin" BINARY
  TRACK 01 MODE1/2352
    INDEX 01 00:00:00

    Write Offset: -12

http://redump.org/disc/60992/
Logs: https://drive.google.com/file/d/1h0I-8W … sp=sharing

Common Disc Info:
    Title: The Sims 2: Family Fun Stuff
    Foreign Title (Non-latin): 
    Disc Number / Letter: 
    Disc Title: 
    System: IBM PC Compatible
    Media Type: CD-ROM
    Category: Add-Ons
    Matching IDs: 60992
    Region: USA
    Languages: English, Spanish
    Disc Serial: 1515807

    Ringcode Information:
        Data Side Mastering Code (laser branded/etched): 1515807    **    (EA01515807SP)    C06C2425A    
        Data Side Mastering SID Code: IFPI L771
        Data Side Toolstamp or Mastering Code (engraved/stamped): 
        Data Side Mould SID Code: IFPI 2A3A
        Data Side Additional Mould: 
        Label Side Mould SID Code: 
        Label Side Additional Mould: 
    Barcode: 0 14633 15158 9
    Error Count: 583
    Comments: [T:ISBN]: 0-7845-3869-7
    Contents: 

Version and Editions:
    Version: 
    Edition/Release: Original

Extras:
    Primary Volume Descriptor (PVD):

0320 : 20 20 20 20 20 20 20 20  20 20 20 20 20 32 30 30                200
0330 : 36 30 33 31 36 31 36 35  39 33 38 30 30 00 32 30   6031616593800.20
0340 : 30 36 30 33 31 36 31 36  35 39 33 38 30 30 00 30   06031616593800.0
0350 : 30 30 30 30 30 30 30 30  30 30 30 30 30 30 30 00   000000000000000.
0360 : 30 30 30 30 30 30 30 30  30 30 30 30 30 30 30 30   0000000000000000
0370 : 00 01 00 00 00 00 00 00  00 00 00 00 00 00 00 00   ................

Copy Protection:
    Copy Protection: CD-Key / Serial 1.05.02.01, EA CdKey Registration Module 1.05.02.01, Executable-Based Online Registration 1.0.0.59, SafeDisc 1-3, SafeDisc 2, SafeDisc 4.60.000

Tracks and Write Offsets:
    DAT:

<rom name="Sims 2, The - Family Fun Stuff (USA) (En,Es).bin" size="313639200" crc="06f6fd1d" md5="d80a7bd9722de1ee4a02fe8f38a8c5e5" sha1="f7d24cddd189ea0ca6c0bfc811b5a5bd3f0fc507" />

    Cuesheet:

FILE "Sims 2, The - Family Fun Stuff (USA) (En,Es).bin" BINARY
  TRACK 01 MODE1/2352
    INDEX 01 00:00:00

    Write Offset: -12

http://redump.org/disc/43019/
Logs: https://drive.google.com/file/d/1w_ORNu … sp=sharing

Common Disc Info:
    Title: The Sims 2: Pets
    Foreign Title (Non-latin): 
    Disc Number / Letter: 2
    Disc Title: Expansion Pack
    System: IBM PC Compatible
    Media Type: CD-ROM
    Category: Add-Ons
    Matching IDs: 43019
    Region: USA
    Languages: English
    Disc Serial: 1526317

    Ringcode Information:
        Data Side Mastering Code (laser branded/etched): **    (EA1526317SP)    C0612549C
        Data Side Mastering SID Code: IFPI L771
        Data Side Toolstamp or Mastering Code (engraved/stamped): 
        Data Side Mould SID Code: IFPI 2A3B
        Data Side Additional Mould: 
        Label Side Mould SID Code: 
        Label Side Additional Mould: 
    Barcode: 0 14633 15263 0
    Error Count: 0
    Comments: [T:ISBN]: 0-7845-4115-9
    Contents: 

Version and Editions:
    Version: 1.6.0.259
    Edition/Release: Original

Extras:
    Primary Volume Descriptor (PVD):

0320 : 20 20 20 20 20 20 20 20  20 20 20 20 20 32 30 30                200
0330 : 36 30 39 30 39 30 37 32  31 34 30 30 30 E4 32 30   6090907214000.20
0340 : 30 36 30 39 30 39 30 37  32 31 34 30 30 30 E4 30   06090907214000.0
0350 : 30 30 30 30 30 30 30 30  30 30 30 30 30 30 30 00   000000000000000.
0360 : 32 30 30 36 30 39 30 39  30 37 32 31 34 30 30 30   2006090907214000
0370 : E4 01 00 20 20 20 20 20  20 20 20 20 20 20 20 20   ...

Copy Protection:
    Copy Protection: None found

Tracks and Write Offsets:
    DAT:

<rom name="Sims 2, The - Pets (Expansion Pack) (USA) (Disc 2).bin" size="242538240" crc="0f1bd5ab" md5="e37cb89cc6b6cb84b41caf0a603a4360" sha1="9098eaabe07909319f55895f72832e2cc0049d27" />

    Cuesheet:

FILE "Sims 2, The - Pets (Expansion Pack) (USA) (Disc 2).bin" BINARY
  TRACK 01 MODE1/2352
    INDEX 01 00:00:00

    Write Offset: -12

http://redump.org/disc/43018/
Logs: https://drive.google.com/file/d/1P87Qus … sp=sharing

Common Disc Info:
    Title: The Sims 2: Pets
    Foreign Title (Non-latin): 
    Disc Number / Letter: 1
    Disc Title: Expansion Pack
    System: IBM PC Compatible
    Media Type: CD-ROM
    Category: Add-Ons
    Matching IDs: 43018
    Region: USA
    Languages: English
    Disc Serial: 1526307

    Ringcode Information:
        Data Side Mastering Code (laser branded/etched): (EA1526307SP)    B06I2601A
        Data Side Mastering SID Code: IFPI L772
        Data Side Toolstamp or Mastering Code (engraved/stamped): 
        Data Side Mould SID Code: IFPI 2A51
        Data Side Additional Mould: 
        Label Side Mould SID Code: 
        Label Side Additional Mould: 
    Barcode: 0 14633 15263 0
    Error Count: 585
    Comments: [T:ISBN]: 0-7845-4115-9
    Contents: 

Version and Editions:
    Version: 1.6.0.259
    Edition/Release: Original

Extras:
    Primary Volume Descriptor (PVD):

0320 : 20 20 20 20 20 20 20 20  20 20 20 20 20 32 30 30                200
0330 : 36 30 39 30 39 30 37 32  30 35 39 30 30 00 32 30   6090907205900.20
0340 : 30 36 30 39 30 39 30 37  32 30 35 39 30 30 00 30   06090907205900.0
0350 : 30 30 30 30 30 30 30 30  30 30 30 30 30 30 30 00   000000000000000.
0360 : 30 30 30 30 30 30 30 30  30 30 30 30 30 30 30 30   0000000000000000
0370 : 00 01 00 00 00 00 00 00  00 00 00 00 00 00 00 00   ................

Copy Protection:
    Copy Protection: CD-Key / Serial 1.05.02.01, EA CdKey Registration Module 1.05.02.01, Executable-Based Online Registration 1.0.0.59, SafeDisc 1-3, SafeDisc 2, SafeDisc 4.60.000

Tracks and Write Offsets:
    DAT:

<rom name="Sims 2, The - Pets (Expansion Pack) (USA) (Disc 1).bin" size="574200816" crc="7d6dfa5c" md5="cb1531027d825228d1e5371d07e8629f" sha1="4e8a0ef2a06e3a535c6fa6da2d9786efd3ea0d06" />

    Cuesheet:

FILE "Sims 2, The - Pets (Expansion Pack) (USA) (Disc 1).bin" BINARY
  TRACK 01 MODE1/2352
    INDEX 01 00:00:00

    Write Offset: -12