1

(0 replies, posted in Verifications)

http://redump.org/disc/27572/

Logs: https://drive.google.com/file/d/13bMYAr … sp=sharing

Common Disc Info:
    Title: EarthSiege
    Foreign Title (Non-latin): 
    Disc Number / Letter: 
    Disc Title: 
    System: IBM PC compatible
    Media Type: CD-ROM
    Category: Games
    Matching IDs: 27572
    Region: USA
    Languages: English
    Disc Serial: S630430

    Ringcode Information:
        Data Side Mastering Code (laser branded/etched): 432500    1·    TRIPTYCH CD
        Data Side Mastering SID Code: 
        Data Side Toolstamp or Mastering Code (engraved/stamped): 
        Data Side Mould SID Code: 
        Data Side Additional Mould: 
        Label Side Mould SID Code: 
    Barcode: 
    Error Count: 0
    Comments: [T:ALT] Metaltech: EarthSiege
    Contents: 

Version and Editions:
    Version: 1.0
    Edition/Release: Original

Extras:
    Primary Volume Descriptor (PVD):

0320 : 20 20 20 20 20 20 20 20  20 20 20 20 20 31 39 39                199
0330 : 34 31 30 32 35 30 32 30  35 31 31 30 30 E4 31 39   4102502051100.19
0340 : 39 34 31 30 32 35 30 32  30 35 31 31 30 30 E4 30   94102502051100.0
0350 : 30 30 30 30 30 30 30 30  30 30 30 30 30 30 30 00   000000000000000.
0360 : 30 30 30 30 30 30 30 30  30 30 30 30 30 30 30 30   0000000000000000
0370 : 00 01 00 00 00 00 00 00  00 00 00 00 00 00 00 00   ................

Copy Protection:
    Copy Protection: None found

Tracks and Write Offsets:
    DAT:

<rom name="EarthSiege (USA).bin" size="58611840" crc="5b80ffd9" md5="cec34832b6c1ef27691430edd056f888" sha1="0db67fd95a75032c54ae63eb1b1a7d3345c1f9f1" />

    Cuesheet:

CATALOG 0000000000000
FILE "EarthSiege (USA).bin" BINARY
  TRACK 01 MODE1/2352
    INDEX 01 00:00:00

    Write Offset: -954

http://redump.org/disc/28898/

Logs: https://drive.google.com/file/d/1tjB10g … sp=sharing

Common Disc Info:
    Title: Laura Bow in the Dagger of Amon Ra
    Foreign Title (Non-latin): Roberta Williams' Laura Bow in the Dagger of Amon Ra
    Disc Number / Letter: 
    Disc Title: 
    System: IBM PC compatible
    Media Type: CD-ROM
    Category: Games
    Matching IDs: 28898
    Region: USA
    Languages: English
    Disc Serial: 833324330

    Ringcode Information:
        Data Side Mastering Code (laser branded/etched): DAGGER    DISC MFG., INC (A1)    W.O.# 42614-1
        Data Side Mastering SID Code: 
        Data Side Toolstamp or Mastering Code (engraved/stamped): 
        Data Side Mould SID Code: 
        Data Side Additional Mould: 
        Label Side Mould SID Code: 
    Barcode: 
    Error Count: 0
    Comments: [T:VOL] VOLUME_ID
    Contents: 

Version and Editions:
    Version: 1.1
    Edition/Release: Original

Extras:
    Primary Volume Descriptor (PVD):

0320 : 20 20 20 20 20 20 20 20  20 20 20 20 20 31 39 39                199
0330 : 32 30 31 31 33 31 32 30  30 30 30 30 30 E0 31 39   2011312000000.19
0340 : 39 32 30 31 31 33 31 32  30 30 30 30 30 30 E0 31   92011312000000.1
0350 : 39 39 34 30 31 31 33 31  32 30 30 30 30 30 30 E0   994011312000000.
0360 : 31 39 39 32 30 31 31 33  31 32 30 30 30 30 30 30   1992011312000000
0370 : E0 01 00 00 00 00 00 00  00 00 00 00 00 00 00 00   ................

Copy Protection:
    Copy Protection: None found

Tracks and Write Offsets:
    DAT:

<rom name="Laura Bow in the Dagger of Amon Ra (USA).bin" size="423863328" crc="5ecf13b2" md5="a286dbeaf79728f0351d97768c59220b" sha1="3b6dd24c84016262c4747a309eb02548052aea83" />

    Cuesheet:

CATALOG 0000000000000
FILE "Laura Bow in the Dagger of Amon Ra (USA).bin" BINARY
  TRACK 01 MODE1/2352
    INDEX 01 00:00:00

    Write Offset: 0

http://redump.org/disc/47044/

Logs: https://drive.google.com/file/d/1TfF1LV … sp=sharing

Common Disc Info:
    Title: Broken Sword: The Sleeping Dragon
    Disc Number / Letter: 1
    Disc Title: 
    System: IBM PC compatible
    Media Type: CD-ROM
    Category: Games
    Matching IDs: 47044
    Region: USA
    Languages: English
    Disc Serial: PCO396CD

    Ringcode Information:
        Data Side Mastering Code (laser branded/etched): SATURN    Made in Canada by Saturn    ST3036895A    PCO39620JC1
        Data Side Mastering SID Code: IFPI LG07
        Data Side Toolstamp or Mastering Code (engraved/stamped): 
        Data Side Mould SID Code: IFPI 9L07
        Data Side Additional Mould: 
        Label Side Mould SID Code: 
    Barcode: 6 25904 39650 1
    Error Count: 0
    Comments:

[T:VOL] BSTSD_CD1
[T:ISBN] 1-55345-400-6

    Contents: 

Version and Editions:
    Version: 1.0
    Edition/Release: Original

Extras:
    Primary Volume Descriptor (PVD):

0320 : 20 20 20 20 20 20 20 20  20 20 20 20 20 32 30 30                200
0330 : 33 31 31 30 34 31 34 35  32 30 30 30 30 EC 32 30   3110414520000.20
0340 : 30 33 31 31 30 34 31 34  35 32 30 30 30 30 EC 30   03110414520000.0
0350 : 30 30 30 30 30 30 30 30  30 30 30 30 30 30 30 00   000000000000000.
0360 : 30 30 30 30 30 30 30 30  30 30 30 30 30 30 30 30   0000000000000000
0370 : 00 01 00 00 00 00 00 00  00 00 00 00 00 00 00 00   ................

Copy Protection:
    Copy Protection: StarForce 3.03.027.036

Tracks and Write Offsets:
    DAT:

<rom name="Broken Sword - The Sleeping Dragon (USA) (Disc 1).bin" size="769983648" crc="9a36095b" md5="d88870e02d22ec04e0e614088e98fe07" sha1="4b56559b28e79e8d92fb73b619b5c3266a536188" />

    Cuesheet:

FILE "Broken Sword - The Sleeping Dragon (USA) (Disc 1).bin" BINARY
  TRACK 01 MODE1/2352
    INDEX 01 00:00:00

    Write Offset: 0

http://redump.org/disc/12079/

Logs: https://drive.google.com/file/d/1i8iXvn … sp=sharing

Common Disc Info:
    Title: Broken Sword: The Sleeping Dragon
    Disc Number / Letter: 2
    Disc Title: 
    System: IBM PC compatible
    Media Type: CD-ROM
    Category: Games
    Matching IDs: 12079
    Region: USA
    Languages: English
    Disc Serial: PCO396CD

    Ringcode Information:
        Data Side Mastering Code (laser branded/etched): SATURN    Made in Canada by Saturn    ST3036896A    PCO39620JC2
        Data Side Mastering SID Code: IFPI LG07
        Data Side Toolstamp or Mastering Code (engraved/stamped): 
        Data Side Mould SID Code: IFPI 9L02
        Data Side Additional Mould: 
        Label Side Mould SID Code: 
    Barcode: 6 25904 39650 1
    Error Count: 0
    Comments:

[T:VOL] BSTSD_CD2
[T:ISBN] 1-55345-400-6

    Contents: 

Version and Editions:
    Version: 1.0
    Edition/Release: Original

Extras:
    Primary Volume Descriptor (PVD):

0320 : 20 20 20 20 20 20 20 20  20 20 20 20 20 32 30 30                200
0330 : 33 31 31 30 34 31 34 35  32 30 30 30 30 EC 32 30   3110414520000.20
0340 : 30 33 31 31 30 34 31 34  35 32 30 30 30 30 EC 30   03110414520000.0
0350 : 30 30 30 30 30 30 30 30  30 30 30 30 30 30 30 00   000000000000000.
0360 : 30 30 30 30 30 30 30 30  30 30 30 30 30 30 30 30   0000000000000000
0370 : 00 01 00 00 00 00 00 00  00 00 00 00 00 00 00 00   ................

Copy Protection:
    Copy Protection: None found

Tracks and Write Offsets:
    DAT:

<rom name="Broken Sword - The Sleeping Dragon (USA) (Disc 2).bin" size="686358288" crc="f590808d" md5="78a3ca7ac2c4690b836d29c434b169e6" sha1="c140fff11364431bfa2d4489ef65393171480b98" />

    Cuesheet:

FILE "Broken Sword - The Sleeping Dragon (USA) (Disc 2).bin" BINARY
  TRACK 01 MODE1/2352
    INDEX 01 00:00:00

    Write Offset: 0

http://redump.org/disc/76398/

Logs: https://drive.google.com/file/d/1Y_19E- … sp=sharing

Common Disc Info:
    Title: Circle of Blood
    Disc Number / Letter: 1
    Disc Title: 
    System: IBM PC compatible
    Media Type: CD-ROM
    Category: Games
    Matching IDs: 76398
    Region: USA, Brazil
    Languages: English
    Disc Serial: 

    Ringcode Information:
        Data Side Mastering Code (laser branded/etched): DSK830831RE2 R2F
        Data Side Mastering SID Code: IFPI L239
        Data Side Toolstamp or Mastering Code (engraved/stamped): 11
        Data Side Mould SID Code: IFPI 4111
        Data Side Additional Mould: 
        Label Side Mould SID Code: 
    Barcode: 0 52145 83083 7
    Error Count: 0
    Comments:

[T:VOL] COB
<b>Serial:</b> 901.503.286.816 (Brazil Manual)

    Contents: Circle of Blood Windows Theme

Version and Editions:
    Version: 
    Edition/Release: Original

Extras:
    Primary Volume Descriptor (PVD):

0320 : 20 20 20 20 20 20 20 20  20 20 20 20 20 31 39 39                199
0330 : 36 31 30 31 36 31 31 34  33 32 30 00 00 04 31 39   61016114320...19
0340 : 39 36 31 30 31 36 31 31  34 33 32 30 00 00 04 32   961016114320...2
0350 : 39 39 36 31 30 31 36 31  31 34 33 31 38 00 00 04   9961016114318...
0360 : 31 39 39 36 31 30 31 36  31 31 34 33 31 38 00 00   19961016114318..
0370 : 04 01 00 00 00 00 00 00  00 00 00 00 00 00 00 00   ................

Copy Protection:
    Copy Protection: None found

Tracks and Write Offsets:
    DAT:

<rom name="Circle of Blood (USA, Brazil) (Disc 1).bin" size="734929440" crc="1f292322" md5="43f4dac0c892a0a2fc2b52a251c2060b" sha1="1d5d888a94f987edf14847761f602f0fb20adeba" />

    Cuesheet:

CATALOG 0000000000000
FILE "Circle of Blood (USA, Brazil) (Disc 1).bin" BINARY
  TRACK 01 MODE1/2352
    INDEX 01 00:00:00

    Write Offset: 1176

http://redump.org/disc/76399/

Logs: https://drive.google.com/file/d/1eAznW6 … sp=sharing

Common Disc Info:
    Title: Circle of Blood
    Disc Number / Letter: 2
    Disc Title: 
    System: IBM PC compatible
    Media Type: CD-ROM
    Category: Games
    Matching IDs: 76399
    Region: USA, Brazil
    Languages: English
    Disc Serial: 

    Ringcode Information:
        Data Side Mastering Code (laser branded/etched): DSK830832RE2 R3F
        Data Side Mastering SID Code: IFPI L239
        Data Side Toolstamp or Mastering Code (engraved/stamped): 11
        Data Side Mould SID Code: IFPI 4111
        Data Side Additional Mould: 
        Label Side Mould SID Code: 
    Barcode: 0 52145 83083 7
    Error Count: 0
    Comments:

[T:VOL] COB CD2
<b>Serial:</b> 901.503.286.816 (Brazil Manual)

    Contents: 

Version and Editions:
    Version: 
    Edition/Release: Original

Extras:
    Primary Volume Descriptor (PVD):

0320 : 20 20 20 20 20 20 20 20  20 20 20 20 20 31 39 39                199
0330 : 36 31 30 31 35 31 31 35  33 35 35 30 30 00 31 39   6101511535500.19
0340 : 39 36 31 30 31 35 31 31  35 33 35 35 30 30 00 00   96101511535500..
0350 : 00 00 00 00 00 00 00 00  00 00 00 00 00 00 00 00   ................
0360 : 00 00 00 00 00 00 00 00  00 00 00 00 00 00 00 00   ................
0370 : 00 01 00 00 00 00 00 00  00 00 00 00 00 00 00 00   ................

Copy Protection:
    Copy Protection: None found

Tracks and Write Offsets:
    DAT:

<rom name="Circle of Blood (USA, Brazil) (Disc 2).bin" size="678617856" crc="34595f02" md5="f5eb5d0b7d0b25103c3b80622cc26a73" sha1="375d30a695e66684162997445960d5283cb9a5f3" />

    Cuesheet:

CATALOG 0000000000000
FILE "Circle of Blood (USA, Brazil) (Disc 2).bin" BINARY
  TRACK 01 MODE1/2352
    INDEX 01 00:00:00

    Write Offset: 1176

I tried using a flatbed scanner, but the resolution wasn't high enough (Only does 300 DPI).

My phone was a little better, but getting the right angle was difficult and there were too many reflections.

I ended up going with a 15x handheld magnifying glass with a built in light.
https://www.amazon.com/dp/B08C7KN2YC?ps … ct_details

6

(3 replies, posted in Guests & account requests)

iR0b0t wrote:

Hello,
you are already a member and can make submissions via forums.

Edit:
promoted you with a dumper status.

Great.  I submitted a bunch of dumps through the forums.  Should I resubmit them using New Disc or leave those alone since there doesn't appear to be a way to delete a forum post?

According to the DiscImageCreator WIKI, this drive needs to be on firmware 1.03 or earlier for compatibility.   You will need to downgrade the firmware to use this drive.

Here is a guide to get you started
https://forum.makemkv.com/forum/viewtop … mp;t=19634

8

(3 replies, posted in Guests & account requests)

I have a large number of PC games that are not in the redump.org database.  I have acquired a compatible drive and would like to request an account to make submissions.