1

(0 replies, posted in Verifications)

Common Disc Info:
    Title: Shadowrun
    Foreign Title (Non-latin): シャドウラン
    System: Sega CD / Mega CD
    Media Type: CD-ROM
    Category: Games
    Region: Japan
    Languages: Japanese
    Disc Serial:  T-6602

    Ringcode Information:
        Mastering Code (laser branded/etched): T-66024P-00681    MT    B01
        Mastering SID Code: IFPI L262
        Data-Side Mould SID Code: IFPI 4406
        Additional Mould: M
    Barcode: T4988161 50003 3
    EXE/Build Date: 1993-08
    Error Count: 0

Version and Editions:
    Edition/Release: Original

Extras:
    Primary Volume Descriptor (PVD):

0320 : 20 20 20 20 20 20 20 20  20 20 20 20 20 30 30 30                000
0330 : 30 30 30 30 30 30 30 30  30 30 30 30 30 00 31 39   0000000000000.19
0340 : 39 36 30 31 31 31 31 38  30 36 30 38 30 30 00 30   96011118060800.0
0350 : 30 30 30 30 30 30 30 30  30 30 30 30 30 30 30 00   000000000000000.
0360 : 30 30 30 30 30 30 30 30  30 30 30 30 30 30 30 30   0000000000000000
0370 : 00 01 00 00 00 00 00 00  00 00 00 00 00 00 00 00   ................

    Header:

0100 : 53 45 47 41 20 4D 45 47  41 20 44 52 49 56 45 20   SEGA MEGA DRIVE
0110 : 28 43 29 53 45 47 41 20  31 39 39 33 2E 41 55 47   (C)SEGA 1993.AUG
0120 : 53 48 41 44 4F 57 52 55  4E 20 20 20 20 20 20 20   SHADOWRUN       
0130 : 20 20 20 20 20 20 20 20  20 20 20 20 20 20 20 20                   
0140 : 20 20 20 20 20 20 20 20  20 20 20 20 20 20 20 20                   
0150 : 20 20 20 20 20 20 20 20  20 20 20 20 20 20 20 20                   
0160 : 20 20 20 20 20 20 20 20  20 20 20 20 20 20 20 20                   
0170 : 20 20 20 20 20 20 20 20  20 20 20 20 20 20 20 20                   
0180 : 47 4D 20 20 54 2D 36 36  30 32 34 2D 30 30 20 20   GM  T-66024-00 
0190 : 4A 4D 20 20 20 20 20 20  20 20 20 20 20 20 20 20   JM             
01A0 : 20 20 20 20 20 20 20 20  20 20 20 20 20 20 20 20                   
01B0 : 20 20 20 20 20 20 20 20  20 20 20 20 20 20 20 20                   
01C0 : 20 20 20 20 20 20 20 20  20 20 20 20 20 20 20 20                   
01D0 : 20 20 20 20 20 20 20 20  20 20 20 20 20 20 20 20                   
01E0 : 20 20 20 20 20 20 20 20  20 20 20 20 20 20 20 20                   
01F0 : 4A 20 20 20 20 20 20 20  20 20 20 20 20 20 20 20   J               

Tracks and Write Offsets:
    DAT:

<rom name="Shadowrun (Track 1).bin" size="218696016" crc="04f1bc85" md5="27ed6d15549a8d9cdce6f61f98e2d844" sha1="7942f4fbed5827290ee627b194105fa2ef906201" />
<rom name="Shadowrun (Track 2).bin" size="15690192" crc="01538320" md5="e69347c4e286e16b54ed13a1b43e94ad" sha1="6fe5825b347683028b656b641d222bb17ebf80be" />
<rom name="Shadowrun (Track 3).bin" size="15690192" crc="01538320" md5="e69347c4e286e16b54ed13a1b43e94ad" sha1="6fe5825b347683028b656b641d222bb17ebf80be" />

    Cuesheet:

FILE "Shadowrun (Track 1).bin" BINARY
  TRACK 01 MODE1/2352
    INDEX 01 00:00:00
FILE "Shadowrun (Track 2).bin" BINARY
  TRACK 02 AUDIO
    INDEX 00 00:00:00
    INDEX 01 00:02:00
FILE "Shadowrun (Track 3).bin" BINARY
  TRACK 03 AUDIO
    INDEX 00 00:00:00
    INDEX 01 00:02:00

    Write Offset: 2

Verification data:
https://drive.google.com/file/d/161AivW … sp=sharing

--------------------Disc 1--------------------
Common Disc Info:
    Title: Ecco the Dolphin CD
    Foreign Title (Non-latin): エコー・ザ・ドルフィンCD
    Disc Number / Letter: 1
    Disc Title: Ecco The Dolphin
    System: Sega CD / Mega CD
    Media Type: CD-ROM
    Category: Games
    Region: Japan
    Languages: Japanese
    Disc Serial: G-6041

    Ringcode Information:
        Mastering Code (laser branded/etched): G-6041P-00283    MT    B01
        Mastering SID Code: IFPI L262
        Data-Side Mould SID Code: Q
    Barcode: 4974365560416
    EXE/Build Date: 1994-12
    Error Count: 0
    Comments: Disc 1 of 2.

Version and Editions:
    Edition/Release: Original

Extras:
    Primary Volume Descriptor (PVD):

0320 : 20 20 20 20 20 20 20 20  20 20 20 20 20 31 39 39                199
0330 : 34 31 32 32 38 31 35 33  30 33 34 30 30 00 31 39   4122815303400.19
0340 : 39 34 31 32 32 38 31 35  33 30 33 34 30 30 00 30   94122815303400.0
0350 : 30 30 30 30 30 30 30 30  30 30 30 30 30 30 30 00   000000000000000.
0360 : 30 30 30 30 30 30 30 30  30 30 30 30 30 30 30 30   0000000000000000
0370 : 00 01 00 00 00 00 00 00  00 00 00 00 00 00 00 00   ................

    Header:

0100 : 53 45 47 41 20 4D 45 47  41 20 44 52 49 56 45 20   SEGA MEGA DRIVE
0110 : 28 43 29 53 45 47 41 20  31 39 39 34 2E 44 45 43   (C)SEGA 1994.DEC
0120 : 45 43 43 4F 20 54 48 45  20 44 4F 4C 50 48 49 4E   ECCO THE DOLPHIN
0130 : 20 20 20 20 20 20 20 20  20 20 20 20 20 20 20 20                   
0140 : 20 20 20 20 20 20 20 20  20 20 20 20 20 20 20 20                   
0150 : 45 43 43 4F 20 54 48 45  20 44 4F 4C 50 48 49 4E   ECCO THE DOLPHIN
0160 : 20 20 20 20 20 20 20 20  20 20 20 20 20 20 20 20                   
0170 : 20 20 20 20 20 20 20 20  20 20 20 20 20 20 20 20                   
0180 : 47 4D 20 47 2D 36 30 34  31 20 20 20 20 20 20 20   GM G-6041       
0190 : 4A 20 20 20 20 20 20 20  20 20 20 20 20 20 20 20   J               
01A0 : 20 20 20 20 20 20 20 20  20 20 20 20 20 20 20 20                   
01B0 : 20 20 20 20 20 20 20 20  20 20 20 20 20 20 20 20                   
01C0 : 20 20 20 20 20 20 20 20  20 20 20 20 20 20 20 20                   
01D0 : 20 20 20 20 20 20 20 20  20 20 20 20 20 20 20 20                   
01E0 : 20 20 20 20 20 20 20 20  20 20 20 20 20 20 20 20                   
01F0 : 4A 20 20 20 20 20 20 20  20 20 20 20 20 20 20 20   J               

Tracks and Write Offsets:
    DAT:

<rom name="ECCOJP (Track 01).bin" size="59616144" crc="2885ba0a" md5="ab223ab33e5e97818697beacb59e08b7" sha1="c6c742bbdf6f6663b5e82ceef0941f0f4c1b2bd1" />
<rom name="ECCOJP (Track 02).bin" size="48775776" crc="c65be787" md5="fea47d4ccab6a1dcb178b96f4b5ecf5a" sha1="359d55f5ec3beb8ee03ff4ddfb072794e00837d8" />
<rom name="ECCOJP (Track 03).bin" size="43323840" crc="6563372e" md5="89526944078983bad3f9a9129cc5d3f7" sha1="67bd9414faa8decb924e66533a06da99bc3e07c2" />
<rom name="ECCOJP (Track 04).bin" size="37653168" crc="4614da0f" md5="214434f59414d3b7626f145a5e3648ce" sha1="bfa85b1800e57cfc53de4515d9274089a11b07cd" />
<rom name="ECCOJP (Track 05).bin" size="65731344" crc="5a5fd199" md5="61724c392ed5b3834a77597a7eebc9e6" sha1="190c390504b278d09b43da6f8aecc45ece25e5ee" />
<rom name="ECCOJP (Track 06).bin" size="57631056" crc="90d5839f" md5="95b506fa7f8e3c627642630f0b86d852" sha1="7637f121de22254a2dd974497ef3b3625067fada" />
<rom name="ECCOJP (Track 07).bin" size="59905440" crc="2d17d09d" md5="b47d91718cc8eb93d1cb59beb0768054" sha1="3ba946b0cc0d4cc112a73fcde604b193d484e810" />
<rom name="ECCOJP (Track 08).bin" size="37333296" crc="da20072d" md5="ab3b78137ce684045930ad7fc22d808a" sha1="d35ed6402a653dafd3770ab10ae7177980a5c409" />
<rom name="ECCOJP (Track 09).bin" size="10816848" crc="bfd9a84a" md5="a15544ec09ce23fd5c8162f28ffa9017" sha1="09b05349b8ff58e45daf4868ffaabac9d2184cb2" />
<rom name="ECCOJP (Track 10).bin" size="20737584" crc="64207237" md5="72660b27d04f7e5984cb3aa3b60dfcbb" sha1="1e85735046718ebb9c27c99c1103d56e61654acb" />
<rom name="ECCOJP (Track 11).bin" size="36477168" crc="ed4c03a2" md5="51b98502181b5d2b724a98faf04087a7" sha1="888cff86b9d162bfdc37517d95a13e676eb56780" />
<rom name="ECCOJP (Track 12).bin" size="10812144" crc="3b3985c5" md5="6b9205ca3c48f8934c82a37929be90c1" sha1="65968efb7dbe058045ce8849971c0638da684ba2" />
<rom name="ECCOJP (Track 13).bin" size="37547328" crc="1483fc2b" md5="6027d6f1a11950818165b3f27a2c2319" sha1="9379d2b56d37228e14c79e2f5cd1578b02f35460" />
<rom name="ECCOJP (Track 14).bin" size="37476768" crc="8a40be48" md5="b152086c0a5c0f3587feda3ca575d3e5" sha1="bf636e6dc0bf3364a727c6ba9deea8117676e108" />
<rom name="ECCOJP (Track 15).bin" size="59016384" crc="8ef80399" md5="908dff8e3da1940711b27b7fc0a189c8" sha1="db44b3d2466390b89e3649d69bb521afdded70c8" />
<rom name="ECCOJP (Track 16).bin" size="40350912" crc="966c8df0" md5="f91b1afa4ccf3af0f252cb23f5221c91" sha1="018e60e05e627dc4cb80e46190ca3aae9fd83dea" />

    Cuesheet:

FILE "ECCOJP (Track 01).bin" BINARY
  TRACK 01 MODE1/2352
    INDEX 01 00:00:00
FILE "ECCOJP (Track 02).bin" BINARY
  TRACK 02 AUDIO
    INDEX 00 00:00:00
    INDEX 01 00:02:00
FILE "ECCOJP (Track 03).bin" BINARY
  TRACK 03 AUDIO
    INDEX 00 00:00:00
    INDEX 01 00:02:00
FILE "ECCOJP (Track 04).bin" BINARY
  TRACK 04 AUDIO
    INDEX 00 00:00:00
    INDEX 01 00:02:00
FILE "ECCOJP (Track 05).bin" BINARY
  TRACK 05 AUDIO
    INDEX 00 00:00:00
    INDEX 01 00:02:00
FILE "ECCOJP (Track 06).bin" BINARY
  TRACK 06 AUDIO
    INDEX 00 00:00:00
    INDEX 01 00:02:00
FILE "ECCOJP (Track 07).bin" BINARY
  TRACK 07 AUDIO
    INDEX 00 00:00:00
    INDEX 01 00:02:00
FILE "ECCOJP (Track 08).bin" BINARY
  TRACK 08 AUDIO
    INDEX 00 00:00:00
    INDEX 01 00:02:00
FILE "ECCOJP (Track 09).bin" BINARY
  TRACK 09 AUDIO
    INDEX 00 00:00:00
    INDEX 01 00:02:00
FILE "ECCOJP (Track 10).bin" BINARY
  TRACK 10 AUDIO
    INDEX 00 00:00:00
    INDEX 01 00:02:00
FILE "ECCOJP (Track 11).bin" BINARY
  TRACK 11 AUDIO
    INDEX 00 00:00:00
    INDEX 01 00:02:00
FILE "ECCOJP (Track 12).bin" BINARY
  TRACK 12 AUDIO
    INDEX 00 00:00:00
    INDEX 01 00:02:00
FILE "ECCOJP (Track 13).bin" BINARY
  TRACK 13 AUDIO
    INDEX 00 00:00:00
    INDEX 01 00:02:00
FILE "ECCOJP (Track 14).bin" BINARY
  TRACK 14 AUDIO
    INDEX 00 00:00:00
    INDEX 01 00:02:00
FILE "ECCOJP (Track 15).bin" BINARY
  TRACK 15 AUDIO
    INDEX 00 00:00:00
    INDEX 01 00:02:00
FILE "ECCOJP (Track 16).bin" BINARY
  TRACK 16 AUDIO
    INDEX 00 00:00:00
    INDEX 01 00:02:00

    Write Offset: 2

--------------------Disc 2--------------------

Common Disc Info:
    Title: Ecco The Dolphin CD
    Foreign Title (Non-latin): エコー・ザ・ドルフィンCD
    Disc Number / Letter: 2
    Disc Title: Ecco The Dolphin II
    System: Sega CD / Mega CD
    Media Type: CD-ROM
    Category: Games
    Region: Japan
    Languages: Japanese
    Disc Serial: G-6041

    Ringcode Information:
        Mastering Code (laser branded/etched): G-6041P-00284    MT    B01
        Mastering SID Code: IFPI L262
        Data-Side Mould SID Code: Q
    Barcode: 4974365560416
    EXE/Build Date: 1994-12
    Error Count: 0
    Comments: Disc 2 of 2.

Version and Editions:
    Edition/Release: Original

Extras:
    Primary Volume Descriptor (PVD):

0320 : 20 20 20 20 20 20 20 20  20 20 20 20 20 31 39 39                199
0330 : 35 30 31 30 32 31 35 32  34 33 35 30 30 00 31 39   5010215243500.19
0340 : 39 35 30 31 30 32 31 35  32 34 33 37 30 30 00 30   95010215243700.0
0350 : 30 30 30 30 30 30 30 30  30 30 30 30 30 30 30 00   000000000000000.
0360 : 30 30 30 30 30 30 30 30  30 30 30 30 30 30 30 30   0000000000000000
0370 : 00 01 00 00 00 00 00 00  00 00 00 00 00 00 00 00   ................

    Header:

0100 : 53 45 47 41 20 4D 45 47  41 20 44 52 49 56 45 20   SEGA MEGA DRIVE
0110 : 28 43 29 53 45 47 41 20  31 39 39 34 2E 44 45 43   (C)SEGA 1994.DEC
0120 : 45 43 43 4F 20 54 48 45  20 54 49 44 45 53 20 4F   ECCO THE TIDES O
0130 : 46 20 54 49 4D 45 20 20  20 20 20 20 20 20 20 20   F TIME         
0140 : 20 20 20 20 20 20 20 20  20 20 20 20 20 20 20 20                   
0150 : 45 43 43 4F 20 54 48 45  20 54 49 44 45 53 20 4F   ECCO THE TIDES O
0160 : 46 20 54 49 4D 45 20 20  20 20 20 20 20 20 20 20   F TIME         
0170 : 20 20 20 20 20 20 20 20  20 20 20 20 20 20 20 20                   
0180 : 47 4D 20 47 2D 36 30 34  31 20 20 20 20 20 20 20   GM G-6041       
0190 : 4A 20 20 20 20 20 20 20  20 20 20 20 20 20 20 20   J               
01A0 : 20 20 20 20 20 20 20 20  20 20 20 20 20 20 20 20                   
01B0 : 20 20 20 20 20 20 20 20  20 20 20 20 20 20 20 20                   
01C0 : 20 20 20 20 20 20 20 20  20 20 20 20 20 20 20 20                   
01D0 : 20 20 20 20 20 20 20 20  20 20 20 20 20 20 20 20                   
01E0 : 20 20 20 20 20 20 20 20  20 20 20 20 20 20 20 20                   
01F0 : 4A 20 20 20 20 20 20 20  20 20 20 20 20 20 20 20   J               

Tracks and Write Offsets:
    DAT:

<rom name="EccoIIJP (Track 01).bin" size="150495072" crc="b4165033" md5="ffc496e2eedd3c415027e38f6569c9d3" sha1="ffdb25edec9c4a52e599093126bd09164d988816" />
<rom name="EccoIIJP (Track 02).bin" size="50358672" crc="c672d16b" md5="1f0f9db25724262967fb5e2013ac4067" sha1="7e5a666b0bc60d62c6434dd4da319056533e8018" />
<rom name="EccoIIJP (Track 03).bin" size="48622896" crc="319ecc99" md5="7d44748387c40c25a940c4e54ceea6e7" sha1="9b775bdb7ef24f8aae2d8b20eb77bab663c93c0d" />
<rom name="EccoIIJP (Track 04).bin" size="40393248" crc="adfa166f" md5="763f01bf0fbdf2e875683f51fd049e9c" sha1="c9e71f6bdb692edc621c4e5287e5a78b5e0b3a21" />
<rom name="EccoIIJP (Track 05).bin" size="39744096" crc="84095a17" md5="3e33fc24459d60e13f5178a2d6f7a9b5" sha1="7f7cad14ce3d1b3a575aa750ea0db5a7757086f5" />
<rom name="EccoIIJP (Track 06).bin" size="37415616" crc="4b610760" md5="f58c943ff628bfdbccc991ea7c4210fd" sha1="ee28d46e455d80ef9f9651e58ae194ed50dee0eb" />
<rom name="EccoIIJP (Track 07).bin" size="37248624" crc="bc5499e4" md5="26a7775370b25fd36cc323ad49c38e7a" sha1="a92cde1cb3ab13598381b2e6b2438deb83ebf61b" />
<rom name="EccoIIJP (Track 08).bin" size="35755104" crc="5af7e349" md5="c4606403d3afcae0b0d5a1ba22dc4b71" sha1="e581f0208a5078be83aad25758184cdc72674c20" />
<rom name="EccoIIJP (Track 09).bin" size="34986000" crc="2787f872" md5="34dc0bff7df8ab3d3644f88f7a4d306b" sha1="5c70e05b504b1735a06ba7fa0153159702135268" />
<rom name="EccoIIJP (Track 10).bin" size="30253776" crc="fd1f3c82" md5="b85a25faf38f1bd96a8e8c4495ab7bab" sha1="77ca7c17d43444f9e8215cf0bf0252b624e5584e" />
<rom name="EccoIIJP (Track 11).bin" size="29595216" crc="4e1792fb" md5="a37815ede43797f30e8f7a658bdd7e6b" sha1="df5b2b4c1df6c79f50f7b3282511d4c7a1d061c5" />
<rom name="EccoIIJP (Track 12).bin" size="28913136" crc="2ac6c4b7" md5="f726b2fe6283b687cf12d9aa3cb967d7" sha1="3de7970e94ffc817a638795eb0f9cd98fb65a65b" />
<rom name="EccoIIJP (Track 13).bin" size="23910432" crc="4074cf52" md5="2f4aaf47716c8f81bdf2b0c3052a954f" sha1="f778a6dd3766c817939c423c6ed926bd72c3853a" />
<rom name="EccoIIJP (Track 14).bin" size="15596112" crc="73876890" md5="1a6bf2859adefc7402295a41c4c14993" sha1="bd1c8dc6528bb5fb6a884670a3be769904aa1d7c" />
<rom name="EccoIIJP (Track 15).bin" size="4438224" crc="dc33791a" md5="63e54d12f6f29b08f478fc0305367478" sha1="1149b406bfd45988eaecc3c603a3938e7a523bc7" />
<rom name="EccoIIJP (Track 16).bin" size="49128576" crc="bc6854f0" md5="d94e71925c39e38a8f94bd7799ac4719" sha1="31f730a9fc9d512618fac8e65b5118805562bf8c" />
<rom name="EccoIIJP (Track 17).bin" size="10816848" crc="914261e3" md5="d269b896aa2bb3b960e9b0405cf5a3e2" sha1="e2e4117a169284c382726df23abe487f5875aaa8" />

    Cuesheet:

FILE "EccoIIJP (Track 01).bin" BINARY
  TRACK 01 MODE1/2352
    INDEX 01 00:00:00
FILE "EccoIIJP (Track 02).bin" BINARY
  TRACK 02 AUDIO
    INDEX 00 00:00:00
    INDEX 01 00:02:00
FILE "EccoIIJP (Track 03).bin" BINARY
  TRACK 03 AUDIO
    INDEX 00 00:00:00
    INDEX 01 00:02:00
FILE "EccoIIJP (Track 04).bin" BINARY
  TRACK 04 AUDIO
    INDEX 00 00:00:00
    INDEX 01 00:02:00
FILE "EccoIIJP (Track 05).bin" BINARY
  TRACK 05 AUDIO
    INDEX 00 00:00:00
    INDEX 01 00:02:00
FILE "EccoIIJP (Track 06).bin" BINARY
  TRACK 06 AUDIO
    INDEX 00 00:00:00
    INDEX 01 00:02:00
FILE "EccoIIJP (Track 07).bin" BINARY
  TRACK 07 AUDIO
    INDEX 00 00:00:00
    INDEX 01 00:02:00
FILE "EccoIIJP (Track 08).bin" BINARY
  TRACK 08 AUDIO
    INDEX 00 00:00:00
    INDEX 01 00:02:00
FILE "EccoIIJP (Track 09).bin" BINARY
  TRACK 09 AUDIO
    INDEX 00 00:00:00
    INDEX 01 00:02:00
FILE "EccoIIJP (Track 10).bin" BINARY
  TRACK 10 AUDIO
    INDEX 00 00:00:00
    INDEX 01 00:02:00
FILE "EccoIIJP (Track 11).bin" BINARY
  TRACK 11 AUDIO
    INDEX 00 00:00:00
    INDEX 01 00:02:00
FILE "EccoIIJP (Track 12).bin" BINARY
  TRACK 12 AUDIO
    INDEX 00 00:00:00
    INDEX 01 00:02:00
FILE "EccoIIJP (Track 13).bin" BINARY
  TRACK 13 AUDIO
    INDEX 00 00:00:00
    INDEX 01 00:02:00
FILE "EccoIIJP (Track 14).bin" BINARY
  TRACK 14 AUDIO
    INDEX 00 00:00:00
    INDEX 01 00:02:00
FILE "EccoIIJP (Track 15).bin" BINARY
  TRACK 15 AUDIO
    INDEX 00 00:00:00
    INDEX 01 00:02:00
FILE "EccoIIJP (Track 16).bin" BINARY
  TRACK 16 AUDIO
    INDEX 00 00:00:00
    INDEX 01 00:02:00
FILE "EccoIIJP (Track 17).bin" BINARY
  TRACK 17 AUDIO
    INDEX 00 00:00:00
    INDEX 01 00:02:00

    Write Offset: 2

https://drive.google.com/file/d/1Zu8K1F … sp=sharing

3

(0 replies, posted in Verifications)

Common Disc Info:
    Title: Elevator Action²: Returns
    Foreign Title (Non-latin): エレベーター・アクション・エレベーター・アクション~リターンズ~
    System: Sega Saturn
    Media Type: CD-ROM
    Category: Games
    Region: Japanese
    Languages: English
    Disc Serial: T-19903G

    Ringcode Information:
        Mastering Code (laser branded/etched): T-19903GP-01322    A
        Data-Side Mould SID Code: IFPI 3Q0C
    EXE/Build Date: 19961227
    Error Count: 0

Version and Editions:
    Version: V1.002
    Edition/Release: Original

Extras:
    Primary Volume Descriptor (PVD):

0320 : 20 20 20 20 20 20 20 20  20 20 20 20 20 31 39 39                199
0330 : 36 30 34 30 31 30 30 30  30 30 30 30 30 24 31 39   6040100000000$19
0340 : 39 36 31 32 32 37 30 30  30 30 30 30 30 30 24 30   96122700000000$0
0350 : 30 30 30 30 30 30 30 30  30 30 30 30 30 30 30 00   000000000000000.
0360 : 30 30 30 30 30 30 30 30  30 30 30 30 30 30 30 30   0000000000000000
0370 : 00 01 00 00 00 00 00 00  00 00 00 00 00 00 00 00   ................

    Header:

0000 : 53 45 47 41 20 53 45 47  41 53 41 54 55 52 4E 20   SEGA SEGASATURN
0010 : 53 45 47 41 20 54 50 20  54 2D 31 39 39 20 20 20   SEGA TP T-199   
0020 : 54 2D 31 39 39 30 33 47  20 20 56 31 2E 30 30 32   T-19903G  V1.002
0030 : 31 39 39 36 31 32 32 37  43 44 2D 31 2F 31 20 20   19961227CD-1/1 
0040 : 4A 20 20 20 20 20 20 20  20 20 20 20 20 20 20 20   J               
0050 : 4A 20 20 20 20 20 20 20  20 20 20 20 20 20 20 20   J               
0060 : 45 4C 45 56 41 54 4F 52  20 41 43 54 49 4F 4E 20   ELEVATOR ACTION
0070 : 52 45 54 55 52 4E 53 20  20 20 20 20 20 20 20 20   RETURNS         
0080 : 20 20 20 20 20 20 20 20  20 20 20 20 20 20 20 20                   
0090 : 20 20 20 20 20 20 20 20  20 20 20 20 20 20 20 20                   
00A0 : 20 20 20 20 20 20 20 20  20 20 20 20 20 20 20 20                   
00B0 : 20 20 20 20 20 20 20 20  20 20 20 20 20 20 20 20                   
00C0 : 20 20 20 20 20 20 20 20  20 20 20 20 20 20 20 20                   
00D0 : 00 00 00 00 00 00 00 00  00 00 00 00 00 00 00 00   ................
00E0 : 00 00 18 00 00 00 00 00  00 00 00 00 00 00 00 00   ................
00F0 : 06 00 40 00 00 00 00 00  00 00 00 00 00 00 00 00   ..@.............

Tracks and Write Offsets:
    DAT:

<rom name="ELEVATOR_ACTION_RETURNS (Track 01).bin" size="12211584" crc="52a20f10" md5="b3ef66f9cbc8b007560c4a5d11c69aed" sha1="a386344ac4167479dd82068b04200dec4a9e275a" />
<rom name="ELEVATOR_ACTION_RETURNS (Track 02).bin" size="35000112" crc="97749563" md5="d27f6d1c6e7b0e6fe242243592ab3537" sha1="97dc696ce78beb0253c76c3804d4848f6986abdd" />
<rom name="ELEVATOR_ACTION_RETURNS (Track 03).bin" size="26850432" crc="13d1be8b" md5="358ba4ab25deac54fa7cd1c236524ec4" sha1="94707cf79f22a4a11e2d17b890821947b458f7ab" />
<rom name="ELEVATOR_ACTION_RETURNS (Track 04).bin" size="30641856" crc="a0ad09d2" md5="ab803d8373dfb344b1906cd76ca55a8c" sha1="0e776c5fcad26cbe320d21c2b57f49ea2e13e1f5" />
<rom name="ELEVATOR_ACTION_RETURNS (Track 05).bin" size="31836672" crc="d73fea96" md5="7c8241d2eebd050ee34f5fc54880ab9a" sha1="4b9f46247bd259cf7586cce1c03c2b39070d1aa6" />
<rom name="ELEVATOR_ACTION_RETURNS (Track 06).bin" size="1394736" crc="f4ad229a" md5="602bbe27a7a14ef6a38c666d5292df06" sha1="07d69c7643dfdc7b4ae36df3db793f01c0f256df" />
<rom name="ELEVATOR_ACTION_RETURNS (Track 07).bin" size="8180256" crc="6919d7a6" md5="edd126a970dc26d8071d50fc19904eb1" sha1="141981e014a0b6f6ed11c56b8ca956a1360e65ba" />
<rom name="ELEVATOR_ACTION_RETURNS (Track 08).bin" size="2333184" crc="946e2349" md5="d28705de651cfc7c778ffffd3262cd73" sha1="4bf147f6f089422dbf7a29c4f48dec97662a8c74" />
<rom name="ELEVATOR_ACTION_RETURNS (Track 09).bin" size="9008160" crc="63b4a3b0" md5="f6d197a12e8ac7e24ea27cf1e4fcb565" sha1="3b1a6595bc556e24667984be43de780ec3a8ddf3" />
<rom name="ELEVATOR_ACTION_RETURNS (Track 10).bin" size="9012864" crc="9775a633" md5="9a6e5e3aacdc8225a606d03139d8f8b4" sha1="3738a75775094d120deb6c13bd9de5ad52b4a389" />
<rom name="ELEVATOR_ACTION_RETURNS (Track 11).bin" size="9034032" crc="f6457d1f" md5="aefb7aad21d6bf7e977e2f836b359ddd" sha1="16ee641c5bd01fb11f846c82f93d306f29a61049" />
<rom name="ELEVATOR_ACTION_RETURNS (Track 12).bin" size="6018768" crc="1c6197ac" md5="5424fcba47603c3a34764e2560caeace" sha1="faf2231498b8d742e56d22b7fb27217317a9c8af" />
<rom name="ELEVATOR_ACTION_RETURNS (Track 13).bin" size="19608624" crc="a63ed696" md5="d7cedb614e7b405fea105bbd2211b484" sha1="c361c6f8b192eaf43bea5e60c3794113d4897f37" />
<rom name="ELEVATOR_ACTION_RETURNS (Track 14).bin" size="18982992" crc="d4d49603" md5="036b83e5053ffdab6262b6c46c5e6683" sha1="77807a6393efd2b93ae643b0ba5fa4cea7e8b8e0" />
<rom name="ELEVATOR_ACTION_RETURNS (Track 15).bin" size="23416512" crc="c21bbb4e" md5="6dbbb983b0b078cd5598ebbb0900e1ca" sha1="4e875fb551079abf246813baa335f04050d979fb" />
<rom name="ELEVATOR_ACTION_RETURNS (Track 16).bin" size="29444688" crc="f8350b4b" md5="c6734fceb3f10034d86fce995ff6fc52" sha1="4ba139451007d5a75953919dac844cb31f9280d4" />
<rom name="ELEVATOR_ACTION_RETURNS (Track 17).bin" size="22445136" crc="0f39a056" md5="9189c0c31975ebdf4053d549d5e7719d" sha1="0572415fcdaed62b4f8ceb2dafc53ee14d4377b4" />
<rom name="ELEVATOR_ACTION_RETURNS (Track 18).bin" size="42590016" crc="ebf44b5f" md5="b78d9ffaa1fe2982d2032231b5476a9c" sha1="28d5dd46556839382f42bbccd8cda65e04d38c2b" />
<rom name="ELEVATOR_ACTION_RETURNS (Track 19).bin" size="21426720" crc="4fdbed66" md5="f21964b5a0305d863e42dc0bae1b16ee" sha1="0085e0cdcd8bace8185d5d7e13bcdc03aa7d26af" />
<rom name="ELEVATOR_ACTION_RETURNS (Track 20).bin" size="21325584" crc="60300bb0" md5="62e0563df416628aa8f90aaa54a7dec9" sha1="067e1030996bbc96991a62e3889381ecd3738c70" />
<rom name="ELEVATOR_ACTION_RETURNS (Track 21).bin" size="31886064" crc="df05b54b" md5="da7f861bbab9f1a5ce53dea64099f03d" sha1="d76e8eba925beddc64ae89df873ad213edaad748" />
<rom name="ELEVATOR_ACTION_RETURNS (Track 22).bin" size="7578144" crc="b9cbe2b7" md5="4db486df458f7b097a2d2c82b09e9f58" sha1="a3a732d4df7cfa7f26b2b0d7316c0b774ebef9f4" />
<rom name="ELEVATOR_ACTION_RETURNS (Track 23).bin" size="21001008" crc="b6cf244d" md5="a7c82fa2baf244746525bf025b3db6fc" sha1="87c96168003b7e4a4b1182ee736063a297580553" />
<rom name="ELEVATOR_ACTION_RETURNS (Track 24).bin" size="21417312" crc="ff59bcf8" md5="cfb291bdfbdf55604da6b3391f805834" sha1="f10b29024570e9799c4a7cdaf001d6f19e70f301" />
<rom name="ELEVATOR_ACTION_RETURNS (Track 25).bin" size="39052608" crc="b2bb7013" md5="86b1760084dbac5920e1966236e33821" sha1="b24b7ac3855715617552b5488f4b0330803d7e1e" />
<rom name="ELEVATOR_ACTION_RETURNS (Track 26).bin" size="26721072" crc="6b2afe4e" md5="badd8cedc329a2c73165bc828a1ba056" sha1="05bea3774f2df6d83d6cda783c22afaef07173fb" />
<rom name="ELEVATOR_ACTION_RETURNS (Track 27).bin" size="21311472" crc="432d283d" md5="5e7a45c815f8583a39de5f769c0a37c5" sha1="4e0487614414210ad2d369fc0d918334dbf573d6" />
<rom name="ELEVATOR_ACTION_RETURNS (Track 28).bin" size="17891664" crc="6d35cbab" md5="c9fff40b7cfe3d0c7247535c86be62ee" sha1="d2e488f7003bdbe8c2709564ec87d2a74012dca8" />

    Cuesheet:

FILE "ELEVATOR_ACTION_RETURNS (Track 01).bin" BINARY
  TRACK 01 MODE1/2352
    INDEX 01 00:00:00
FILE "ELEVATOR_ACTION_RETURNS (Track 02).bin" BINARY
  TRACK 02 AUDIO
    INDEX 00 00:00:00
    INDEX 01 00:02:00
FILE "ELEVATOR_ACTION_RETURNS (Track 03).bin" BINARY
  TRACK 03 AUDIO
    INDEX 00 00:00:00
    INDEX 01 00:02:00
FILE "ELEVATOR_ACTION_RETURNS (Track 04).bin" BINARY
  TRACK 04 AUDIO
    INDEX 00 00:00:00
    INDEX 01 00:02:00
FILE "ELEVATOR_ACTION_RETURNS (Track 05).bin" BINARY
  TRACK 05 AUDIO
    INDEX 00 00:00:00
    INDEX 01 00:02:00
FILE "ELEVATOR_ACTION_RETURNS (Track 06).bin" BINARY
  TRACK 06 AUDIO
    INDEX 00 00:00:00
    INDEX 01 00:02:00
FILE "ELEVATOR_ACTION_RETURNS (Track 07).bin" BINARY
  TRACK 07 AUDIO
    INDEX 00 00:00:00
    INDEX 01 00:02:00
FILE "ELEVATOR_ACTION_RETURNS (Track 08).bin" BINARY
  TRACK 08 AUDIO
    INDEX 00 00:00:00
    INDEX 01 00:02:00
FILE "ELEVATOR_ACTION_RETURNS (Track 09).bin" BINARY
  TRACK 09 AUDIO
    INDEX 00 00:00:00
    INDEX 01 00:02:00
FILE "ELEVATOR_ACTION_RETURNS (Track 10).bin" BINARY
  TRACK 10 AUDIO
    INDEX 00 00:00:00
    INDEX 01 00:02:00
FILE "ELEVATOR_ACTION_RETURNS (Track 11).bin" BINARY
  TRACK 11 AUDIO
    INDEX 00 00:00:00
    INDEX 01 00:02:00
FILE "ELEVATOR_ACTION_RETURNS (Track 12).bin" BINARY
  TRACK 12 AUDIO
    INDEX 00 00:00:00
    INDEX 01 00:02:00
FILE "ELEVATOR_ACTION_RETURNS (Track 13).bin" BINARY
  TRACK 13 AUDIO
    INDEX 00 00:00:00
    INDEX 01 00:02:00
FILE "ELEVATOR_ACTION_RETURNS (Track 14).bin" BINARY
  TRACK 14 AUDIO
    INDEX 00 00:00:00
    INDEX 01 00:02:00
FILE "ELEVATOR_ACTION_RETURNS (Track 15).bin" BINARY
  TRACK 15 AUDIO
    INDEX 00 00:00:00
    INDEX 01 00:02:00
FILE "ELEVATOR_ACTION_RETURNS (Track 16).bin" BINARY
  TRACK 16 AUDIO
    INDEX 00 00:00:00
    INDEX 01 00:02:00
FILE "ELEVATOR_ACTION_RETURNS (Track 17).bin" BINARY
  TRACK 17 AUDIO
    INDEX 00 00:00:00
    INDEX 01 00:02:00
FILE "ELEVATOR_ACTION_RETURNS (Track 18).bin" BINARY
  TRACK 18 AUDIO
    INDEX 00 00:00:00
    INDEX 01 00:02:00
FILE "ELEVATOR_ACTION_RETURNS (Track 19).bin" BINARY
  TRACK 19 AUDIO
    INDEX 00 00:00:00
    INDEX 01 00:02:00
FILE "ELEVATOR_ACTION_RETURNS (Track 20).bin" BINARY
  TRACK 20 AUDIO
    INDEX 00 00:00:00
    INDEX 01 00:02:00
FILE "ELEVATOR_ACTION_RETURNS (Track 21).bin" BINARY
  TRACK 21 AUDIO
    INDEX 00 00:00:00
    INDEX 01 00:02:00
FILE "ELEVATOR_ACTION_RETURNS (Track 22).bin" BINARY
  TRACK 22 AUDIO
    INDEX 00 00:00:00
    INDEX 01 00:02:00
FILE "ELEVATOR_ACTION_RETURNS (Track 23).bin" BINARY
  TRACK 23 AUDIO
    INDEX 00 00:00:00
    INDEX 01 00:02:00
FILE "ELEVATOR_ACTION_RETURNS (Track 24).bin" BINARY
  TRACK 24 AUDIO
    INDEX 00 00:00:00
    INDEX 01 00:02:00
FILE "ELEVATOR_ACTION_RETURNS (Track 25).bin" BINARY
  TRACK 25 AUDIO
    INDEX 00 00:00:00
    INDEX 01 00:02:00
FILE "ELEVATOR_ACTION_RETURNS (Track 26).bin" BINARY
  TRACK 26 AUDIO
    INDEX 00 00:00:00
    INDEX 01 00:02:00
FILE "ELEVATOR_ACTION_RETURNS (Track 27).bin" BINARY
  TRACK 27 AUDIO
    INDEX 00 00:00:00
    INDEX 01 00:02:00
FILE "ELEVATOR_ACTION_RETURNS (Track 28).bin" BINARY
  TRACK 28 AUDIO
    INDEX 00 00:00:00
    INDEX 01 00:02:00

    Write Offset: 18

https://drive.google.com/file/d/1Nstipm … sp=sharing

4

(0 replies, posted in Verifications)

Will dump the Japanese version later; this one was blue status last time I checked.

Common Disc Info:
    Title: NBA Jam
    System: Sega CD / Mega CD
    Media Type: CD-ROM
    Category: Games
    Region: USA
    Languages: English
    Disc Serial:  T-8103

    Ringcode Information:
        Mastering Code (laser branded/etched): CDAC-074200    4
        Additional Mould: 1
    Barcode: 0 21481 90000 9
    EXE/Build Date: 1994-09
    Error Count: 0

Version and Editions:
    Edition/Release: Original

Extras:
    Primary Volume Descriptor (PVD):

0320 : 20 20 20 20 20 20 20 20  20 20 20 20 20 31 39 39                199
0330 : 34 30 39 32 37 31 33 32  38 35 34 30 30 00 31 39   4092713285400.19
0340 : 39 34 30 39 32 37 31 33  32 38 35 34 30 30 00 30   94092713285400.0
0350 : 30 30 30 30 30 30 30 30  30 30 30 30 30 30 30 00   000000000000000.
0360 : 30 30 30 30 30 30 30 30  30 30 30 30 30 30 30 30   0000000000000000
0370 : 00 01 00 00 00 00 00 00  00 00 00 00 00 00 00 00   ................

    Header:

0100 : 53 45 47 41 20 47 45 4E  45 53 49 53 20 20 20 20   SEGA GENESIS   
0110 : 28 43 29 54 2D 38 31 20  31 39 39 34 2E 53 45 50   (C)T-81 1994.SEP
0120 : 4E 42 41 4A 41 4D 20 20  20 20 20 20 20 20 20 20   NBAJAM         
0130 : 52 41 4D 20 20 20 20 20  20 20 20 20 20 20 20 20   RAM             
0140 : 20 20 20 20 20 20 20 20  20 20 20 20 20 20 20 20                   
0150 : 4E 42 41 4A 41 4D 20 20  20 20 20 20 20 20 20 20   NBAJAM         
0160 : 52 41 4D 20 20 20 20 20  20 20 20 20 20 20 20 20   RAM             
0170 : 20 20 20 20 20 20 20 20  20 20 20 20 20 20 20 20                   
0180 : 47 4D 20 20 54 2D 38 31  30 33 35 2D 30 30 20 20   GM  T-81035-00 
0190 : 4A 20 20 20 20 20 20 20  20 20 20 20 20 20 20 20   J               
01A0 : 20 20 20 20 20 20 20 20  20 20 20 20 20 20 20 20                   
01B0 : 20 20 20 20 20 20 20 20  20 20 20 20 20 20 20 20                   
01C0 : 20 20 20 20 20 20 20 20  20 20 20 20 20 20 20 20                   
01D0 : 20 20 20 20 20 20 20 20  20 20 20 20 20 20 20 20                   
01E0 : 20 20 20 20 20 20 20 20  20 20 20 20 20 20 20 20                   
01F0 : 55 20 20 20 20 20 20 20  20 20 20 20 20 20 20 20   U               

Tracks and Write Offsets:
    DAT:

<rom name="NBA_JAM_SEGA_CD (Track 1).bin" size="51240672" crc="55fe001d" md5="3017c771d419f2d1ba798214c9c25401" sha1="1d214e0cd0c137d1aa67aeaff6f5a6452429a102" />
<rom name="NBA_JAM_SEGA_CD (Track 2).bin" size="52350816" crc="9184b102" md5="60c02b62e5447636fcdfc0572b7ac5b4" sha1="5fd5a1aad42b6894dcf5316575388a461433cef0" />
<rom name="NBA_JAM_SEGA_CD (Track 3).bin" size="47197584" crc="f4a22785" md5="c43394b4ca0f25e9b50b957f3dfbe171" sha1="cd8dfed6d94331ee54503264e004965cae305068" />
<rom name="NBA_JAM_SEGA_CD (Track 4).bin" size="45998064" crc="ba58f6e0" md5="2e9b99d6b8f19cd84008ac127236947c" sha1="c192e39aed32f518185b6608087790ef688d6f43" />
<rom name="NBA_JAM_SEGA_CD (Track 5).bin" size="56036400" crc="a90bd1a1" md5="c910528583fd102ea1b07209690d0796" sha1="ecae6b11c147f174df1f558a91108b69b0034d70" />
<rom name="NBA_JAM_SEGA_CD (Track 6).bin" size="54811008" crc="a269245d" md5="f95718efbd2814a7827697b63683aab5" sha1="b33b5f0a726e049afc85191f1a09ea3fd702db69" />
<rom name="NBA_JAM_SEGA_CD (Track 7).bin" size="60679248" crc="79ac4fbd" md5="b60f2449ef968643bf0428d7b98c3d03" sha1="d4e4e0e63e091a4fdb839f65337c58ea86063676" />
<rom name="NBA_JAM_SEGA_CD (Track 8).bin" size="59430336" crc="b79f290c" md5="5f1507f268ea9467a05383a0b5387bb0" sha1="90caba972ec7d46f8cce7e303f2d78c9f68cf4c5" />
<rom name="NBA_JAM_SEGA_CD (Track 9).bin" size="1905120" crc="5e289678" md5="7a764d69414aa668330c9d99a7dba729" sha1="37591b1b409a9fdca23a93a4a0f7bce7a3cdc7ea" />

    Cuesheet:

FILE "NBA_JAM_SEGA_CD (Track 1).bin" BINARY
  TRACK 01 MODE1/2352
    INDEX 01 00:00:00
FILE "NBA_JAM_SEGA_CD (Track 2).bin" BINARY
  TRACK 02 AUDIO
    INDEX 00 00:00:00
    INDEX 01 00:02:00
FILE "NBA_JAM_SEGA_CD (Track 3).bin" BINARY
  TRACK 03 AUDIO
    INDEX 00 00:00:00
    INDEX 01 00:02:00
FILE "NBA_JAM_SEGA_CD (Track 4).bin" BINARY
  TRACK 04 AUDIO
    INDEX 00 00:00:00
    INDEX 01 00:02:00
FILE "NBA_JAM_SEGA_CD (Track 5).bin" BINARY
  TRACK 05 AUDIO
    INDEX 00 00:00:00
    INDEX 01 00:02:00
FILE "NBA_JAM_SEGA_CD (Track 6).bin" BINARY
  TRACK 06 AUDIO
    INDEX 00 00:00:00
    INDEX 01 00:02:00
FILE "NBA_JAM_SEGA_CD (Track 7).bin" BINARY
  TRACK 07 AUDIO
    INDEX 00 00:00:00
    INDEX 01 00:02:00
FILE "NBA_JAM_SEGA_CD (Track 8).bin" BINARY
  TRACK 08 AUDIO
    INDEX 00 00:00:00
    INDEX 01 00:02:00
FILE "NBA_JAM_SEGA_CD (Track 9).bin" BINARY
  TRACK 09 AUDIO
    INDEX 00 00:00:00
    INDEX 01 00:02:00

    Write Offset: 2

https://drive.google.com/file/d/1plEugD … sp=sharing