1

(0 replies, posted in Verifications)

Common Disc Info:
    Title: Utility Disc
    Foreign Title (Non-latin): ユーティリティディスク
    Disc Number / Letter: N/A
    Disc Title: N/A
    System: Sony PlayStation 2
    Media Type: CD-ROM
    Category: Applications
    Fully Matching ID: 23522
    Region: Japan
    Languages: Japanese
    Disc Serial: PBPX 95201

    Ringcode Information:
        Data Side Mastering Code (laser branded/etched): PBPX-95201  2
        Data Side Mastering SID Code: IFPI L275
        Data Side Toolstamp or Mastering Code (engraved/stamped): N/A
        Data Side Mould SID Code: IFPI 4578
        Data Side Additional Mould: N/A
        Label Side Mould SID Code: N/A
    Barcode: N/A
    EXE/Build Date: 2000-03-03
    Error Count: 0
    Comments:

[T:ISN] PBPX-95201
<b>ID Below Serial Number:</b> 3-061-046-01 (Disc), 3-061-047-01 (Sleeve)
<b>ID on the manual:</b> PSN2-3 / 3-061-048-02
Title on sleeve: Utility Disc
Title on disc: Utility Disc Version 1.00

    Contents: (OPTIONAL)

Version and Editions:
    Version: 1.00
    Edition/Release: (VERIFY THIS) Original

Extras:
    Primary Volume Descriptor (PVD):

0320 : 20 20 20 20 20 20 20 20  20 20 20 20 20 32 30 30                200
0330 : 30 30 32 31 36 32 32 30  30 30 30 30 30 24 30 30   0021622000000$00
0340 : 30 30 30 30 30 30 30 30  30 30 30 30 30 30 00 30   00000000000000.0
0350 : 30 30 30 30 30 30 30 30  30 30 30 30 30 30 30 00   000000000000000.
0360 : 30 30 30 30 30 30 30 30  30 30 30 30 30 30 30 30   0000000000000000
0370 : 00 01 00 00 00 00 00 00  00 00 00 00 00 00 00 00   ................

Tracks and Write Offsets:
    DAT:

<rom name="PBPX_95201.bin" size="751993200" crc="16174efe" md5="a777a7661e375447731601254d26fea9" sha1="caa1cfadbfb1693c4ac112c14546e4158b222d80" />

    Cuesheet:

FILE "PBPX_95201.bin" BINARY
  TRACK 01 MODE2/2352
    INDEX 01 00:00:00

    Write Offset: 1

Redump: http://redump.org/disc/23522
Verification data: https://drive.google.com/file/d/1W-Ie2y … sp=sharing

2

(0 replies, posted in Verifications)

Common Disc Info:
    Title: Utility Disc Version 1.01
    Foreign Title (Non-latin): ユーティリティディスクVersion1.01
    Disc Number / Letter: N/A
    Disc Title: N/A
    System: Sony PlayStation 2
    Media Type: CD-ROM
    Category: Applications
    Fully Matching ID: 13755
    Region: Japan
    Languages: Japanese
    Disc Serial: PBPX 95202

    Ringcode Information:
        Data Side Mastering Code (laser branded/etched): PBPX-95202-1\t1
        Data Side Mastering SID Code: IFPI L275
        Data Side Toolstamp or Mastering Code (engraved/stamped): N/A
        Data Side Mould SID Code: IFPI 457C
        Data Side Additional Mould: N/A
        Label Side Mould SID Code: N/A
    Barcode: N/A
    EXE/Build Date: 2000-03-03
    Error Count: 0
    Comments:

[T:ISN] PBPX-95202
<b>ID Below Serial Number</b>: 3-061-047-12 (Sleeve), 3-061-046-03 (Disc)

    Contents: N/A

Version and Editions:
    Version: 1.00
    Edition/Release: Koukan-you

Extras:
    Primary Volume Descriptor (PVD):

0320 : 20 20 20 20 20 20 20 20  20 20 20 20 20 32 30 30                200
0330 : 30 30 33 32 38 30 30 30  30 30 30 30 30 24 30 30   0032800000000$00
0340 : 30 30 30 30 30 30 30 30  30 30 30 30 30 30 00 30   00000000000000.0
0350 : 30 30 30 30 30 30 30 30  30 30 30 30 30 30 30 00   000000000000000.
0360 : 30 30 30 30 30 30 30 30  30 30 30 30 30 30 30 30   0000000000000000
0370 : 00 01 00 00 00 00 00 00  00 00 00 00 00 00 00 00   ................

Tracks and Write Offsets:
    DAT:

<rom name="PBPX_95203.bin" size="751993200" crc="a5ee39e8" md5="e94c1b731a32a81dd9fc5fc80a90d687" sha1="f7a1711ad791141161bcfbde180e0a4fcbd5b72a" />

    Cuesheet:

FILE "PBPX_95203.bin" BINARY
  TRACK 01 MODE2/2352
    INDEX 01 00:00:00

    Write Offset: 1

Redump: http://redump.org/disc/13755
Verification data: https://drive.google.com/file/d/109yOD4 … sp=sharing

Common Disc Info:
    Title: PlayStation BB Navigator: Version 0.20
    Foreign Title (Non-latin): プレイステーション BB ナビゲーター Version 0.20
    Disc Number / Letter: N/A
    Disc Title: N/A
    System: Sony PlayStation 2
    Media Type: DVD-ROM-5
    Category: Applications
    Fully Matching ID: 14861
    Region: Japan
    Languages: Japanese
    Disc Serial: SCPN 60130

    Ringcode Information:
        Data Side Mastering Code (laser branded/etched): SCPN-60130\t4
        Data Side Mastering SID Code: N/A
        Data Side Toolstamp or Mastering Code (engraved/stamped): N/A
        Data Side Mould SID Code: 45T4
        Data Side Additional Mould: N/A
        Label Side Mould SID Code: N/A
    Barcode: 4 948872 601306
    EXE/Build Date: 2001-06-20
    Comments:

[T:ISN] SCPN-60130
N/A

    Contents:

PlayStation 2 BB Unit Diagnosis
PlayStation 2 BB Unit Diagnosis & Repair
Memory Card PSBBN Bootloader Install
PS2 BB Unit Format
DVD Player Install

Version and Editions:
    Version: 1.02
    Edition/Release: Original

Extras:
    Primary Volume Descriptor (PVD):

0320 : 20 20 20 20 20 20 20 20  20 20 20 20 20 32 30 30                200
0330 : 32 30 39 30 33 32 33 30  33 31 34 30 30 24 30 30   2090323031400$00
0340 : 30 30 30 30 30 30 30 30  30 30 30 30 30 30 00 30   00000000000000.0
0350 : 30 30 30 30 30 30 30 30  30 30 30 30 30 30 30 00   000000000000000.
0360 : 30 30 30 30 30 30 30 30  30 30 30 30 30 30 30 30   0000000000000000
0370 : 00 01 00 00 00 00 00 00  00 00 00 00 00 00 00 00   ................

Size & Checksum:
    Size: 1480228864
    CRC32: ca5b03de
    MD5: 15dd17148546565ca2d473b82ffb86cf
    SHA1: ccec3c5762f747df93b3e880acf44b47d2140b07

Redump: http://redump.org/disc/14861
Verification data: https://drive.google.com/file/d/1my5skv … sp=sharing

Common Disc Info:
    Title: PlayStation BB Navigator: Version 0.10
    Foreign Title (Non-latin): プレイステーション BB ナビゲーター Version 0.10 プレリリース版
    Disc Number / Letter: 1
    Disc Title: Prerelease
    System: Sony PlayStation 2
    Media Type: CD-ROM
    Category: Applications
    Fully Matching ID: 14860
    Region: Japan
    Languages: Japanese
    Disc Serial: SCPN 60101

    Ringcode Information:
        Data Side Mastering Code (laser branded/etched): SCPN-60101\t2
        Data Side Mastering SID Code: IFPI L274
        Data Side Toolstamp or Mastering Code (engraved/stamped): N/A
        Data Side Mould SID Code: IFPI 4576
        Data Side Additional Mould: N/A
        Label Side Mould SID Code: N/A
    Barcode: N/A
    EXE/Build Date: 2001-06-20
    Error Count: 0
    Comments:

[T:ISN] SCPN-60101
N/A

    Contents: N/A

Version and Editions:
    Version: 1.00
    Edition/Release: Original

Extras:
    Primary Volume Descriptor (PVD):

0320 : 20 20 20 20 20 20 20 20  20 20 20 20 20 32 30 30                200
0330 : 32 30 34 32 36 31 39 33  35 34 34 30 30 24 30 30   2042619354400$00
0340 : 30 30 30 30 30 30 30 30  30 30 30 30 30 30 00 30   00000000000000.0
0350 : 30 30 30 30 30 30 30 30  30 30 30 30 30 30 30 00   000000000000000.
0360 : 30 30 30 30 30 30 30 30  30 30 30 30 30 30 30 30   0000000000000000
0370 : 00 01 00 00 00 00 00 00  00 00 00 00 00 00 00 00   ................

Tracks and Write Offsets:
    DAT:

<rom name="PSBBNV10D1.bin" size="723414048" crc="6e6202a2" md5="45fe00fc50d96e5be00de39301272220" sha1="7c65c5a687894184d09790e67134b7dc5646d788" />

    Cuesheet:

FILE "PSBBNV10D1.bin" BINARY
  TRACK 01 MODE2/2352
    INDEX 01 00:00:00

    Write Offset: -12

Redump: http://redump.org/disc/14860
Verification data: https://drive.google.com/file/d/1XawEkc … sp=sharing

Common Disc Info:
    Title: Simple 1500 Series Vol. 14: The Block Kuzushi
    Foreign Title (Non-latin): SIMPLE1500シリーズ Vol.14 THE ブロックくずし
    Disc Number / Letter: N/A
    Disc Title: N/A
    System: Sony PlayStation
    Media Type: CD-ROM
    Category: Games
    Fully Matching ID: 10282
    Partially Matching IDs: 13814, 57131
    Region: Japan
    Languages: Japanese
    Disc Serial: SLPS 02450

    Ringcode Information:
        Data Side Mastering Code (laser branded/etched): SLPS-02450\t1
        Data Side Mastering SID Code: IFPI L275
        Data Side Toolstamp or Mastering Code (engraved/stamped): N/A
        Data Side Mould SID Code: IFPI 45HF
        Data Side Additional Mould: N/A
        Label Side Mould SID Code: N/A
    Barcode: 4 527823 990173
    EXE/Build Date: 1999-08-31
    Error Count: 1
    Comments:

[T:ISN] SLPS-02450
[T:VOL] THEBLOCK
N/A

    Contents: N/A

Version and Editions:
    Version: N/A
    Edition/Release: Original

EDC:
    EDC: No

Extras:
    Primary Volume Descriptor (PVD):

0320 : 20 20 20 20 20 20 20 20  20 20 20 20 20 31 39 39                199
0330 : 39 30 39 30 31 31 39 30  30 30 30 30 30 00 31 39   9090119000000.19
0340 : 39 39 30 39 30 31 31 39  30 30 30 30 30 30 00 30   99090119000000.0
0350 : 30 30 30 30 30 30 30 30  30 30 30 30 30 30 30 00   000000000000000.
0360 : 30 30 30 30 30 30 30 30  30 30 30 30 30 30 30 30   0000000000000000
0370 : 00 01 00 00 00 00 00 00  00 00 00 00 00 00 00 00   ................

Copy Protection:
    Anti-modchip: No
    LibCrypt: No

Tracks and Write Offsets:
    DAT:

<rom name="THEBLOCK (Track 1).bin" size="11094384" crc="2892ef68" md5="e1fca510dd5fdbc432d5cb2de140e783" sha1="3756b55e08fc6506ae4421a5d927a67c024f539c" />
<rom name="THEBLOCK (Track 2).bin" size="1455888" crc="8aa7e967" md5="829247ba0a2a28d50bb8e21ccb54cd9c" sha1="0d6a0bb2d34914792638a671a0d6e1298c9f01c0" />
<rom name="THEBLOCK (Track 3).bin" size="1411200" crc="89f34373" md5="4ff6bc3b4d22b5bdea41bce36989a02b" sha1="e234758ba689107dde524a35ca3c48b1bcd3c4d2" />
<rom name="THEBLOCK (Track 4).bin" size="1676976" crc="1ad9b6ec" md5="6b3c9c6d77257fae96e434758963da3a" sha1="8c91c233111288f01e42679d7c7f3734465347db" />
<rom name="THEBLOCK (Track 5).bin" size="48512352" crc="d72d970a" md5="cac9ca7ff1b856069801fa07bd0862ec" sha1="f6178cca429e29711ede292d76c257cc9d4a9299" />

    Cuesheet:

FILE "THEBLOCK (Track 1).bin" BINARY
  TRACK 01 MODE2/2352
    INDEX 01 00:00:00
FILE "THEBLOCK (Track 2).bin" BINARY
  TRACK 02 AUDIO
    INDEX 00 00:00:00
    INDEX 01 00:02:00
FILE "THEBLOCK (Track 3).bin" BINARY
  TRACK 03 AUDIO
    INDEX 00 00:00:00
    INDEX 01 00:02:00
FILE "THEBLOCK (Track 4).bin" BINARY
  TRACK 04 AUDIO
    INDEX 00 00:00:00
    INDEX 01 00:02:00
FILE "THEBLOCK (Track 5).bin" BINARY
  TRACK 05 AUDIO
    INDEX 00 00:00:00
    INDEX 01 00:02:00

    Write Offset: 2

Redump: http://redump.org/disc/10282
Verification data: https://drive.google.com/file/d/1htbRO6 … sp=sharing

6

(0 replies, posted in Verifications)

Common Disc Info:
    Title: Tekken 4
    Foreign Title (Non-latin): 鉄拳4
    Disc Number / Letter: N/A
    Disc Title: N/A
    System: Sony PlayStation 2
    Media Type: DVD-ROM-5
    Category: Games
    Fully Matching ID: 23325
    Region: China
    Languages: Japanese
    Disc Serial: SCPS 55017

    Ringcode Information:
        Data Side Mastering Code (laser branded/etched): SLPS-25100
        Data Side Mastering SID Code: N/A
        Data Side Toolstamp or Mastering Code (engraved/stamped): N/A
        Data Side Mould SID Code: 45T2
        Data Side Additional Mould: N/A
        Label Side Mould SID Code: N/A
    Barcode: 4 948872 550178
    EXE/Build Date: 2002-03-11
    Comments:

[T:ISN] SLPS-25100
[T:VOL] TEKKEN4
On sample disc, sticker where barcode should be shows M2050656.
The box for SCPS 55017 has Chinese manual attached and has printed "FOR HOME USE ONLY".

    Contents: N/A

Version and Editions:
    Version: 1.01
    Edition/Release: Original

Extras:
    Primary Volume Descriptor (PVD):

0320 : 20 20 20 20 20 20 20 20  20 20 20 20 20 32 30 30                200
0330 : 32 30 33 31 31 32 30 35  39 35 36 30 30 24 30 30   2031120595600$00
0340 : 30 30 30 30 30 30 30 30  30 30 30 30 30 30 00 30   00000000000000.0
0350 : 30 30 30 30 30 30 30 30  30 30 30 30 30 30 30 00   000000000000000.
0360 : 30 30 30 30 30 30 30 30  30 30 30 30 30 30 30 30   0000000000000000
0370 : 00 01 00 00 00 00 00 00  00 00 00 00 00 00 00 00   ................

Size & Checksum:
    Size: 2724069376
    CRC32: 49d8ad2a
    MD5: 9c579840a28b5d5d85edae04ddd9c9ed
    SHA1: 0d05a7e74006e5afe1feada17582d0fb59a88805

Redump: http://redump.org/disc/23325
Verification data: https://drive.google.com/file/d/1mWomKg … sp=sharing

Common Disc Info:
    Title: Ace Combat 5: The Unsung War
    Foreign Title (Non-latin): エースコンバット5~ジ・アンサング・ウォー~
    Disc Number / Letter: N/A
    Disc Title: N/A
    System: Sony PlayStation 2
    Media Type: DVD-ROM-5
    Category: Games
    Fully Matching ID: 22318
    Region: Japan
    Languages: Japanese
    Disc Serial: SLPS 73218

    Ringcode Information:
        Data Side Mastering Code (laser branded/etched): SLPS-25418\t2
        Data Side Mastering SID Code: N/A
        Data Side Toolstamp or Mastering Code (engraved/stamped): N/A
        Data Side Mould SID Code: 45T9
        Data Side Additional Mould: N/A
        Label Side Mould SID Code: N/A
    Barcode: 4 907892 015883
    EXE/Build Date: 2004-09-27
    Comments:

[T:ISN] SLPS-25418
N/A

    Contents: N/A

Version and Editions:
    Version: 1.00
    Edition/Release: PlayStation 2 the Best

Extras:
    Primary Volume Descriptor (PVD):

0320 : 20 20 20 20 20 20 20 20  20 20 20 20 20 32 30 30                200
0330 : 34 30 39 32 37 31 37 31  36 35 37 30 30 24 30 30   4092717165700$00
0340 : 30 30 30 30 30 30 30 30  30 30 30 30 30 30 00 30   00000000000000.0
0350 : 30 30 30 30 30 30 30 30  30 30 30 30 30 30 30 00   000000000000000.
0360 : 30 30 30 30 30 30 30 30  30 30 30 30 30 30 30 30   0000000000000000
0370 : 00 01 00 00 00 00 00 00  00 00 00 00 00 00 00 00   ................

Size & Checksum:
    Size: 4461559808
    CRC32: d351c192
    MD5: 86fe4e3d7f274f5c60c2bac75edd190f
    SHA1: f00b09d118e12d7d5acc92b053f1a5427c4a0082

Redump: http://redump.org/disc/22318
Verification data: https://drive.google.com/file/d/1drduVw … sp=sharing

Common Disc Info:
    Title: Ace Combat Zero: The Belkan War
    Foreign Title (Non-latin): エースコンバット・ゼロ~ザ・ベルカン・ウォー~
    Disc Number / Letter: N/A
    Disc Title: N/A
    System: Sony PlayStation 2
    Media Type: DVD-ROM-5
    Category: Games
    Fully Matching ID: 25616
    Region: Japan
    Languages: Japanese
    Disc Serial: SLPS 25629

    Ringcode Information:
        Data Side Mastering Code (laser branded/etched): SLPS-25629\t1
        Data Side Mastering SID Code: N/A
        Data Side Toolstamp or Mastering Code (engraved/stamped): N/A
        Data Side Mould SID Code: 45W6
        Data Side Additional Mould: N/A
        Label Side Mould SID Code: N/A
    Barcode: 4 907892 016064
    EXE/Build Date: 2006-02-15
    Comments:

[T:ISN] SLPS-25629
N/A

    Contents: N/A

Version and Editions:
    Version: 1.01
    Edition/Release: Original

Extras:
    Primary Volume Descriptor (PVD):

0320 : 20 20 20 20 20 20 20 20  20 20 20 20 20 32 30 30                200
0330 : 36 30 32 31 37 31 36 32  30 34 31 30 30 24 30 30   6021716204100$00
0340 : 30 30 30 30 30 30 30 30  30 30 30 30 30 30 00 30   00000000000000.0
0350 : 30 30 30 30 30 30 30 30  30 30 30 30 30 30 30 00   000000000000000.
0360 : 30 30 30 30 30 30 30 30  30 30 30 30 30 30 30 30   0000000000000000
0370 : 00 01 00 00 00 00 00 00  00 00 00 00 00 00 00 00   ................

Size & Checksum:
    Size: 4601708544
    CRC32: 8b339136
    MD5: 6e6ecc556ed1092953a4caacbe08b0d3
    SHA1: d0998f92123966adfe269af9d217ab420c5b7c49

Redump: http://redump.org/disc/25616
Verification data: https://drive.google.com/file/d/1cvXDa5 … sp=sharing

9

(0 replies, posted in Verifications)

Common Disc Info:
    Title: Tekken Tag Tournament
    Foreign Title (Non-latin): 鉄拳タッグトーナメント
    Disc Number / Letter: N/A
    Disc Title: N/A
    System: Sony PlayStation 2
    Media Type: CD-ROM
    Category: Games
    Fully Matching ID: 23482
    Region: Japan
    Languages: Japanese
    Disc Serial: SLPS 20015

    Ringcode Information:
        Data Side Mastering Code (laser branded/etched): SLPS-20015\t12
        Data Side Mastering SID Code: IFPI L275
        Data Side Toolstamp or Mastering Code (engraved/stamped): N/A
        Data Side Mould SID Code: IFPI 45G6
        Data Side Additional Mould: N/A
        Label Side Mould SID Code: N/A
    Barcode: 4 907892 015029
    EXE/Build Date: 2000-03-27
    Error Count: 0
    Comments:

[T:ISN] SLPS-20015
[T:VOL] TEKKENTAGTOURNAMENT
N/A

    Contents: N/A

Version and Editions:
    Version: 2.00
    Edition/Release: Original

Extras:
    Primary Volume Descriptor (PVD):

0320 : 20 20 20 20 20 20 20 20  20 20 20 20 20 32 30 30                200
0330 : 30 30 33 32 38 30 30 30  30 30 30 30 30 24 30 30   0032800000000$00
0340 : 30 30 30 30 30 30 30 30  30 30 30 30 30 30 00 30   00000000000000.0
0350 : 30 30 30 30 30 30 30 30  30 30 30 30 30 30 30 00   000000000000000.
0360 : 30 30 30 30 30 30 30 30  30 30 30 30 30 30 30 30   0000000000000000
0370 : 00 01 00 00 00 00 00 00  00 00 00 00 00 00 00 00   ................

Tracks and Write Offsets:
    DAT:

<rom name="TEKKENTAGTOURNAMENTJP.bin" size="727631184" crc="52c4ef9d" md5="9f0b8727b592cab12dad8043292c292f" sha1="c8aa65a31024ae252a77ec1d38edb5f48d8a01c4" />

    Cuesheet:

FILE "TEKKENTAGTOURNAMENTJP.bin" BINARY
  TRACK 01 MODE2/2352
    INDEX 01 00:00:00

    Write Offset: 1

Redump: http://redump.org/disc/23482
Verification data: https://drive.google.com/file/d/1zIwmri … sp=sharing

Common Disc Info:
    Title: Xenosaga Episode I: Der Wille zur Macht
    Foreign Title (Non-latin): ゼノサーガエピソードⅠDerWillezurMacht[力への意志]
    Disc Number / Letter: N/A
    Disc Title: N/A
    System: Sony PlayStation 2
    Media Type: DVD-ROM-9
    Category: Games
    Fully Matching ID: 23367
    Region: Japan
    Languages: Japanese
    Disc Serial: SLPS 29002

    Ringcode Information:
        Layer 0 (Outer) Mastering Code (laser branded/etched): SLPS-29002 A0\t6
        Layer 0 (Outer) Mastering SID Code: N/A
        Layer 0 (Outer) Toolstamp or Mastering Code (engraved/stamped): N/A
        Data Side Mould SID Code: 45T0
        Data Side Additional Mould: N/A
        Layer 1 (Inner) Mastering Code (laser branded/etched): SLPS-29002 A1\t6
        Layer 1 (Inner) Mastering SID Code: N/A
        Layer 1 (Inner) Toolstamp or Mastering Code (engraved/stamped): N/A
        Label Side Mould SID Code: N/A
        Label Side Additional Mould: N/A
    Barcode: 4 907892 015135
    EXE/Build Date: 2002-02-08
    Comments:

[T:ALT] Xenosaga Episode I: Chikara e no Ishi
[T:ISN] SLPS-29002
N/A

    Contents: N/A

Version and Editions:
    Version: 2.00
    Edition/Release: Original

Extras:
    Primary Volume Descriptor (PVD):

0320 : 20 20 20 20 20 20 20 20  20 20 20 20 20 32 30 30                200
0330 : 32 30 32 30 38 30 30 30  30 30 30 30 30 24 30 30   2020800000000$00
0340 : 30 30 30 30 30 30 30 30  30 30 30 30 30 30 00 30   00000000000000.0
0350 : 30 30 30 30 30 30 30 30  30 30 30 30 30 30 30 00   000000000000000.
0360 : 30 30 30 30 30 30 30 30  30 30 30 30 30 30 30 30   0000000000000000
0370 : 00 01 00 00 00 00 00 00  00 00 00 00 00 00 00 00   ................

Size & Checksum:
    Layerbreak: 2084944
    Size: 8539275264
    CRC32: 508423b4
    MD5: aafb7923c5990b2fe93d7793b3794fa1
    SHA1: b5b369ebd3b9030fe0bc3dea3ba08f8df7f8c237

Redump: http://redump.org/disc/23367
Verification data: https://drive.google.com/file/d/1-rgr1H … sp=sharing

11

(0 replies, posted in Verifications)

Common Disc Info:
    Title: Tekken 5
    Foreign Title (Non-latin): 鉄拳5
    Disc Number / Letter: N/A
    Disc Title: N/A
    System: Sony PlayStation 2
    Media Type: DVD-ROM-5
    Category: Games
    Fully Matching ID: 22357
    Region: Japan
    Languages: Japanese
    Disc Serial: SLPS 25510

    Ringcode Information:
        Data Side Mastering Code (laser branded/etched): SLPS-25510\t2
        Data Side Mastering SID Code: N/A
        Data Side Toolstamp or Mastering Code (engraved/stamped): N/A
        Data Side Mould SID Code: 45U3
        Data Side Additional Mould: N/A
        Label Side Mould SID Code: N/A
    Barcode: 4 907892 015807
    EXE/Build Date: 2005-03-07
    Comments:

[T:ISN] SLPS-25510
The box for SCAJ 20125 has Chinese manual attached and has printed "FOR HOME USE ONLY" and "Printed in Hong Kong".

    Contents:

<b>Games</b>:
Tekken
Tekken 2 Ver. B
Tekken 3
Starblade

N/A

Version and Editions:
    Version: 1.01
    Edition/Release: Original

Extras:
    Primary Volume Descriptor (PVD):

0320 : 20 20 20 20 20 20 20 20  20 20 20 20 20 32 30 30                200
0330 : 35 30 33 30 37 31 39 35  30 30 38 30 30 24 30 30   5030719500800$00
0340 : 30 30 30 30 30 30 30 30  30 30 30 30 30 30 00 30   00000000000000.0
0350 : 30 30 30 30 30 30 30 30  30 30 30 30 30 30 30 00   000000000000000.
0360 : 30 30 30 30 30 30 30 30  30 30 30 30 30 30 30 30   0000000000000000
0370 : 00 01 00 00 00 00 00 00  00 00 00 00 00 00 00 00   ................

Size & Checksum:
    Size: 4077191168
    CRC32: aadc8c14
    MD5: 246ea391261c89d979cb6d2699f87ae2
    SHA1: 81c2f4ac60977c21b48776746d9aac8d843a9abc

Redump: http://redump.org/disc/22357
Verification data: https://drive.google.com/file/d/1kJV6yT … sp=sharing

12

(0 replies, posted in Verifications)

Common Disc Info:
    Title: Genji
    Disc Number / Letter: N/A
    Disc Title: N/A
    System: Sony PlayStation 2
    Media Type: DVD-ROM-5
    Category: Games
    Fully Matching ID: 26784
    Region: Japan
    Languages: Japanese
    Disc Serial: SCPS 15095

    Ringcode Information:
        Data Side Mastering Code (laser branded/etched): SCPS-15095\t2
        Data Side Mastering SID Code: N/A
        Data Side Toolstamp or Mastering Code (engraved/stamped): N/A
        Data Side Mould SID Code: 45U1
        Data Side Additional Mould: N/A
        Label Side Mould SID Code: N/A
    Barcode: 4 948872 150958
    EXE/Build Date: 2005-05-15
    Comments:

[T:ISN] SCPS-15095
[T:VOL] SCPS_15095
The box for Asian edition has Chinese manual and printed "FOR HOME USE ONLY".

    Contents: N/A

Version and Editions:
    Version: 1.02
    Edition/Release: Original

Extras:
    Primary Volume Descriptor (PVD):

0320 : 20 20 20 20 20 20 20 20  20 20 20 20 20 32 30 30                200
0330 : 35 30 35 31 36 30 30 30  30 30 30 30 30 24 30 30   5051600000000$00
0340 : 30 30 30 30 30 30 30 30  30 30 30 30 30 30 00 30   00000000000000.0
0350 : 30 30 30 30 30 30 30 30  30 30 30 30 30 30 30 00   000000000000000.
0360 : 30 30 30 30 30 30 30 30  30 30 30 30 30 30 30 30   0000000000000000
0370 : 00 01 00 00 00 00 00 00  00 00 00 00 00 00 00 00   ................

Size & Checksum:
    Size: 3921903616
    CRC32: 0fa736d7
    MD5: 24468ded9cfbbcfe0285b01dce2d095c
    SHA1: a81a4f7a1d35ff84d3b699f9cfc6db8b5da1a123

Redump: http://redump.org/disc/26784
Verification data: https://drive.google.com/file/d/1N2AaCl … sp=sharing

13

(0 replies, posted in Verifications)

Common Disc Info:
    Title: Hyper Street Fighter II: The Anniversary Edition
    Foreign Title (Non-latin): ハイパー・ストリート・ファイターⅡ~アニバーサリー・エディション~
    Disc Number / Letter: N/A
    Disc Title: N/A
    System: Sony PlayStation 2
    Media Type: DVD-ROM-5
    Category: Games
    Fully Matching ID: 30977
    Region: Japan
    Languages: Japanese
    Disc Serial: SLPM 66636

    Ringcode Information:
        Data Side Mastering Code (laser branded/etched): SLPM-66636\t1
        Data Side Mastering SID Code: IFPI L272
        Data Side Toolstamp or Mastering Code (engraved/stamped): N/A
        Data Side Mould SID Code: 45T6
        Data Side Additional Mould: N/A
        Label Side Mould SID Code: N/A
    Barcode: 4 976219 021081
    EXE/Build Date: 2006-10-13
    Comments:

[T:ISN] SLPM-66636
<b>Capcom ID</b>: CPCS-01039
<b>Hyper Street Fighter II: The Anniversary Edition & Vampire: Darkstalkers Collection Value Pack [CPCS-01039] Contents</b>:
Hyper Street Fighter II: The Anniversary Edition (CapKore) [SLPM-66636]
Vampire: Darkstalkers Collection (CapKore) [SLPM-66637]
4 976219 026482 (Box), 4 976219 021081 (Package)

    Contents:

[T:V]
Street Fighter II: The Animation

Includes all different versions of every character from each of Street Fighter 2's versions.

Version and Editions:
    Version: 1.00
    Edition/Release: Capkore

Extras:
    Primary Volume Descriptor (PVD):

0320 : 20 20 20 20 20 20 20 20  20 20 20 20 20 32 30 30                200
0330 : 36 31 30 31 33 31 33 34  35 30 36 30 30 24 30 30   6101313450600$00
0340 : 30 30 30 30 30 30 30 30  30 30 30 30 30 30 00 30   00000000000000.0
0350 : 30 30 30 30 30 30 30 30  30 30 30 30 30 30 30 00   000000000000000.
0360 : 30 30 30 30 30 30 30 30  30 30 30 30 30 30 30 30   0000000000000000
0370 : 00 01 00 00 00 00 00 00  00 00 00 00 00 00 00 00   ................

Size & Checksum:
    Size: 4663803904
    CRC32: 7e270bae
    MD5: 2b8bf4467b7d3774065b62d6dd00df60
    SHA1: 9b6cd3fb38900ebe6d3c47aa17a0e0acabf01440

Redump: http://redump.org/disc/30977
Verification data: https://drive.google.com/file/d/1D3EaYQ … sp=sharing

Common Disc Info:
    Title: Vampire: Darkstalkers Collection
    Foreign Title (Non-latin): ヴァンパイア ダークストーカーズ コレクション
    Disc Number / Letter: N/A
    Disc Title: N/A
    System: Sony PlayStation 2
    Media Type: DVD-ROM-5
    Category: Games
    Fully Matching ID: 37374
    Region: Japan
    Languages: Japanese
    Disc Serial: SLPM 65998

    Ringcode Information:
        Data Side Mastering Code (laser branded/etched): SLPM-65998\t1
        Data Side Mastering SID Code: N/A
        Data Side Toolstamp or Mastering Code (engraved/stamped): N/A
        Data Side Mould SID Code: 45V7
        Data Side Additional Mould: N/A
        Label Side Mould SID Code: N/A
    Barcode: 4 976219 652872
    EXE/Build Date: 2005-03-24
    Comments:

[T:ISN] SLPM-65998
<b>Capcom ID:</b> CPCS-01039
<b>Hyper Street Fighter II: The Anniversary Edition & Vampire: Darkstalkers Collection Value Pack [CPCS-01039] Contents</b>:
Hyper Street Fighter II: The Anniversary Edition (CapKore) [SLPM-66636]
Vampire: Darkstalkers Collection (CapKore) [SLPM-66637]
4 976219 026482 (Box), 4 976219 021098 (Package)

    Contents:

<b>Games</b>:
Vampire: The Night Warriors
Vampire Hunter
Vampire Savior
Vampire Hunter 2
Vampire Savior 2

N/A

Version and Editions:
    Version: 1.02
    Edition/Release: Original

Extras:
    Primary Volume Descriptor (PVD):

0320 : 20 20 20 20 20 20 20 20  20 20 20 20 20 32 30 30                200
0330 : 35 30 33 32 35 30 30 30  30 30 30 30 30 24 30 30   5032500000000$00
0340 : 30 30 30 30 30 30 30 30  30 30 30 30 30 30 00 30   00000000000000.0
0350 : 30 30 30 30 30 30 30 30  30 30 30 30 30 30 30 00   000000000000000.
0360 : 30 30 30 30 30 30 30 30  30 30 30 30 30 30 30 30   0000000000000000
0370 : 00 01 00 00 00 00 00 00  00 00 00 00 00 00 00 00   ................

Size & Checksum:
    Size: 4698767360
    CRC32: 68aa7829
    MD5: 1cb15788f5202474f1e7967a4984d412
    SHA1: 7dc177d48e779596c63a1d7ff1ede9fc1824a2af

Redump: http://redump.org/disc/37374
Verification data: https://drive.google.com/file/d/1JhQ1sS … sp=sharing

15

(0 replies, posted in Verifications)

Common Disc Info:
    Title: Burnout Revenge
    Foreign Title (Non-latin): バーンアウトリベンジ
    Disc Number / Letter: N/A
    Disc Title: N/A
    System: Sony PlayStation 2
    Media Type: DVD-ROM-5
    Category: Games
    Fully Matching ID: 40540
    Region: Japan
    Languages: Japanese
    Disc Serial: SLPM 66108

    Ringcode Information:
        Data Side Mastering Code (laser branded/etched): SLPM-66108\t1
        Data Side Mastering SID Code: N/A
        Data Side Toolstamp or Mastering Code (engraved/stamped): N/A
        Data Side Mould SID Code: 45W3
        Data Side Additional Mould: N/A
        Label Side Mould SID Code: N/A
    Barcode: 4 938833 006929
    EXE/Build Date: 2005-08-30
    Comments:

[T:ISN] SLPM-66108
[T:VOL] BURNOUT
4 938833 006929 (Original), None (Sample)

    Contents: N/A

Version and Editions:
    Version: 1.01
    Edition/Release: Original

Extras:
    Primary Volume Descriptor (PVD):

0320 : 20 20 20 20 20 20 20 20  20 20 20 20 20 32 30 30                200
0330 : 35 30 38 32 39 31 37 32  33 33 35 30 30 24 30 30   5082917233500$00
0340 : 30 30 30 30 30 30 30 30  30 30 30 30 30 30 00 30   00000000000000.0
0350 : 30 30 30 30 30 30 30 30  30 30 30 30 30 30 30 00   000000000000000.
0360 : 30 30 30 30 30 30 30 30  30 30 30 30 30 30 30 30   0000000000000000
0370 : 00 01 00 00 00 00 00 00  00 00 00 00 00 00 00 00   ................

Size & Checksum:
    Size: 3725164544
    CRC32: 05f5564d
    MD5: bb541282f61f3566ea521ebe3efed254
    SHA1: 95817fb3cd611cc70d8f837ad12925b146231e35

Redump: http://redump.org/disc/40540
Verification data: https://drive.google.com/file/d/1q-_qk4 … sp=sharing

16

(0 replies, posted in Verifications)

Common Disc Info:
    Title: Monster Hunter 2
    Foreign Title (Non-latin): モンスターハンター2(ドス)
    Disc Number / Letter: N/A
    Disc Title: N/A
    System: Sony PlayStation 2
    Media Type: DVD-ROM-5
    Category: Games
    Fully Matching ID: 22303
    Region: Japan
    Languages: Japanese
    Disc Serial: SLPM 74245

    Ringcode Information:
        Data Side Mastering Code (laser branded/etched): SLPM-66280\t3
        Data Side Mastering SID Code: N/A
        Data Side Toolstamp or Mastering Code (engraved/stamped): N/A
        Data Side Mould SID Code: 45WE
        Data Side Additional Mould: N/A
        Label Side Mould SID Code: N/A
    Barcode: 4 976219 022880
    EXE/Build Date: 2006-01-16
    Comments:

[T:ISN] SLPM-66280
<b>Capcom ID</b>: CPCS-01020
DX Hunters Box: 4 976219 654784 (Box), 4 976219 654586 (Package)

    Contents: N/A

Version and Editions:
    Version: 1.04
    Edition/Release: PlayStation 2 The Best

Extras:
    Primary Volume Descriptor (PVD):

0320 : 20 20 20 20 20 20 20 20  20 20 20 20 20 32 30 30                200
0330 : 36 30 31 31 36 32 32 31  34 35 36 30 30 24 30 30   6011622145600$00
0340 : 30 30 30 30 30 30 30 30  30 30 30 30 30 30 00 30   00000000000000.0
0350 : 30 30 30 30 30 30 30 30  30 30 30 30 30 30 30 00   000000000000000.
0360 : 30 30 30 30 30 30 30 30  30 30 30 30 30 30 30 30   0000000000000000
0370 : 00 01 00 00 00 00 00 00  00 00 00 00 00 00 00 00   ................

Size & Checksum:
    Size: 4333469696
    CRC32: 76063fe3
    MD5: 2cff8ae6975e12858314567dbf888228
    SHA1: aa53a5244214f933cf7c2607573c69b8c6f18b8f

Redump: http://redump.org/disc/22303
Verification data: https://drive.google.com/file/d/149Oe01 … sp=sharing

17

(0 replies, posted in Verifications)

Common Disc Info:
    Title: Biohazard: Outbreak: File 2
    Foreign Title (Non-latin): バイオハザードアウトブレイクファイル2
    Disc Number / Letter: N/A
    Disc Title: N/A
    System: Sony PlayStation 2
    Media Type: DVD-ROM-5
    Category: Games
    Fully Matching ID: 9533
    Region: Japan
    Languages: Japanese
    Disc Serial: SLPM 65692

    Ringcode Information:
        Data Side Mastering Code (laser branded/etched): SLPM-65692\t4
        Data Side Mastering SID Code: N/A
        Data Side Toolstamp or Mastering Code (engraved/stamped): N/A
        Data Side Mould SID Code: 45VF
        Data Side Additional Mould: N/A
        Label Side Mould SID Code: N/A
    Barcode: 4 976219 650850
    EXE/Build Date: 2004-08-18
    Comments:

[T:ISN] SLPM-65692
N/A

    Contents: N/A

Version and Editions:
    Version: 1.03
    Edition/Release: Original

Extras:
    Primary Volume Descriptor (PVD):

0320 : 20 20 20 20 20 20 20 20  20 20 20 20 20 32 30 30                200
0330 : 34 30 38 31 38 31 36 32  38 35 39 30 30 24 30 30   4081816285900$00
0340 : 30 30 30 30 30 30 30 30  30 30 30 30 30 30 00 30   00000000000000.0
0350 : 30 30 30 30 30 30 30 30  30 30 30 30 30 30 30 00   000000000000000.
0360 : 30 30 30 30 30 30 30 30  30 30 30 30 30 30 30 30   0000000000000000
0370 : 00 01 00 00 00 00 00 00  00 00 00 00 00 00 00 00   ................

Size & Checksum:
    Size: 4698767360
    CRC32: 9a4766ee
    MD5: bdd18a7cdb37847d6f3c01d6fe103b7e
    SHA1: 5fad452c7f8722a1f7e9f0167c4766905165cc9d


Redump: http://redump.org/disc/9533
Verification data: https://drive.google.com/file/d/1RVEv9x … sp=sharing

18

(0 replies, posted in Verifications)

Common Disc Info:
    Title: Biohazard 4
    Foreign Title (Non-latin): バイオハザード4
    Disc Number / Letter: N/A
    Disc Title: N/A
    System: Sony PlayStation 2
    Media Type: DVD-ROM-5
    Category: Games
    Fully Matching ID: 9776
    Region: Japan
    Languages: Japanese
    Disc Serial: SLPM 66213

    Ringcode Information:
        Data Side Mastering Code (laser branded/etched): SLPM-66213\t1
        Data Side Mastering SID Code: N/A
        Data Side Toolstamp or Mastering Code (engraved/stamped): N/A
        Data Side Mould SID Code: 45V4
        Data Side Additional Mould: N/A
        Label Side Mould SID Code: N/A
    Barcode: 4 976219 654357
    EXE/Build Date: 2005-09-30
    Comments:

[T:ISN] SLPM-66213
PlayStation 2 the Best is bundled with <a href=/disc/35060/>Audio CD</a>.

    Contents: N/A

Version and Editions:
    Version: 1.02
    Edition/Release: Original

Extras:
    Primary Volume Descriptor (PVD):

0320 : 20 20 20 20 20 20 20 20  20 20 20 20 20 32 30 30                200
0330 : 35 31 30 30 35 30 39 30  30 30 30 30 30 24 30 30   5100509000000$00
0340 : 30 30 30 30 30 30 30 30  30 30 30 30 30 30 00 30   00000000000000.0
0350 : 30 30 30 30 30 30 30 30  30 30 30 30 30 30 30 00   000000000000000.
0360 : 30 30 30 30 30 30 30 30  30 30 30 30 30 30 30 30   0000000000000000
0370 : 00 01 00 00 00 00 00 00  00 00 00 00 00 00 00 00   ................

Size & Checksum:
    Size: 4427841536
    CRC32: 6e18f202
    MD5: 2f19154c18ab1f077186b16a4eada705
    SHA1: 5fd33e26ee76c8cd3062b49e55e88b75d85f9038

Redump: http://redump.org/disc/9776
Verification data: https://drive.google.com/file/d/19SdGRh … sp=sharing

19

(0 replies, posted in Verifications)

Common Disc Info:
    Title: Metal Slug 6
    Foreign Title (Non-latin): メタルスラッグ6
    Disc Number / Letter: N/A
    Disc Title: N/A
    System: Sony PlayStation 2
    Media Type: DVD-ROM-5
    Category: Games
    Fully Matching ID: 21848
    Region: Japan
    Languages: Japanese
    Language Selection Via: Bios settings, Language selector, Options menu
    Disc Serial: SLPS 25674

    Ringcode Information:
        Data Side Mastering Code (laser branded/etched): SLPS-25674\t1
        Data Side Mastering SID Code: IFPI L272
        Data Side Toolstamp or Mastering Code (engraved/stamped): N/A
        Data Side Mould SID Code: 45V0
        Data Side Additional Mould: N/A
        Label Side Mould SID Code: N/A
    Barcode: 4 964808 300822
    EXE/Build Date: 2006-07-17
    Comments:

[T:ISN] SLPS-25674
N/A

    Contents: Includes soundtracks for Metal Slug, 2, X, 3, 4 and 5 in-game.

Version and Editions:
    Version: 1.03
    Edition/Release: Original

Extras:
    Primary Volume Descriptor (PVD):

0320 : 20 20 20 20 20 20 20 20  20 20 20 20 20 32 30 30                200
0330 : 36 30 37 31 38 31 32 30  33 32 38 30 30 24 30 30   6071812032800$00
0340 : 30 30 30 30 30 30 30 30  30 30 30 30 30 30 00 30   00000000000000.0
0350 : 30 30 30 30 30 30 30 30  30 30 30 30 30 30 30 00   000000000000000.
0360 : 30 30 30 30 30 30 30 30  30 30 30 30 30 30 30 30   0000000000000000
0370 : 00 01 00 00 00 00 00 00  00 00 00 00 00 00 00 00   ................

Size & Checksum:
    Size: 2626977792
    CRC32: 8ab3558c
    MD5: 7a1f6a87701bd6a9b683595012e8f43d
    SHA1: 6c85dcba175e770f931d7fe67e5445a5ae1b8188

http://redump.org/disc/21848

Verification data: https://drive.google.com/file/d/19SVUxu … sp=sharing

20

(0 replies, posted in Verifications)

Common Disc Info:
    Title: Utility Disc
    Foreign Title (Non-latin): ユーティリティディスク
    Disc Number / Letter: N/A
    Disc Title: N/A
    System: Sony PlayStation 2
    Media Type: CD-ROM
    Category: Applications
    Fully Matching ID: 23522
    Region: Japan
    Languages: Japanese
    Language Selection Via: Bios settings, Language selector, Options menu
    Disc Serial: PBPX 95201

    Ringcode Information:
        Data Side Mastering Code (laser branded/etched): PBPX-95201   2
        Data Side Mastering SID Code: IFPI L275
        Data Side Toolstamp or Mastering Code (engraved/stamped): N/A
        Data Side Mould SID Code: IFPI 4578
        Data Side Additional Mould: N/A
        Label Side Mould SID Code: N/A
    Barcode: N/A
    EXE/Build Date: 2000-03-03
    Error Count: 0
    Comments:

[T:ISN] PBPX-95201
<b>ID Below Serial Number:</b> 3-061-046-01 (Disc), 3-061-047-01 (Sleeve)
<b>ID on the manual:</b> PSN2-3 / 3-061-048-02
Title on sleeve: Utility Disc
Title on disc: Utility Disc Version 1.00

    Contents: (OPTIONAL)

Version and Editions:
    Version: 1.00
    Edition/Release: (VERIFY THIS) Original

Extras:
    Primary Volume Descriptor (PVD):

0320 : 20 20 20 20 20 20 20 20  20 20 20 20 20 32 30 30                200
0330 : 30 30 32 31 36 32 32 30  30 30 30 30 30 24 30 30   0021622000000$00
0340 : 30 30 30 30 30 30 30 30  30 30 30 30 30 30 00 30   00000000000000.0
0350 : 30 30 30 30 30 30 30 30  30 30 30 30 30 30 30 00   000000000000000.
0360 : 30 30 30 30 30 30 30 30  30 30 30 30 30 30 30 30   0000000000000000
0370 : 00 01 00 00 00 00 00 00  00 00 00 00 00 00 00 00   ................

Tracks and Write Offsets:
    DAT:

<rom name="PBPX_95201.bin" size="751993200" crc="16174efe" md5="a777a7661e375447731601254d26fea9" sha1="caa1cfadbfb1693c4ac112c14546e4158b222d80" />

    Cuesheet:

FILE "PBPX_95201.bin" BINARY
  TRACK 01 MODE2/2352
    INDEX 01 00:00:00

    Write Offset: 1

http://redump.org/disc/23522

Verification Data: https://drive.google.com/file/d/1W-Ie2y … sp=sharing

21

(0 replies, posted in Verifications)

Common Disc Info:
    Title: Tempest 2000
    Disc Number / Letter: N/A
    Disc Title: N/A
    System: Sega Saturn
    Media Type: CD-ROM
    Category: Games
    Fully Matching ID: 50004
    Partially Matching IDs: 37614
    Region: USA
    Languages: English
    Disc Serial: T-12516H

    Ringcode Information:
        Data Side Mastering Code (laser branded/etched): *4S* T-12516H
        Data Side Mastering SID Code: IFPI L433
        Data Side Toolstamp or Mastering Code (engraved/stamped): A1
        Data Side Mould SID Code: N/A
        Data Side Additional Mould: N/A
        Label Side Mould SID Code: N/A
    Barcode: 0 40421 88289 2
    EXE/Build Date: 1996-11-11
    Error Count: 0
    Comments:

[T:ISN] T-12516H
[T:ISBN] 1-57629-136-7
<b>Serial on the CD</b>: CD-SAT-289-0

    Contents: N/A

Version and Editions:
    Version: 1.000
    Edition/Release: Original

Extras:
    Primary Volume Descriptor (PVD):

0320 : 20 20 20 20 20 20 20 20  20 20 20 20 20 31 39 39                199
0330 : 36 31 31 31 31 31 34 35  39 33 32 30 30 14 31 39   6111114593200.19
0340 : 39 36 31 31 31 31 31 34  35 39 33 32 30 30 14 30   96111114593200.0
0350 : 30 30 30 30 30 30 30 30  30 30 30 30 30 30 30 00   000000000000000.
0360 : 30 30 30 30 30 30 30 30  30 30 30 30 30 30 30 30   0000000000000000
0370 : 00 01 00 00 00 00 00 00  00 00 00 00 00 00 00 00   ................

    Header:

0000 : 53 45 47 41 20 53 45 47  41 53 41 54 55 52 4E 20   SEGA SEGASATURN
0010 : 53 45 47 41 20 54 50 20  54 2D 31 32 35 20 20 20   SEGA TP T-125   
0020 : 54 2D 31 32 35 31 36 48  20 20 56 31 2E 30 30 30   T-12516H  V1.000
0030 : 31 39 39 36 31 31 31 31  43 44 2D 31 2F 31 20 20   19961111CD-1/1 
0040 : 55 20 20 20 20 20 20 20  20 20 20 20 20 20 20 20   U               
0050 : 4A 20 20 20 20 20 20 20  20 20 20 20 20 20 20 20   J               
0060 : 54 45 4D 50 45 53 54 20  32 30 30 30 20 20 20 20   TEMPEST 2000   
0070 : 20 20 20 20 20 20 20 20  20 20 20 20 20 20 20 20                   
0080 : 20 20 20 20 20 20 20 20  20 20 20 20 20 20 20 20                   
0090 : 20 20 20 20 20 20 20 20  20 20 20 20 20 20 20 20                   
00A0 : 20 20 20 20 20 20 20 20  20 20 20 20 20 20 20 20                   
00B0 : 20 20 20 20 20 20 20 20  20 20 20 20 20 20 20 20                   
00C0 : 20 20 20 20 20 20 20 20  20 20 20 20 20 20 20 20                   
00D0 : 00 00 00 00 00 00 00 00  00 00 00 00 00 00 00 00   ................
00E0 : 00 00 18 00 00 00 00 00  00 00 00 00 00 00 00 00   ................
00F0 : 06 01 00 00 00 00 00 00  00 00 00 00 00 00 00 00   ................

Tracks and Write Offsets:
    DAT:

<rom name="Tempest2000 (Track 01).bin" size="2573088" crc="9e969e36" md5="aab84d9000aba10bac28189054ebfd18" sha1="2b421c579f3f374501b7b31dd07c9c129ebb106f" />
<rom name="Tempest2000 (Track 02).bin" size="42888720" crc="13e90cf2" md5="7c0213c7d7527b103e9235247a0f5966" sha1="c429ab40de88f37f7524fa9269a3fa1fbe9814b4" />
<rom name="Tempest2000 (Track 03).bin" size="52223808" crc="7ea5e76d" md5="6af3e921b0c5e58fd828fee1bf919db3" sha1="b749ec77fdfee604c6dccab2e207eb6ad72e4a0b" />
<rom name="Tempest2000 (Track 04).bin" size="53978400" crc="c6d04c09" md5="4d428505b500c055bcaba9417a6612cf" sha1="30d2e551389cdb62bcf3ac358b07bc3b81276579" />
<rom name="Tempest2000 (Track 05).bin" size="44069424" crc="4c1e7c9b" md5="bd3f9e4edb991f37ab382d2319a84a20" sha1="cc5c1ef790d95d0b70c785c60969dac7a5bb39ca" />
<rom name="Tempest2000 (Track 06).bin" size="43297968" crc="d4fe5d5e" md5="8fadbc7a1c623e9d1af7cacdbe1f72c9" sha1="ad981c13441d28256ecb7efd4d7ce60d9dfe031c" />
<rom name="Tempest2000 (Track 07).bin" size="57769824" crc="bf3b5c6c" md5="b3ce6e46f92516ea75e33cc278e011d0" sha1="7c37e90734f159551f05534930510c591c4c2a38" />
<rom name="Tempest2000 (Track 08).bin" size="54345312" crc="3a332a0c" md5="7f9a9692d024e37389cddd57f6268b52" sha1="da90cdd06ac1926b88fe8d5405ddad0e57920d0b" />
<rom name="Tempest2000 (Track 09).bin" size="47345760" crc="6db29ca6" md5="5aa3ff5a0ea6adf5c70531f886575d9d" sha1="af4333db1fd68505fd2ddb5943f432f8f387cabc" />
<rom name="Tempest2000 (Track 10).bin" size="55876464" crc="8bbaf5ca" md5="be1b603e2b4fbc93b813ceba55916f03" sha1="137fa8eef099a1edaf68f3874b9668bb36b53002" />
<rom name="Tempest2000 (Track 11).bin" size="80421936" crc="f2c69646" md5="07c64426a1cb4e3eb1d5a3049c70c266" sha1="a5b902afee308320e8a1acb38cc49f4dfc9fcf81" />
<rom name="Tempest2000 (Track 12).bin" size="62012832" crc="2f9157a7" md5="940f6611c0b8a3219147484f5d8ce999" sha1="14549da58b20ff9940c35e95c949e0609e04f01a" />

    Cuesheet:

FILE "Tempest2000 (Track 01).bin" BINARY
  TRACK 01 MODE1/2352
    INDEX 01 00:00:00
FILE "Tempest2000 (Track 02).bin" BINARY
  TRACK 02 AUDIO
    INDEX 00 00:00:00
    INDEX 01 00:02:00
FILE "Tempest2000 (Track 03).bin" BINARY
  TRACK 03 AUDIO
    INDEX 00 00:00:00
    INDEX 01 00:02:00
FILE "Tempest2000 (Track 04).bin" BINARY
  TRACK 04 AUDIO
    INDEX 00 00:00:00
    INDEX 01 00:02:00
FILE "Tempest2000 (Track 05).bin" BINARY
  TRACK 05 AUDIO
    INDEX 00 00:00:00
    INDEX 01 00:02:00
FILE "Tempest2000 (Track 06).bin" BINARY
  TRACK 06 AUDIO
    INDEX 00 00:00:00
    INDEX 01 00:02:00
FILE "Tempest2000 (Track 07).bin" BINARY
  TRACK 07 AUDIO
    INDEX 00 00:00:00
    INDEX 01 00:02:00
FILE "Tempest2000 (Track 08).bin" BINARY
  TRACK 08 AUDIO
    INDEX 00 00:00:00
    INDEX 01 00:02:00
FILE "Tempest2000 (Track 09).bin" BINARY
  TRACK 09 AUDIO
    INDEX 00 00:00:00
    INDEX 01 00:02:00
FILE "Tempest2000 (Track 10).bin" BINARY
  TRACK 10 AUDIO
    INDEX 00 00:00:00
    INDEX 01 00:02:00
FILE "Tempest2000 (Track 11).bin" BINARY
  TRACK 11 AUDIO
    INDEX 00 00:00:00
    INDEX 01 00:02:00
FILE "Tempest2000 (Track 12).bin" BINARY
  TRACK 12 AUDIO
    INDEX 00 00:00:00
    INDEX 01 00:02:00

    Write Offset: 1176

Verification data: https://drive.google.com/file/d/1PHtDR6 … sp=sharing

22

(0 replies, posted in Verifications)

Common Disc Info:
    Title: Puyo Puyo Sun
    Foreign Title (Non-latin): ぷよぷよSUN
    Disc Number / Letter: N/A
    Disc Title: N/A
    System: Sega Saturn
    Media Type: CD-ROM
    Category: Games
    Fully Matching ID: 3766
    Partially Matching IDs: 20279
    Region: Japan
    Languages: Japanese
    Disc Serial: T-6603G

    Ringcode Information:
        Data Side Mastering Code (laser branded/etched): T-6603GP-01369   1M4   C   71
        Data Side Mastering SID Code: IFPI L223
        Data Side Toolstamp or Mastering Code (engraved/stamped): N/A
        Data Side Mould SID Code: IFPI 3983
        Data Side Additional Mould: N/A
        Label Side Mould SID Code: N/A
        Label Side Additional Mould: N/A
    Barcode: 4 988161 700020
    EXE/Build Date: 1997-01-30
    Error Count: 0
    Comments:

[T:ISN] T-6603G
[T:VOL] PUYOPUYO_SUN
The first sector of the 2nd track's pregap is a scrambled data sector.

    Contents: N/A

Version and Editions:
    Version: 1.002
    Edition/Release: Original

Extras:
    Primary Volume Descriptor (PVD):

0320 : 20 20 20 20 20 20 20 20  20 20 20 20 20 31 39 39                199
0330 : 37 30 31 31 33 31 34 34  39 32 33 30 30 14 31 39   7011314492300.19
0340 : 39 37 30 31 31 33 31 34  34 39 32 33 30 30 14 30   97011314492300.0
0350 : 30 30 30 30 30 30 30 30  30 30 30 30 30 30 30 00   000000000000000.
0360 : 30 30 30 30 30 30 30 30  30 30 30 30 30 30 30 30   0000000000000000
0370 : 00 01 00 00 00 00 00 00  00 00 00 00 00 00 00 00   ................

    Header:

0000 : 53 45 47 41 20 53 45 47  41 53 41 54 55 52 4E 20   SEGA SEGASATURN
0010 : 53 45 47 41 20 54 50 20  54 2D 36 36 20 20 20 20   SEGA TP T-66   
0020 : 54 2D 36 36 30 33 47 20  20 20 56 31 2E 30 30 32   T-6603G   V1.002
0030 : 31 39 39 37 30 31 33 30  43 44 2D 31 2F 31 20 20   19970130CD-1/1 
0040 : 4A 20 20 20 20 20 20 20  20 20 20 20 20 20 20 20   J               
0050 : 4A 20 20 20 20 20 20 20  20 20 20 20 20 20 20 20   J               
0060 : 50 55 59 4F 20 50 55 59  4F 20 53 55 4E 20 20 20   PUYO PUYO SUN   
0070 : 20 20 20 20 20 20 20 20  20 20 20 20 20 20 20 20                   
0080 : 20 20 20 20 20 20 20 20  20 20 20 20 20 20 20 20                   
0090 : 20 20 20 20 20 20 20 20  20 20 20 20 20 20 20 20                   
00A0 : 20 20 20 20 20 20 20 20  20 20 20 20 20 20 20 20                   
00B0 : 20 20 20 20 20 20 20 20  20 20 20 20 20 20 20 20                   
00C0 : 20 20 20 20 20 20 20 20  20 20 20 20 20 20 20 20                   
00D0 : 00 00 00 00 00 00 00 00  00 00 00 00 00 00 00 00   ................
00E0 : 00 00 18 00 00 00 00 00  00 00 00 00 00 00 00 00   ................
00F0 : 06 00 40 00 00 00 00 00  00 00 00 00 00 00 00 00   ..@.............

Copy Protection:

Tracks and Write Offsets:
    DAT:

<rom name="PUYOPUYO_SUN (Track 1).bin" size="464670528" crc="7ad79d38" md5="2cfd26ffd2b82f9e5d7e7102af78e9e0" sha1="4b0291bed2dbee1dccaad7e0352af557e1c4ee43" />
<rom name="PUYOPUYO_SUN (Track 2).bin" size="5435472" crc="2fce185c" md5="2e16dbd6fa4dc53cf3b51906bb398fec" sha1="6122a2b04f5e694f46ce3858ab1e8c70be89b654" />

    Cuesheet:

CATALOG 0000000000000
FILE "PUYOPUYO_SUN (Track 1).bin" BINARY
  TRACK 01 MODE1/2352
    INDEX 01 00:00:00
FILE "PUYOPUYO_SUN (Track 2).bin" BINARY
  TRACK 02 AUDIO
    INDEX 00 00:00:00
    INDEX 01 00:02:01

    Write Offset: 0

Logs: https://drive.google.com/file/d/16Ju8k1 … sp=sharing
Redump: http://redump.org/disc/3766

23

(0 replies, posted in Verifications)

Common Disc Info:
    Title: Burnout Revenge
    Disc Number / Letter: N/A
    Disc Title: N/A
    System: Microsoft Xbox
    Media Type: DVD-ROM-9
    Category: Games
    Fully Matching ID: 13516
    Region: USA
    Languages: English
    Disc Serial: EA-118

    Ringcode Information:
        Layer 0 (Inner) Mastering Code (laser branded/etched): EA11805A-EA-L0 01 +    +
        Layer 0 (Inner) Mastering SID Code: IFPI LB48
        Layer 0 (Inner) Toolstamp or Mastering Code (engraved/stamped): A01
        Data Side Mould SID Code: IFPI IOM3
        Data Side Additional Mould: N/A
        Layer 1 (Outer) Mastering Code (laser branded/etched): EA11805A-EA-L1 01 +    +
        Layer 1 (Outer) Mastering SID Code: IFPI LB48
        Layer 1 (Outer) Toolstamp or Mastering Code (engraved/stamped): B02
        Label Side Mould SID Code: IFPI IOMB
        Label Side Additional Mould: N/A
    Barcode: 0 14633 15102 2
    Comments:

<b>XMID</b>: EA11805A
<b>DMI</b>: F7F013C2
<b>PFI</b>: 8FC52135
<b>SS</b>: 5F781686
<b>SS version</b>: 01
N/A

    Contents: N/A

Version and Editions:
    Version: 1.05
    Edition/Release: Original

Extras:
    Primary Volume Descriptor (PVD):

0320 : 00 00 00 00 00 00 00 00  00 00 00 00 00 32 30 30   .............200
0330 : 31 30 39 31 33 31 30 34  32 35 35 30 30 30 30 30   1091310425500000
0340 : 30 30 30 30 30 30 30 30  30 30 30 30 30 30 30 30   0000000000000000
0350 : 30 30 30 30 30 30 30 30  30 30 30 30 30 30 30 30   0000000000000000
0360 : 30 30 30 30 30 30 30 30  30 30 30 30 30 30 30 30   0000000000000000
0370 : 30 01 00 53 65 63 44 75  61 6C 4C 61 79 65 72 53   0..SecDualLayerS

    Security Sector Ranges:

292534-296629
447744-451839
676638-680733
833856-837951
1146184-1150279
1301656-1305751
1451446-1455541
1605848-1609943
1981856-1985951
2294812-2298907
2449482-2453577
2602534-2606629
2758180-2762275
2911618-2915713
3066608-3070703
3302268-3306363

Copy Protection:

Size & Checksum:
    Layerbreak: 1913776
    Size: 7825162240
    CRC32: 5159fb3d
    MD5: 3ad7cebab7d37ddac80d0fd992ebd785
    SHA1: 866af339f3e34b3ba8cf86f1edfcfbb0da30d295

Logs: https://drive.google.com/file/d/1Kjxuwy … sp=sharing
Redump: http://redump.org/disc/13516

24

(0 replies, posted in Verifications)

Common Disc Info:
    Title: The Matrix: Path of Neo
    Disc Number / Letter: N/A
    Disc Title: N/A
    System: Microsoft Xbox
    Media Type: DVD-ROM-9
    Category: Games
    Fully Matching ID: 42524
    Region: USA, Japan
    Languages: English
    Disc Serial: IG-124

    Ringcode Information:
        Layer 0 (Inner) Mastering Code (laser branded/etched): IG12401K-IG-L0 01
        Layer 0 (Inner) Mastering SID Code: IFPI L780
        Layer 0 (Inner) Toolstamp or Mastering Code (engraved/stamped): 0102
        Data Side Mould SID Code: IFPI KK7P
        Data Side Additional Mould: N/A
        Layer 1 (Outer) Mastering Code (laser branded/etched): IG12401K-IG-L1 02
        Layer 1 (Outer) Mastering SID Code: IFPI L779
        Layer 1 (Outer) Toolstamp or Mastering Code (engraved/stamped): 0402
        Label Side Mould SID Code: IFPI KKIIE
        Label Side Additional Mould: N/A
    Barcode: 7 42725 26496 0
    Comments:

<b>XMID</b>: IG12401K
<b>DMI</b>: F73B33B3
<b>PFI</b>: 8FC52135
<b>SS</b>: FE07E39F
<b>SS version</b>: 01
N/A

    Contents: N/A

Version and Editions:
    Version: 1.01
    Edition/Release: Original

Extras:
    Primary Volume Descriptor (PVD):

0320 : 00 00 00 00 00 00 00 00  00 00 00 00 00 32 30 30   .............200
0330 : 31 30 39 31 33 31 30 34  32 35 35 30 30 30 30 30   1091310425500000
0340 : 30 30 30 30 30 30 30 30  30 30 30 30 30 30 30 30   0000000000000000
0350 : 30 30 30 30 30 30 30 30  30 30 30 30 30 30 30 30   0000000000000000
0360 : 30 30 30 30 30 30 30 30  30 30 30 30 30 30 30 30   0000000000000000
0370 : 30 01 00 53 65 63 44 75  61 6C 4C 61 79 65 72 53   0..SecDualLayerS

    Security Sector Ranges:

293484-297579
449988-454083
605160-609255
753224-757319
900982-905077
1297926-1302021
1449474-1453569
1610166-1614261
2134348-2138443
2303432-2307527
2455526-2459621
2846322-2850417
2995720-2999815
3147548-3151643
3302814-3306909
3456504-3460599

Copy Protection:

Size & Checksum:
    Layerbreak: 1913776
    Size: 7825162240
    CRC32: 80cb556f
    MD5: 92612e4fa5e1464ac167943703fae7e3
    SHA1: eac58edb4dedd7b8806249f61c6429c8dd7f4efe

Logs: https://drive.google.com/file/d/1d6IvMR … sp=sharing
Redump: http://redump.org/disc/42524

25

(0 replies, posted in Verifications)

Common Disc Info:
    Title: Sonic Mega Collection Plus
    Foreign Title (Non-latin): ソニックメガコレクションプラス
    Disc Number / Letter: N/A
    Disc Title: N/A
    System: Microsoft Xbox
    Media Type: DVD-ROM-9
    Category: Games
    Fully Matching ID: 25102
    Region: World
    Languages: English, Japanese
    Disc Serial: SE-060

    Ringcode Information:
        Layer 0 (Inner) Mastering Code (laser branded/etched): SE06002W-SE-L0 01
        Layer 0 (Inner) Mastering SID Code: IFPI L250
        Layer 0 (Inner) Toolstamp or Mastering Code (engraved/stamped): 16
        Data Side Mould SID Code: N/A
        Data Side Additional Mould: N/A
        Layer 1 (Outer) Mastering Code (laser branded/etched): SE06002W-SE-L1 02
        Layer 1 (Outer) Mastering SID Code: IFPI L250
        Layer 1 (Outer) Toolstamp or Mastering Code (engraved/stamped): 12
        Label Side Mould SID Code: N/A
        Label Side Additional Mould: N/A
    Barcode: 0 10086 64057 1
    Comments:

<b>XMID</b>: SE06002W
<b>DMI</b>: C7549CBD
<b>PFI</b>: 8FC52135
<b>SS</b>: 12DA0D6F
<b>SS version</b>: 01
[T:SID] (VERIFY THIS) 683-00094
----------
<b>Additional DMI/SS combo</b>:
Japanese language can only be loaded by a NTSC-J region console.
Game contains unused translations for the main menu in French, German, Italian, Korean & Spanish accessible by renaming the language file to overwrite the English or Japanese translations.

    Contents: N/A

Version and Editions:
    Version: 1.02
    Edition/Release: Original

Extras:
    Primary Volume Descriptor (PVD):

0320 : 00 00 00 00 00 00 00 00  00 00 00 00 00 32 30 30   .............200
0330 : 31 30 39 31 33 31 30 34  32 35 35 30 30 30 30 30   1091310425500000
0340 : 30 30 30 30 30 30 30 30  30 30 30 30 30 30 30 30   0000000000000000
0350 : 30 30 30 30 30 30 30 30  30 30 30 30 30 30 30 30   0000000000000000
0360 : 30 30 30 30 30 30 30 30  30 30 30 30 30 30 30 30   0000000000000000
0370 : 30 01 00 53 65 63 44 75  61 6C 4C 61 79 65 72 53   0..SecDualLayerS

    Security Sector Ranges:

448842-452937
599970-604065
759322-763417
910128-914223
1068788-1072883
1220010-1224105
1372972-1377067
1530136-1534231
2222570-2226665
2368938-2373033
2525476-2529571
2682696-2686791
2842770-2846865
2987288-2991383
3147736-3151831
3302636-3306731

Copy Protection:

Size & Checksum:
    Layerbreak: 1913776
    Size: 7825162240
    CRC32: eefc442c
    MD5: c93597552128ef8f36262dd24ed93310
    SHA1: ca28a6fad4c0c243a806d4712e1a2b46c9e48c16

Logs: https://drive.google.com/file/d/1eYI8lN … sp=sharing
Redump: http://redump.org/disc/25102