1

(1 replies, posted in Verifications)

Bump.

2

(1 replies, posted in Verifications)

Bump.

Bump.

4

(1 replies, posted in Verifications)

Bump.

5

(1 replies, posted in Verifications)

Bump.

6

(1 replies, posted in Verifications)

Bump.

7

(2 replies, posted in Verifications)

Bump.

8

(2 replies, posted in Verifications)

Bump.

Bump.

Common Disc Info:
    Title: Shining Force III: Scenario 3: Hyouheki no Jashinguu
    Foreign Title (Non-latin): シャイニング・フォースⅢシナリオ3~氷壁の邪神宮~
    Disc Number / Letter: N/A
    Disc Title: N/A
    System: Sega Saturn
    Media Type: CD-ROM
    Category: Games
    Region: Japan
    Languages: Japanese
    Disc Serial: GS-9203

    Ringcode Information:
        Mastering Code (laser branded/etched): GS-9203GP-02404-P1K    V
        Mastering SID Code: IFPI L237
        Data-Side Mould SID Code: IFPI 4011
        Label-Side Mould SID Code: N/A
        Additional Mould: N/A
        Toolstamp or Mastering Code (engraved/stamped): 1
    Barcode: 4974365092030
    EXE/Build Date: 19980825
    Error Count: 0
    Comments: N/A
    Contents: N/A

Version and Editions:
    Version: V1.001
    Edition/Release: Original

Extras:
    Primary Volume Descriptor (PVD):

0320 : 20 20 20 20 20 20 20 20  20 20 20 20 20 31 39 39                199
0330 : 38 30 38 32 35 32 33 34  34 35 32 30 30 14 31 39   8082523445200.19
0340 : 39 38 30 38 32 35 32 33  34 34 35 32 30 30 14 30   98082523445200.0
0350 : 30 30 30 30 30 30 30 30  30 30 30 30 30 30 30 00   000000000000000.
0360 : 30 30 30 30 30 30 30 30  30 30 30 30 30 30 30 30   0000000000000000
0370 : 00 01 00 00 00 00 00 00  00 00 00 00 00 00 00 00   ................

    Header:

0000 : 53 45 47 41 20 53 45 47  41 53 41 54 55 52 4E 20   SEGA SEGASATURN
0010 : 53 45 47 41 20 45 4E 54  45 52 50 52 49 53 45 53   SEGA ENTERPRISES
0020 : 47 53 2D 39 32 30 33 20  20 20 56 31 2E 30 30 31   GS-9203   V1.001
0030 : 31 39 39 38 30 38 32 35  43 44 2D 31 2F 31 20 20   19980825CD-1/1 
0040 : 4A 54 20 20 20 20 20 20  20 20 20 20 20 20 20 20   JT             
0050 : 4A 45 20 20 20 20 20 20  20 20 20 20 20 20 20 20   JE             
0060 : 53 48 49 4E 49 4E 47 20  46 4F 52 43 45 20 33 20   SHINING FORCE 3
0070 : 53 43 45 4E 41 52 49 4F  20 33 20 20 20 20 20 20   SCENARIO 3     
0080 : 48 59 4F 48 45 4B 49 20  4E 4F 20 20 20 20 20 20   HYOHEKI NO     
0090 : 4A 41 53 48 49 4E 4B 59  55 20 20 20 20 20 20 20   JASHINKYU       
00A0 : 20 20 20 20 20 20 20 20  20 20 20 20 20 20 20 20                   
00B0 : 20 20 20 20 20 20 20 20  20 20 20 20 20 20 20 20                   
00C0 : 20 20 20 20 20 20 20 20  20 20 20 20 20 20 20 20                   
00D0 : 00 00 00 00 00 00 00 00  00 00 00 00 00 00 00 00   ................
00E0 : 00 00 10 00 00 00 00 00  06 00 20 00 06 00 10 00   .......... .....
00F0 : 06 00 40 00 00 00 00 00  00 00 00 00 00 00 00 00   ..@.............

Tracks and Write Offsets:
    DAT:

<rom name="SHINING_FORCE_3_3 (Track 1).bin" size="508594128" crc="e6f03eab" md5="455c90108d57b4570cca42adb221bfbd" sha1="6a2646030ff74a98b666726b78003e6505d24285" />
<rom name="SHINING_FORCE_3_3 (Track 2).bin" size="1818096" crc="e7f27d12" md5="1838c7f6c67ab3d15a6a003eb9fd826d" sha1="b15f0566d65879186aef3a7ebdeb5cb472e091ad" />

    Cuesheet:

CATALOG 0000000000000
FILE "SHINING_FORCE_3_3 (Track 1).bin" BINARY
  TRACK 01 MODE1/2352
    INDEX 01 00:00:00
FILE "SHINING_FORCE_3_3 (Track 2).bin" BINARY
  TRACK 02 AUDIO
    INDEX 00 00:00:00
    INDEX 01 00:02:00

    Write Offset: 684


http://redump.org/disc/3507/

Verification Data:
https://drive.google.com/file/d/1WDnPAQ … sp=sharing

11

(1 replies, posted in Verifications)

Common Disc Info:
    Title: Puyo Puyo Tsuu
    Foreign Title (Non-latin): ぷよぷよ通
    System: Sega Saturn
    Media Type: CD-ROM
    Category: Games
    Region: Japan
    Languages: Japanese
    Disc Serial: T-6601G

    Ringcode Information:
        Mastering Code (laser branded/etched): T-6607GP-00504    3M2    C    5X
        Mastering SID Code: IFPI L223
        Data-Side Mould SID Code: IFPI 3907
    EXE/Build Date: 19950930
    Error Count: 0

Version and Editions:
    Version: V1.200
    Edition/Release: Original

Extras:
    Primary Volume Descriptor (PVD):

0320 : 20 20 20 20 20 20 20 20  20 20 20 20 20 31 39 39                199
0330 : 35 30 39 33 30 30 30 31  39 30 39 30 30 DC 31 39   5093000190900.19
0340 : 39 35 30 39 33 30 30 30  31 39 30 39 30 30 DC 30   95093000190900.0
0350 : 30 30 30 30 30 30 30 30  30 30 30 30 30 30 30 00   000000000000000.
0360 : 30 30 30 30 30 30 30 30  30 30 30 30 30 30 30 30   0000000000000000
0370 : 00 01 00 00 00 00 00 00  00 00 00 00 00 00 00 00   ................

    Header:

0000 : 53 45 47 41 20 53 45 47  41 53 41 54 55 52 4E 20   SEGA SEGASATURN
0010 : 53 45 47 41 20 54 50 20  54 2D 36 36 20 20 20 20   SEGA TP T-66   
0020 : 54 2D 36 36 30 31 47 20  20 20 56 31 2E 32 30 30   T-6601G   V1.200
0030 : 31 39 39 35 30 39 33 30  43 44 2D 31 2F 31 20 20   19950930CD-1/1 
0040 : 4A 54 20 20 20 20 20 20  20 20 20 20 20 20 20 20   JT             
0050 : 4A 20 20 20 20 20 20 20  20 20 20 20 20 20 20 20   J               
0060 : 50 55 59 4F 50 55 59 4F  32 20 20 20 20 20 20 20   PUYOPUYO2       
0070 : 20 20 20 20 20 20 20 20  20 20 20 20 20 20 20 20                   
0080 : 20 20 20 20 20 20 20 20  20 20 20 20 20 20 20 20                   
0090 : 20 20 20 20 20 20 20 20  20 20 20 20 20 20 20 20                   
00A0 : 20 20 20 20 20 20 20 20  20 20 20 20 20 20 20 20                   
00B0 : 20 20 20 20 20 20 20 20  20 20 20 20 20 20 20 20                   
00C0 : 20 20 20 20 20 20 20 20  20 20 20 20 20 20 20 20                   
00D0 : 00 00 00 00 00 00 00 00  00 00 00 00 00 00 00 00   ................
00E0 : 00 00 18 00 00 00 00 00  00 00 00 00 00 00 00 00   ................
00F0 : 06 00 80 00 00 00 00 00  00 00 00 00 00 00 00 00   ................

Tracks and Write Offsets:
    DAT:

<rom name="PuyoPuyoTsuu (Track 1).bin" size="606498480" crc="3f966f9d" md5="ffc09ff9b8be1e96b8440ce7fcefea89" sha1="7dcbc65efc9d356e8216061c2cda5a71b40e291f" />
<rom name="PuyoPuyoTsuu (Track 2).bin" size="1764000" crc="e968e794" md5="58a7d1a759f9f8b6bf26195efe2a9441" sha1="4314f1500bfb5610aee15f70db9e6f950b7258d9" />

    Cuesheet:

CATALOG 0000000000000
FILE "PuyoPuyoTsuu (Track 1).bin" BINARY
  TRACK 01 MODE1/2352
    INDEX 01 00:00:00
FILE "PuyoPuyoTsuu (Track 2).bin" BINARY
  TRACK 02 AUDIO
    INDEX 00 00:00:00
    INDEX 01 00:02:00

    Write Offset: 0

http://redump.org/disc/3748/

Verification Data:
https://drive.google.com/file/d/10XSgM_ … sp=sharing

12

(1 replies, posted in Verifications)

Common Disc Info:
    Title: Darius 2
    Foreign Title (Non-latin): ダライアスⅡ
    Disc Number / Letter: N/A
    Disc Title: N/A
    System: Sega Saturn
    Media Type: CD-ROM
    Category: Games
    Region: Japan
    Languages: Japanese
    Disc Serial: T-1104G

    Ringcode Information:
        Mastering Code (laser branded/etched): T-1104GP-00824    2MB1    C    64    5
        Mastering SID Code: IFPI L223
        Data-Side Mould SID Code: IFPI 3908
        Label-Side Mould SID Code: N/A
        Additional Mould: N/A
        Toolstamp or Mastering Code (engraved/stamped): N/A
    Barcode: T498861196011
    EXE/Build Date: 19960418
    Error Count: 0
    Comments: N/A
    Contents: N/A

Version and Editions:
    Version: V1.003
    Edition/Release: Original

Extras:
    Primary Volume Descriptor (PVD):

0320 : 20 20 20 20 20 20 20 20  20 20 20 20 20 31 39 39                199
0330 : 36 30 34 31 38 31 32 30  32 30 33 30 30 14 31 39   6041812020300.19
0340 : 39 36 30 34 31 38 31 32  30 32 30 33 30 30 14 30   96041812020300.0
0350 : 30 30 30 30 30 30 30 30  30 30 30 30 30 30 30 00   000000000000000.
0360 : 30 30 30 30 30 30 30 30  30 30 30 30 30 30 30 30   0000000000000000
0370 : 00 01 00 00 00 00 00 00  00 00 00 00 00 00 00 00   ................

    Header:

0000 : 53 45 47 41 20 53 45 47  41 53 41 54 55 52 4E 20   SEGA SEGASATURN
0010 : 53 45 47 41 20 54 50 20  54 2D 31 31 20 20 20 20   SEGA TP T-11   
0020 : 54 2D 31 31 30 34 47 20  20 20 56 31 2E 30 30 33   T-1104G   V1.003
0030 : 31 39 39 36 30 34 31 38  43 44 2D 31 2F 31 20 20   19960418CD-1/1 
0040 : 4A 54 20 20 20 20 20 20  20 20 20 20 20 20 20 20   JT             
0050 : 4A 20 20 20 20 20 20 20  20 20 20 20 20 20 20 20   J               
0060 : 44 41 52 49 55 53 32 20  20 20 20 20 20 20 20 20   DARIUS2         
0070 : 20 20 20 20 20 20 20 20  20 20 20 20 20 20 20 20                   
0080 : 20 20 20 20 20 20 20 20  20 20 20 20 20 20 20 20                   
0090 : 20 20 20 20 20 20 20 20  20 20 20 20 20 20 20 20                   
00A0 : 20 20 20 20 20 20 20 20  20 20 20 20 20 20 20 20                   
00B0 : 20 20 20 20 20 20 20 20  20 20 20 20 20 20 20 20                   
00C0 : 20 20 20 20 20 20 20 20  20 20 20 20 20 20 20 20                   
00D0 : 00 00 00 00 00 00 00 00  00 00 00 00 00 00 00 00   ................
00E0 : 00 00 18 00 00 00 00 00  00 00 00 00 00 00 00 00   ................
00F0 : 06 00 40 00 00 00 00 00  00 00 00 00 00 00 00 00   ..@.............

Tracks and Write Offsets:
    DAT:

<rom name="DARIUS2 (Track 01).bin" size="9161040" crc="a3ec1bb6" md5="560e36d43aefecaa17a65db99c0bd051" sha1="1b0f63f33735b82265ba4955a64df7e6afc7c157" />
<rom name="DARIUS2 (Track 02).bin" size="43853040" crc="18f5efa2" md5="802d231616a4d1a6759069799a675b2e" sha1="23d3cc5b3e8ddf9f9d7aa974683b90079ee428eb" />
<rom name="DARIUS2 (Track 03).bin" size="37791936" crc="41ff900e" md5="31f320df00dc04e444d3fb86b0204ef3" sha1="48f3892dc0db51177cdaeb41ba11e8ceaa27ec1f" />
<rom name="DARIUS2 (Track 04).bin" size="39243120" crc="ac61e703" md5="bde41a973b463432dc3a814ee71622c4" sha1="3d275a7a5964d9086090ff78a0171d60a36b5b37" />
<rom name="DARIUS2 (Track 05).bin" size="36905232" crc="06683f62" md5="c64f1b1b034f40375ef57af4e726632b" sha1="9415d12e98d1ce67302e53c5aad8baac302f1f2f" />
<rom name="DARIUS2 (Track 06).bin" size="40468512" crc="6fc2f3ed" md5="a24aff3bccbbec705310550122666311" sha1="018d0f0f044cdb628d1b2b051e9dd5a84f2c1c97" />
<rom name="DARIUS2 (Track 07).bin" size="38309376" crc="f5c3d272" md5="067c275eae1eeb3fd0dafa809a38283e" sha1="b37c731be0b3420388fb0b9ce54117d0a3050568" />
<rom name="DARIUS2 (Track 08).bin" size="37396800" crc="6050716e" md5="4adf5309f62a78f2899844c2cef8f4b9" sha1="598aafba079e70f8c061e0dd522dd203cfbcc18c" />
<rom name="DARIUS2 (Track 09).bin" size="58564800" crc="8b7d7c65" md5="081d59d1ab3d359511b3fd1e5260775c" sha1="0f154ad8f3b7b92b0d2a6a5a50676e3d29eb764f" />
<rom name="DARIUS2 (Track 10).bin" size="11491872" crc="b3c34dfa" md5="c6065a42293d2d86499711d2ff47afe9" sha1="bb79c01b44b37db001bbf026b7184419d3935bb9" />
<rom name="DARIUS2 (Track 11).bin" size="40786032" crc="7207715c" md5="eda4c57b9e5248a70de6a9a0f3b60432" sha1="77c99a81b1ed665af1bb6fac18133386e6a6b340" />
<rom name="DARIUS2 (Track 12).bin" size="40889520" crc="a97c779d" md5="f9557c65d4994b809966a30b5cd78d4e" sha1="f606f7bbdcc4d7da9f6b84ff65728e35f8d57f3b" />
<rom name="DARIUS2 (Track 13).bin" size="9758448" crc="1c140207" md5="15d4b11ea1faad8b835bf0e834426399" sha1="dd8115011b45649d5264f0b519c37d779e6a90e6" />
<rom name="DARIUS2 (Track 14).bin" size="4059552" crc="710a3868" md5="c47c844e1b62d0d69513debd1ac1b10c" sha1="efc0af183411e5307fdd7a9825b1f9ea06dc5517" />
<rom name="DARIUS2 (Track 15).bin" size="8387232" crc="a5f6168d" md5="9e24a3a959030f3c3fb02105b7d9a119" sha1="6b72d0d6b4080ef47021f1cee41629cb45fce703" />
<rom name="DARIUS2 (Track 16).bin" size="7999152" crc="d65268e0" md5="640f4db482b2e00d5bbc441a281f5c4d" sha1="275b526c7fa1a078747f3cd2edcecaaff6fa4ba1" />
<rom name="DARIUS2 (Track 17).bin" size="24583104" crc="7deb3b8e" md5="c1fb8584bb121117538895249e1c00c5" sha1="644ab3a7e48a0b4a0bfe0bb5e93e42f6fdc78812" />

    Cuesheet:

CATALOG 0000000000000
FILE "DARIUS2 (Track 01).bin" BINARY
  TRACK 01 MODE1/2352
    INDEX 01 00:00:00
FILE "DARIUS2 (Track 02).bin" BINARY
  TRACK 02 AUDIO
    INDEX 00 00:00:00
    INDEX 01 00:02:00
FILE "DARIUS2 (Track 03).bin" BINARY
  TRACK 03 AUDIO
    INDEX 00 00:00:00
    INDEX 01 00:02:00
FILE "DARIUS2 (Track 04).bin" BINARY
  TRACK 04 AUDIO
    INDEX 00 00:00:00
    INDEX 01 00:02:00
FILE "DARIUS2 (Track 05).bin" BINARY
  TRACK 05 AUDIO
    INDEX 00 00:00:00
    INDEX 01 00:02:00
FILE "DARIUS2 (Track 06).bin" BINARY
  TRACK 06 AUDIO
    INDEX 00 00:00:00
    INDEX 01 00:02:00
FILE "DARIUS2 (Track 07).bin" BINARY
  TRACK 07 AUDIO
    INDEX 00 00:00:00
    INDEX 01 00:02:00
FILE "DARIUS2 (Track 08).bin" BINARY
  TRACK 08 AUDIO
    INDEX 00 00:00:00
    INDEX 01 00:02:00
FILE "DARIUS2 (Track 09).bin" BINARY
  TRACK 09 AUDIO
    INDEX 00 00:00:00
    INDEX 01 00:02:00
FILE "DARIUS2 (Track 10).bin" BINARY
  TRACK 10 AUDIO
    INDEX 00 00:00:00
    INDEX 01 00:02:00
FILE "DARIUS2 (Track 11).bin" BINARY
  TRACK 11 AUDIO
    INDEX 00 00:00:00
    INDEX 01 00:02:00
FILE "DARIUS2 (Track 12).bin" BINARY
  TRACK 12 AUDIO
    INDEX 00 00:00:00
    INDEX 01 00:02:00
FILE "DARIUS2 (Track 13).bin" BINARY
  TRACK 13 AUDIO
    INDEX 00 00:00:00
    INDEX 01 00:02:00
FILE "DARIUS2 (Track 14).bin" BINARY
  TRACK 14 AUDIO
    INDEX 00 00:00:00
    INDEX 01 00:02:00
FILE "DARIUS2 (Track 15).bin" BINARY
  TRACK 15 AUDIO
    INDEX 00 00:00:00
    INDEX 01 00:02:00
FILE "DARIUS2 (Track 16).bin" BINARY
  TRACK 16 AUDIO
    INDEX 00 00:00:00
    INDEX 01 00:02:00
FILE "DARIUS2 (Track 17).bin" BINARY
  TRACK 17 AUDIO
    INDEX 00 00:00:00
    INDEX 01 00:02:00

    Write Offset: 0

http://redump.org/disc/34318/

Verification Data:
https://drive.google.com/file/d/1PIuXlr … sp=sharing

13

(1 replies, posted in Verifications)

-------------------------------------Disc 1-------------------------------------
Common Disc Info:
    Title: Policenauts
    Foreign Title (Non-latin): ポリスノーツ
    Disc Number / Letter: 1
    Disc Title: N/A
    System: Sega Saturn
    Media Type: CD-ROM
    Category: Games
    Region: Japan
    Languages: Japanese
    Disc Serial: T-9510G

    Ringcode Information:
        Mastering Code (laser branded/etched): T-9510GP-00965-P1C    V
        Mastering SID Code: IFPI L231
        Data-Side Mould SID Code: IFPI 4011
        Label-Side Mould SID Code: N/A
        Additional Mould: N/A
        Toolstamp or Mastering Code (engraved/stamped): 1 6
    Barcode: T4988602017663
    EXE/Build Date: 19960701
    Error Count: 0
    Comments: N/A
    Contents: N/A

Version and Editions:
    Version: V1.000
    Edition/Release: Original

Extras:
    Primary Volume Descriptor (PVD):

0320 : 20 20 20 20 20 20 20 20  20 20 20 20 20 31 39 39                199
0330 : 36 30 37 30 32 32 30 30  30 30 36 30 30 DC 31 39   6070220000600.19
0340 : 39 36 30 37 30 32 32 30  30 30 30 36 30 30 DC 30   96070220000600.0
0350 : 30 30 30 30 30 30 30 30  30 30 30 30 30 30 30 00   000000000000000.
0360 : 30 30 30 30 30 30 30 30  30 30 30 30 30 30 30 30   0000000000000000
0370 : 00 01 00 00 00 00 00 00  00 00 00 00 00 00 00 00   ................

    Header:

0000 : 53 45 47 41 20 53 45 47  41 53 41 54 55 52 4E 20   SEGA SEGASATURN
0010 : 53 45 47 41 20 54 50 20  54 2D 39 35 20 20 20 20   SEGA TP T-95   
0020 : 54 2D 39 35 31 30 47 20  20 20 56 31 2E 30 30 30   T-9510G   V1.000
0030 : 31 39 39 36 30 37 30 31  43 44 2D 31 2F 33 20 20   19960701CD-1/3 
0040 : 4A 20 20 20 20 20 20 20  20 20 20 20 20 20 20 20   J               
0050 : 4A 4D 47 20 20 20 20 20  20 20 20 20 20 20 20 20   JMG             
0060 : 50 4F 4C 49 43 45 4E 41  55 54 53 20 20 20 20 20   POLICENAUTS     
0070 : 20 20 20 20 20 20 20 20  20 20 20 20 20 20 20 20                   
0080 : 20 20 20 20 20 20 20 20  20 20 20 20 20 20 20 20                   
0090 : 20 20 20 20 20 20 20 20  20 20 20 20 20 20 20 20                   
00A0 : 20 20 20 20 20 20 20 20  20 20 20 20 20 20 20 20                   
00B0 : 20 20 20 20 20 20 20 20  20 20 20 20 20 20 20 20                   
00C0 : 20 20 20 20 20 20 20 20  20 20 20 20 20 20 20 20                   
00D0 : 00 00 00 00 00 00 00 00  00 00 00 00 00 00 00 00   ................
00E0 : 00 00 18 00 00 00 00 00  00 00 00 00 00 00 00 00   ................
00F0 : 00 20 00 00 00 00 00 00  00 00 00 00 00 00 00 00   . ..............

Tracks and Write Offsets:
    DAT:

<rom name="Policenauts Disc 1 (Track 1).bin" size="524338416" crc="40559040" md5="d78318eff2d44189f14dfcb3b4859333" sha1="526bcd0ff248866f5d8c829c6c186f6c1a9c2405" />
<rom name="Policenauts Disc 1 (Track 2).bin" size="4812192" crc="9ab27e17" md5="ad95d264cbec6f82fabf388d7016ae12" sha1="4204c3989a5054578d32df7c15915a358d6ea2a9" />

    Cuesheet:

CATALOG 0000000000000
FILE "Policenauts Disc 1 (Track 1).bin" BINARY
  TRACK 01 MODE1/2352
    INDEX 01 00:00:00
FILE "Policenauts Disc 1 (Track 2).bin" BINARY
  TRACK 02 AUDIO
    INDEX 00 00:00:00
    INDEX 01 00:02:00

    Write Offset: 1254

http://redump.org/disc/3857/

Verification Data:
https://drive.google.com/file/d/1bBQPwh … sp=sharing

-------------------------------------Disc 2-------------------------------------
Common Disc Info:
    Title: Policenauts
    Foreign Title (Non-latin): ポリスノーツ
    Disc Number / Letter: 2
    Disc Title: N/A
    System: Sega Saturn
    Media Type: CD-ROM
    Category: Games
    Region: Japan
    Languages: Japanese
    Disc Serial: T-9510G

    Ringcode Information:
        Mastering Code (laser branded/etched): T-9510GP-00966-P1C    V
        Mastering SID Code: IFPI L231
        Data-Side Mould SID Code: IFPI 4011
        Label-Side Mould SID Code: N/A
        Additional Mould: N/A
        Toolstamp or Mastering Code (engraved/stamped): 1
    Barcode: T4988602017663
    EXE/Build Date: 19960701
    Error Count: 0
    Comments: N/A
    Contents: N/A

Version and Editions:
    Version: V1.000
    Edition/Release: Original

Extras:
    Primary Volume Descriptor (PVD):

0320 : 20 20 20 20 20 20 20 20  20 20 20 20 20 31 39 39                199
0330 : 36 30 37 30 32 32 30 30  38 35 34 30 30 DC 31 39   6070220085400.19
0340 : 39 36 30 37 30 32 32 30  30 38 35 34 30 30 DC 30   96070220085400.0
0350 : 30 30 30 30 30 30 30 30  30 30 30 30 30 30 30 00   000000000000000.
0360 : 30 30 30 30 30 30 30 30  30 30 30 30 30 30 30 30   0000000000000000
0370 : 00 01 00 00 00 00 00 00  00 00 00 00 00 00 00 00   ................

    Header:

0000 : 53 45 47 41 20 53 45 47  41 53 41 54 55 52 4E 20   SEGA SEGASATURN
0010 : 53 45 47 41 20 54 50 20  54 2D 39 35 20 20 20 20   SEGA TP T-95   
0020 : 54 2D 39 35 31 30 47 20  20 20 56 31 2E 30 30 30   T-9510G   V1.000
0030 : 31 39 39 36 30 37 30 31  43 44 2D 32 2F 33 20 20   19960701CD-2/3 
0040 : 4A 20 20 20 20 20 20 20  20 20 20 20 20 20 20 20   J               
0050 : 4A 4D 47 20 20 20 20 20  20 20 20 20 20 20 20 20   JMG             
0060 : 50 4F 4C 49 43 45 4E 41  55 54 53 20 20 20 20 20   POLICENAUTS     
0070 : 20 20 20 20 20 20 20 20  20 20 20 20 20 20 20 20                   
0080 : 20 20 20 20 20 20 20 20  20 20 20 20 20 20 20 20                   
0090 : 20 20 20 20 20 20 20 20  20 20 20 20 20 20 20 20                   
00A0 : 20 20 20 20 20 20 20 20  20 20 20 20 20 20 20 20                   
00B0 : 20 20 20 20 20 20 20 20  20 20 20 20 20 20 20 20                   
00C0 : 20 20 20 20 20 20 20 20  20 20 20 20 20 20 20 20                   
00D0 : 00 00 00 00 00 00 00 00  00 00 00 00 00 00 00 00   ................
00E0 : 00 00 18 00 00 00 00 00  00 00 00 00 00 00 00 00   ................
00F0 : 00 20 00 00 00 00 00 00  00 00 00 00 00 00 00 00   . ..............

Tracks and Write Offsets:
    DAT:

<rom name="POLICENAUTS2 (Track 1).bin" size="560211120" crc="5ae082f4" md5="657ecc922d2b0912476a387bd039ea2c" sha1="20edac717f607b1e0a10443f3480c96acd725450" />
<rom name="POLICENAUTS2 (Track 2).bin" size="4812192" crc="ef2f9fcb" md5="4a602b88570e6f5b9a6c4b59cccec7e3" sha1="d2e0164f928a214f68635927b9d218b06149de5c" />

    Cuesheet:

CATALOG 0000000000000
FILE "POLICENAUTS2 (Track 1).bin" BINARY
  TRACK 01 MODE1/2352
    INDEX 01 00:00:00
FILE "POLICENAUTS2 (Track 2).bin" BINARY
  TRACK 02 AUDIO
    INDEX 00 00:00:00
    INDEX 01 00:02:00

    Write Offset: 1848

http://redump.org/disc/3858/

Verification Data:
https://drive.google.com/file/d/1A3c7gA … sp=sharing

-------------------------------------Disc 3-------------------------------------
Common Disc Info:
    Title: Policenauts
    Foreign Title (Non-latin): ポリスノーツ
    Disc Number / Letter: 3
    Disc Title: N/A
    System: Sega Saturn
    Media Type: CD-ROM
    Category: Games
    Region: Japan
    Languages: Japanese
    Disc Serial: T-9510G

    Ringcode Information:
        Mastering Code (laser branded/etched): T-9510GP-00967-P1C    V
        Mastering SID Code: IFPI L231
        Data-Side Mould SID Code: IFPI 4001
        Label-Side Mould SID Code: N/A
        Additional Mould: N/A
        Toolstamp or Mastering Code (engraved/stamped): 1
    Barcode: T4988602017663
    EXE/Build Date: 19960701
    Error Count: 0
    Comments: N/A
    Contents: N/A

Version and Editions:
    Version: V1.000
    Edition/Release: Original

Extras:
    Primary Volume Descriptor (PVD):

0320 : 20 20 20 20 20 20 20 20  20 20 20 20 20 31 39 39                199
0330 : 36 30 37 30 32 31 37 35  35 34 34 30 30 DC 31 39   6070217554400.19
0340 : 39 36 30 37 30 32 31 37  35 35 34 34 30 30 DC 30   96070217554400.0
0350 : 30 30 30 30 30 30 30 30  30 30 30 30 30 30 30 00   000000000000000.
0360 : 30 30 30 30 30 30 30 30  30 30 30 30 30 30 30 30   0000000000000000
0370 : 00 01 00 00 00 00 00 00  00 00 00 00 00 00 00 00   ................

    Header:

0000 : 53 45 47 41 20 53 45 47  41 53 41 54 55 52 4E 20   SEGA SEGASATURN
0010 : 53 45 47 41 20 54 50 20  54 2D 39 35 20 20 20 20   SEGA TP T-95   
0020 : 54 2D 39 35 31 30 47 20  20 20 56 31 2E 30 30 30   T-9510G   V1.000
0030 : 31 39 39 36 30 37 30 31  43 44 2D 33 2F 33 20 20   19960701CD-3/3 
0040 : 4A 20 20 20 20 20 20 20  20 20 20 20 20 20 20 20   J               
0050 : 4A 4D 47 20 20 20 20 20  20 20 20 20 20 20 20 20   JMG             
0060 : 50 4F 4C 49 43 45 4E 41  55 54 53 20 20 20 20 20   POLICENAUTS     
0070 : 20 20 20 20 20 20 20 20  20 20 20 20 20 20 20 20                   
0080 : 20 20 20 20 20 20 20 20  20 20 20 20 20 20 20 20                   
0090 : 20 20 20 20 20 20 20 20  20 20 20 20 20 20 20 20                   
00A0 : 20 20 20 20 20 20 20 20  20 20 20 20 20 20 20 20                   
00B0 : 20 20 20 20 20 20 20 20  20 20 20 20 20 20 20 20                   
00C0 : 20 20 20 20 20 20 20 20  20 20 20 20 20 20 20 20                   
00D0 : 00 00 00 00 00 00 00 00  00 00 00 00 00 00 00 00   ................
00E0 : 00 00 18 00 00 00 00 00  00 00 00 00 00 00 00 00   ................
00F0 : 00 20 00 00 00 00 00 00  00 00 00 00 00 00 00 00   . ..............

Tracks and Write Offsets:
    DAT:

<rom name="Policenauts Disc 3 (Track 1).bin" size="513533328" crc="dd3689b8" md5="90c6a9161d47c1c0244adfee57f89323" sha1="7c837f0a3a1c12ba430c0bf4feefabf518629220" />
<rom name="Policenauts Disc 3 (Track 2).bin" size="4812192" crc="3acb5bee" md5="8002b03ba2fb587f6cc99534589669e7" sha1="0954da75f9f36d0ec15b1675fee1a34f649349fc" />

    Cuesheet:

CATALOG 0000000000000
FILE "Policenauts Disc 3 (Track 1).bin" BINARY
  TRACK 01 MODE1/2352
    INDEX 01 00:00:00
FILE "Policenauts Disc 3 (Track 2).bin" BINARY
  TRACK 02 AUDIO
    INDEX 00 00:00:00
    INDEX 01 00:02:00

    Write Offset: 1254

http://redump.org/disc/3859/

Verification Data:
https://drive.google.com/file/d/17Pd2Av … sp=sharing

14

(1 replies, posted in Verifications)

Common Disc Info:
    Title: Rockman X3
    Foreign Title (Non-latin): ロックマンX3
    Disc Number / Letter: N/A
    Disc Title: N/A
    System: Sega Saturn
    Media Type: CD-ROM
    Category: Games
    Region: Japan
    Languages: Japanese
    Disc Serial: T-1210G

    Ringcode Information:
        Mastering Code (laser branded/etched): T-1210GP-00798    2M1    C    64
        Mastering SID Code: IFPI L223
        Data-Side Mould SID Code: IFPI 3911
        Label-Side Mould SID Code: N/A
        Additional Mould: N/A
        Toolstamp or Mastering Code (engraved/stamped): N/A
    Barcode: 4976219154550
    EXE/Build Date: 19960325
    Error Count: 0
    Comments: N/A
    Contents: N/A

Version and Editions:
    Version: V1.001
    Edition/Release: Original

Extras:
    Primary Volume Descriptor (PVD):

0320 : 20 20 20 20 20 20 20 20  20 20 20 20 20 31 39 39                199
0330 : 36 30 33 32 35 31 35 34  32 31 37 30 30 14 31 39   6032515421700.19
0340 : 39 36 30 33 32 35 31 35  34 32 31 37 30 30 14 30   96032515421700.0
0350 : 30 30 30 30 30 30 30 30  30 30 30 30 30 30 30 00   000000000000000.
0360 : 30 30 30 30 30 30 30 30  30 30 30 30 30 30 30 30   0000000000000000
0370 : 00 01 00 00 00 00 00 00  00 00 00 00 00 00 00 00   ................

    Header:

0000 : 53 45 47 41 20 53 45 47  41 53 41 54 55 52 4E 20   SEGA SEGASATURN
0010 : 53 45 47 41 20 54 50 20  54 2D 31 32 20 20 20 20   SEGA TP T-12   
0020 : 54 2D 31 32 31 30 47 20  20 20 56 31 2E 30 30 31   T-1210G   V1.001
0030 : 31 39 39 36 30 33 32 35  43 44 2D 31 2F 31 20 20   19960325CD-1/1 
0040 : 4A 20 20 20 20 20 20 20  20 20 20 20 20 20 20 20   J               
0050 : 4A 20 20 20 20 20 20 20  20 20 20 20 20 20 20 20   J               
0060 : 4A 3A 52 4F 43 4B 4D 41  4E 20 58 33 20 20 20 20   J:ROCKMAN X3   
0070 : 55 3A 4D 45 47 41 4D 41  4E 20 58 33 20 20 20 20   U:MEGAMAN X3   
0080 : 20 20 20 20 20 20 20 20  20 20 20 20 20 20 20 20                   
0090 : 20 20 20 20 20 20 20 20  20 20 20 20 20 20 20 20                   
00A0 : 20 20 20 20 20 20 20 20  20 20 20 20 20 20 20 20                   
00B0 : 20 20 20 20 20 20 20 20  20 20 20 20 20 20 20 20                   
00C0 : 20 20 20 20 20 20 20 20  20 20 20 20 20 20 20 20                   
00D0 : 00 00 00 00 00 00 00 00  00 00 00 00 00 00 00 00   ................
00E0 : 00 00 18 00 00 00 00 00  00 00 00 00 00 00 00 00   ................
00F0 : 06 01 00 00 00 00 00 00  00 00 00 00 00 00 00 00   ................

Tracks and Write Offsets:
    DAT:

<rom name="ROCKMAN_X3 (Track 01).bin" size="205106160" crc="8030be91" md5="47ec4d19ce8826ba541d29b4d031bebd" sha1="1ef3da9f377899ec9b5edab51c6150ddbe3909b0" />
<rom name="ROCKMAN_X3 (Track 02).bin" size="15520848" crc="d9ce55b1" md5="47b667fdb5320f65d99ab8a2ddabaa81" sha1="75049f3ba3c284a7446251dcd83e5700a37b2cab" />
<rom name="ROCKMAN_X3 (Track 03).bin" size="15582000" crc="119f7d14" md5="78df900beb812ae0a5bcf0c5f8db4dec" sha1="2f5a2fcd64eebba4d42845f1ec5d8a2ce9271d31" />
<rom name="ROCKMAN_X3 (Track 04).bin" size="2330832" crc="943e542a" md5="58e8ec895711a5e7e4e1fc26050a71f3" sha1="20dcd0e6e9b0b65283ae7b5ad7849ce9adb88224" />
<rom name="ROCKMAN_X3 (Track 05).bin" size="10621632" crc="239e9746" md5="a01cbad21303dc71753907d82d145cd1" sha1="578450ae8d717d6c2c4317a27f7617393805d20f" />
<rom name="ROCKMAN_X3 (Track 06).bin" size="1286544" crc="28917d6f" md5="f071a89afeb72f2f5c6c5ace5dd8f6cc" sha1="d088df588ab71f66b60d708f432d1061a9adc4d1" />
<rom name="ROCKMAN_X3 (Track 07).bin" size="15549072" crc="3c6d1144" md5="1d67f5526d154486794c8306bb74d249" sha1="142555a65bcd1e2c1be9df866d2968aacea39493" />
<rom name="ROCKMAN_X3 (Track 08).bin" size="15457344" crc="2f3b4dd6" md5="2454541c39b7bc4a43f256b6e5bd36d9" sha1="cef1b734643f781ba1c05b07b23320ed0f3cd4be" />
<rom name="ROCKMAN_X3 (Track 09).bin" size="15532608" crc="075b76a1" md5="978b1cdb6c9b1a3b7c465c7c08fb7aab" sha1="25052b9fac5fe8db251adc53eaeda3b89eaa7576" />
<rom name="ROCKMAN_X3 (Track 10).bin" size="15530256" crc="10521e8d" md5="bfd19834b3e92d17cbec54ad13228692" sha1="4ebb68c3e9c5e58a65fbd091f374a1fe984ded7f" />
<rom name="ROCKMAN_X3 (Track 11).bin" size="15464400" crc="13194c3f" md5="bb70f86cc19c0de442ff066fe903da86" sha1="d08d9a669cab86f71c568074dfba6ab972f3404b" />
<rom name="ROCKMAN_X3 (Track 12).bin" size="15438528" crc="4f5ec6ea" md5="19874946ea110e398db2428d23c0b644" sha1="4435ebd56bab101acec7694acc27b4172af08181" />
<rom name="ROCKMAN_X3 (Track 13).bin" size="15574944" crc="7e4ebf54" md5="ed688ce4165deb217c9ce2cfd364bc1c" sha1="d8ffc77ff4680b01e04b21995ae452f1d4d71ffe" />
<rom name="ROCKMAN_X3 (Track 14).bin" size="15525552" crc="6b70a57b" md5="ebefc334da1644ba31d765e044297eba" sha1="d093d1fcdca64495ffccb16cc4c9d347e5b8e0d1" />
<rom name="ROCKMAN_X3 (Track 15).bin" size="10781568" crc="bff12c9f" md5="850a10a69b2e5e70f0ce93f1c447984e" sha1="8caaf7ac787767eb7408a9f5ecc46d8fae0bbfd4" />
<rom name="ROCKMAN_X3 (Track 16).bin" size="15316224" crc="8ad4f3ab" md5="474d1e7be08f257275d7231fa030175c" sha1="c7d155f2d00e015205df1edda5ab7b161b0ea4d7" />
<rom name="ROCKMAN_X3 (Track 17).bin" size="15530256" crc="d943b1a7" md5="9700db36dc2c06be31adece11b4404a2" sha1="53bf999e7d5fc9eb0e47ad926510262401066717" />
<rom name="ROCKMAN_X3 (Track 18).bin" size="15551424" crc="0d512bbd" md5="2dafd079a22849fffa00f5b1175afeb5" sha1="31a3a00019711700664a18830a185b0ee5221ed1" />
<rom name="ROCKMAN_X3 (Track 19).bin" size="13253520" crc="e29667d5" md5="ff1f7508dad36b9e90a144a8255d60d9" sha1="067b71148bd2f0ac2d3a5e43fc11b207219e2a2a" />
<rom name="ROCKMAN_X3 (Track 20).bin" size="12954816" crc="27a59cc3" md5="9de0f11406f78fd2adfacd5a3eb8c465" sha1="6e94d2c98e91dfa1214df5a1473d5746192ecf46" />
<rom name="ROCKMAN_X3 (Track 21).bin" size="15492624" crc="45061691" md5="989dce6ff27d067a893792535e02295b" sha1="0ee295d75a10608fa1c1fee5f8bebb910ca17c80" />
<rom name="ROCKMAN_X3 (Track 22).bin" size="22047648" crc="788e90f7" md5="5b32789612118b1aeae339a1503ca256" sha1="bda06b806721956934f633f66d1dfdd76741bc8f" />
<rom name="ROCKMAN_X3 (Track 23).bin" size="12947760" crc="e26a5b56" md5="31bae446d8af53cd60bf7ba003a6e3ac" sha1="1473e639a2bf334cf78171861a06f643173d7c53" />
<rom name="ROCKMAN_X3 (Track 24).bin" size="15596112" crc="05518a10" md5="10b8440c72623b03783bb939f64f1fac" sha1="47e3688656c6a180d83ab2e78b8da6fbb043a287" />
<rom name="ROCKMAN_X3 (Track 25).bin" size="13359360" crc="76663336" md5="a745be6906769fe6161616aecf8a874e" sha1="a01177110f42b0c4d1b35da519b9933b11092f40" />
<rom name="ROCKMAN_X3 (Track 26).bin" size="12717264" crc="d8875d84" md5="de00b22ceab2d673bda8cbc556afe100" sha1="f6d3324b347df7840ed8b5cddb0e8b51cb2d50d9" />
<rom name="ROCKMAN_X3 (Track 27).bin" size="3429216" crc="e654915b" md5="57663b33174c66c9f6efd29154d0b1a3" sha1="487ec2f5f201d03d166bdf3af30c32680890ccfa" />
<rom name="ROCKMAN_X3 (Track 28).bin" size="13147680" crc="4fd87e61" md5="48bd871b16be84a98ae98ff4d26e90df" sha1="c1460b11c03eead3d79a705eed7772c5b6569066" />
<rom name="ROCKMAN_X3 (Track 29).bin" size="15582000" crc="d6be16aa" md5="1e5e2e88f5acf90ec14e1776613700ab" sha1="3d3aa12280d87087b2cce2b7b9dbeac526185f95" />
<rom name="ROCKMAN_X3 (Track 30).bin" size="3019968" crc="7b1c1501" md5="657d3ad77aca0d8d90c342d9bb9b37b2" sha1="332b7f47130e7c8999733023f3fae38502512943" />
<rom name="ROCKMAN_X3 (Track 31).bin" size="21247968" crc="b4d769e1" md5="f15846ff61b7e0404e377d4616e9251f" sha1="05137829a53acab6a150965f354517c49507f3d2" />

    Cuesheet:

CATALOG 0000000000000
FILE "ROCKMAN_X3 (Track 01).bin" BINARY
  TRACK 01 MODE1/2352
    INDEX 01 00:00:00
FILE "ROCKMAN_X3 (Track 02).bin" BINARY
  TRACK 02 AUDIO
    INDEX 00 00:00:00
    INDEX 01 00:02:00
FILE "ROCKMAN_X3 (Track 03).bin" BINARY
  TRACK 03 AUDIO
    INDEX 00 00:00:00
    INDEX 01 00:02:00
FILE "ROCKMAN_X3 (Track 04).bin" BINARY
  TRACK 04 AUDIO
    INDEX 00 00:00:00
    INDEX 01 00:02:00
FILE "ROCKMAN_X3 (Track 05).bin" BINARY
  TRACK 05 AUDIO
    INDEX 00 00:00:00
    INDEX 01 00:02:00
FILE "ROCKMAN_X3 (Track 06).bin" BINARY
  TRACK 06 AUDIO
    INDEX 00 00:00:00
    INDEX 01 00:02:00
FILE "ROCKMAN_X3 (Track 07).bin" BINARY
  TRACK 07 AUDIO
    INDEX 00 00:00:00
    INDEX 01 00:02:00
FILE "ROCKMAN_X3 (Track 08).bin" BINARY
  TRACK 08 AUDIO
    INDEX 00 00:00:00
    INDEX 01 00:02:00
FILE "ROCKMAN_X3 (Track 09).bin" BINARY
  TRACK 09 AUDIO
    INDEX 00 00:00:00
    INDEX 01 00:02:00
FILE "ROCKMAN_X3 (Track 10).bin" BINARY
  TRACK 10 AUDIO
    INDEX 00 00:00:00
    INDEX 01 00:02:00
FILE "ROCKMAN_X3 (Track 11).bin" BINARY
  TRACK 11 AUDIO
    INDEX 00 00:00:00
    INDEX 01 00:02:00
FILE "ROCKMAN_X3 (Track 12).bin" BINARY
  TRACK 12 AUDIO
    INDEX 00 00:00:00
    INDEX 01 00:02:00
FILE "ROCKMAN_X3 (Track 13).bin" BINARY
  TRACK 13 AUDIO
    INDEX 00 00:00:00
    INDEX 01 00:02:00
FILE "ROCKMAN_X3 (Track 14).bin" BINARY
  TRACK 14 AUDIO
    INDEX 00 00:00:00
    INDEX 01 00:02:00
FILE "ROCKMAN_X3 (Track 15).bin" BINARY
  TRACK 15 AUDIO
    INDEX 00 00:00:00
    INDEX 01 00:02:00
FILE "ROCKMAN_X3 (Track 16).bin" BINARY
  TRACK 16 AUDIO
    INDEX 00 00:00:00
    INDEX 01 00:02:00
FILE "ROCKMAN_X3 (Track 17).bin" BINARY
  TRACK 17 AUDIO
    INDEX 00 00:00:00
    INDEX 01 00:02:00
FILE "ROCKMAN_X3 (Track 18).bin" BINARY
  TRACK 18 AUDIO
    INDEX 00 00:00:00
    INDEX 01 00:02:00
FILE "ROCKMAN_X3 (Track 19).bin" BINARY
  TRACK 19 AUDIO
    INDEX 00 00:00:00
    INDEX 01 00:02:00
FILE "ROCKMAN_X3 (Track 20).bin" BINARY
  TRACK 20 AUDIO
    INDEX 00 00:00:00
    INDEX 01 00:02:00
FILE "ROCKMAN_X3 (Track 21).bin" BINARY
  TRACK 21 AUDIO
    INDEX 00 00:00:00
    INDEX 01 00:02:00
FILE "ROCKMAN_X3 (Track 22).bin" BINARY
  TRACK 22 AUDIO
    INDEX 00 00:00:00
    INDEX 01 00:02:00
FILE "ROCKMAN_X3 (Track 23).bin" BINARY
  TRACK 23 AUDIO
    INDEX 00 00:00:00
    INDEX 01 00:02:00
FILE "ROCKMAN_X3 (Track 24).bin" BINARY
  TRACK 24 AUDIO
    INDEX 00 00:00:00
    INDEX 01 00:02:00
FILE "ROCKMAN_X3 (Track 25).bin" BINARY
  TRACK 25 AUDIO
    INDEX 00 00:00:00
    INDEX 01 00:02:00
FILE "ROCKMAN_X3 (Track 26).bin" BINARY
  TRACK 26 AUDIO
    INDEX 00 00:00:00
    INDEX 01 00:02:00
FILE "ROCKMAN_X3 (Track 27).bin" BINARY
  TRACK 27 AUDIO
    INDEX 00 00:00:00
    INDEX 01 00:02:00
FILE "ROCKMAN_X3 (Track 28).bin" BINARY
  TRACK 28 AUDIO
    INDEX 00 00:00:00
    INDEX 01 00:02:00
FILE "ROCKMAN_X3 (Track 29).bin" BINARY
  TRACK 29 AUDIO
    INDEX 00 00:00:00
    INDEX 01 00:02:00
FILE "ROCKMAN_X3 (Track 30).bin" BINARY
  TRACK 30 AUDIO
    INDEX 00 00:00:00
    INDEX 01 00:02:00
FILE "ROCKMAN_X3 (Track 31).bin" BINARY
  TRACK 31 AUDIO
    INDEX 00 00:00:00
    INDEX 01 00:02:00

    Write Offset: 0

http://redump.org/disc/3657/

Verification Data:
https://drive.google.com/file/d/1jO5SdP … sp=sharing

15

(1 replies, posted in Verifications)

Common Disc Info:
    Title: Darius Gaiden
    Foreign Title (Non-latin): ダライアス外伝
    Disc Number / Letter: N/A
    Disc Title: N/A
    System: Sega Saturn
    Media Type: CD-ROM
    Category: Games
    Region: Japan
    Languages: Japanese
    Disc Serial: T-1102G

    Ringcode Information:
        Mastering Code (laser branded/etched): T-1102GP-00592    2MB2    C    5Y
        Mastering SID Code: IFPI L223
        Data-Side Mould SID Code: IFPI 3904
        Label-Side Mould SID Code: N/A
        Additional Mould: N/A
        Toolstamp or Mastering Code (engraved/stamped): N/A
    Barcode: T4988611950074
    EXE/Build Date: 19951110
    Error Count: 0
    Comments: N/A
    Contents: N/A

Version and Editions:
    Version: V1.001
    Edition/Release: Original

Extras:
    Primary Volume Descriptor (PVD):

0320 : 20 20 20 20 20 20 20 20  20 20 20 20 20 31 39 39                199
0330 : 35 30 38 30 39 30 30 30  30 30 30 30 30 24 31 39   5080900000000$19
0340 : 39 35 30 38 30 39 30 30  30 30 30 30 30 30 24 30   95080900000000$0
0350 : 30 30 30 30 30 30 30 30  30 30 30 30 30 30 30 00   000000000000000.
0360 : 30 30 30 30 30 30 30 30  30 30 30 30 30 30 30 30   0000000000000000
0370 : 00 01 00 00 00 00 00 00  00 00 00 00 00 00 00 00   ................

    Header:

0000 : 53 45 47 41 20 53 45 47  41 53 41 54 55 52 4E 20   SEGA SEGASATURN
0010 : 53 45 47 41 20 54 50 20  54 2D 31 31 20 20 20 20   SEGA TP T-11   
0020 : 54 2D 31 31 30 32 47 20  20 20 56 31 2E 30 30 31   T-1102G   V1.001
0030 : 31 39 39 35 31 31 31 30  43 44 2D 31 2F 31 20 20   19951110CD-1/1 
0040 : 4A 54 20 20 20 20 20 20  20 20 20 20 20 20 20 20   JT             
0050 : 4A 20 20 20 20 20 20 20  20 20 20 20 20 20 20 20   J               
0060 : 44 41 52 49 55 53 20 47  41 49 44 45 4E 20 20 20   DARIUS GAIDEN   
0070 : 20 20 20 20 20 20 20 20  20 20 20 20 20 20 20 20                   
0080 : 20 20 20 20 20 20 20 20  20 20 20 20 20 20 20 20                   
0090 : 20 20 20 20 20 20 20 20  20 20 20 20 20 20 20 20                   
00A0 : 20 20 20 20 20 20 20 20  20 20 20 20 20 20 20 20                   
00B0 : 20 20 20 20 20 20 20 20  20 20 20 20 20 20 20 20                   
00C0 : 20 20 20 20 20 20 20 20  20 20 20 20 20 20 20 20                   
00D0 : 00 00 00 00 00 00 00 00  00 00 00 00 00 00 00 00   ................
00E0 : 00 00 18 00 00 00 00 00  00 00 00 00 00 00 00 00   ................
00F0 : 06 01 20 00 00 00 00 00  00 00 00 00 00 00 00 00   .. .............

Tracks and Write Offsets:
    DAT:

<rom name="DARIUS_GAIDEN (Track 01).bin" size="23362416" crc="9df46871" md5="8ed009c1eac1d9b53441af6adc2513fd" sha1="22910f1b417c5616fe9b9c489c36317754d18147" />
<rom name="DARIUS_GAIDEN (Track 02).bin" size="49039200" crc="e9754b01" md5="84bed8e7aa5b33bcd9c0bbc3496982f8" sha1="dc04bda506a59ce2dc8adb8b56a737f4cdd8cde3" />
<rom name="DARIUS_GAIDEN (Track 03).bin" size="1058400" crc="222cd0b2" md5="ab2837bce4e99608ee7c8b428ed971d5" sha1="fefb27a940cfe0a297626177d991093ea48e0329" />
<rom name="DARIUS_GAIDEN (Track 04).bin" size="19933200" crc="92851167" md5="8e29a0bf4b59fa4a192501913dc58a13" sha1="8ea5d4da7c8a87edaed2d9cbc38ade4caa009ed1" />
<rom name="DARIUS_GAIDEN (Track 05).bin" size="18973584" crc="87328c86" md5="9079605d3596533a997cb7e338eca16a" sha1="2aac57ca76ca855b5534315e93eb5d46723b4675" />
<rom name="DARIUS_GAIDEN (Track 06).bin" size="45200736" crc="26a8335c" md5="abd9cc4ba5c1a725b9da1ad3f68a3383" sha1="91e06e6cd9034592e08c81f548b7360b7fc0ab98" />
<rom name="DARIUS_GAIDEN (Track 07).bin" size="24759504" crc="cfcf7789" md5="b626507124e81be71977f21588bda133" sha1="53f129261519fd24d0fde522ce6e9cf0a25cfc18" />
<rom name="DARIUS_GAIDEN (Track 08).bin" size="44217600" crc="8d04a664" md5="d37a3dc01491915c81182f0f4f0454bf" sha1="cdc74881f406ac7e2a7d153c42b4370d3d9686ea" />
<rom name="DARIUS_GAIDEN (Track 09).bin" size="21445536" crc="13dc3425" md5="a0bbc392ae42c39a7d295dd30196c52f" sha1="99ac5fcf8665966d8171e0b56cc3944ba9db2eeb" />
<rom name="DARIUS_GAIDEN (Track 10).bin" size="18620784" crc="5eb3313b" md5="a08150f7354c9fb3beeb051b669b0773" sha1="2af8c24605f47b7d6347fb34b12eb0950497a305" />
<rom name="DARIUS_GAIDEN (Track 11).bin" size="31399200" crc="7dab1b5f" md5="c6d047a884b33a80508235bd90c186ca" sha1="2a3747be441fa142e8db6e458a7a1569b241b766" />
<rom name="DARIUS_GAIDEN (Track 12).bin" size="44391648" crc="81bd1761" md5="8f246f5bf4f7b81af4fd549c09d546ce" sha1="a000b198293b3b0521702af890b2b326eee19c89" />
<rom name="DARIUS_GAIDEN (Track 13).bin" size="17397744" crc="20c8b6c2" md5="c90f41ab83691cccb30e3bc8b6ed28bf" sha1="86984fc7e56ec8e399e14f53c13642151ae6eb03" />
<rom name="DARIUS_GAIDEN (Track 14).bin" size="9807840" crc="03e1321d" md5="caee6bd2b01cfb0826be3951be9506c9" sha1="fa9d2a1687332ae769f0dec3706dba6a301247db" />
<rom name="DARIUS_GAIDEN (Track 15).bin" size="26483520" crc="ae438e80" md5="cfa89f21b9839cd169478239d81bc370" sha1="c08b0714148c4c742f05036cf9158c8dec78deaa" />
<rom name="DARIUS_GAIDEN (Track 16).bin" size="1905120" crc="1410cbc2" md5="2109026b4c155c34c4d1f8bdcdf6873c" sha1="c46d5f2738815894d97c6dc142a3f58416bccff2" />

    Cuesheet:

CATALOG 0000000000000
FILE "DARIUS_GAIDEN (Track 01).bin" BINARY
  TRACK 01 MODE1/2352
    INDEX 01 00:00:00
FILE "DARIUS_GAIDEN (Track 02).bin" BINARY
  TRACK 02 AUDIO
    INDEX 00 00:00:00
    INDEX 01 00:02:00
FILE "DARIUS_GAIDEN (Track 03).bin" BINARY
  TRACK 03 AUDIO
    INDEX 00 00:00:00
    INDEX 01 00:02:00
FILE "DARIUS_GAIDEN (Track 04).bin" BINARY
  TRACK 04 AUDIO
    INDEX 00 00:00:00
    INDEX 01 00:02:00
FILE "DARIUS_GAIDEN (Track 05).bin" BINARY
  TRACK 05 AUDIO
    INDEX 00 00:00:00
    INDEX 01 00:02:00
FILE "DARIUS_GAIDEN (Track 06).bin" BINARY
  TRACK 06 AUDIO
    INDEX 00 00:00:00
    INDEX 01 00:02:00
FILE "DARIUS_GAIDEN (Track 07).bin" BINARY
  TRACK 07 AUDIO
    INDEX 00 00:00:00
    INDEX 01 00:02:00
FILE "DARIUS_GAIDEN (Track 08).bin" BINARY
  TRACK 08 AUDIO
    INDEX 00 00:00:00
    INDEX 01 00:02:00
FILE "DARIUS_GAIDEN (Track 09).bin" BINARY
  TRACK 09 AUDIO
    INDEX 00 00:00:00
    INDEX 01 00:02:00
FILE "DARIUS_GAIDEN (Track 10).bin" BINARY
  TRACK 10 AUDIO
    INDEX 00 00:00:00
    INDEX 01 00:02:00
FILE "DARIUS_GAIDEN (Track 11).bin" BINARY
  TRACK 11 AUDIO
    INDEX 00 00:00:00
    INDEX 01 00:02:00
FILE "DARIUS_GAIDEN (Track 12).bin" BINARY
  TRACK 12 AUDIO
    INDEX 00 00:00:00
    INDEX 01 00:02:00
FILE "DARIUS_GAIDEN (Track 13).bin" BINARY
  TRACK 13 AUDIO
    INDEX 00 00:00:00
    INDEX 01 00:02:00
FILE "DARIUS_GAIDEN (Track 14).bin" BINARY
  TRACK 14 AUDIO
    INDEX 00 00:00:00
    INDEX 01 00:02:00
FILE "DARIUS_GAIDEN (Track 15).bin" BINARY
  TRACK 15 AUDIO
    INDEX 00 00:00:00
    INDEX 01 00:02:00
FILE "DARIUS_GAIDEN (Track 16).bin" BINARY
  TRACK 16 AUDIO
    INDEX 00 00:00:00
    INDEX 01 00:02:00

    Write Offset: 0

http://redump.org/disc/69039/

Verification Data:
https://drive.google.com/file/d/1BXb0LJ … sp=sharing

16

(2 replies, posted in Verifications)

Bump.

17

(2 replies, posted in Verifications)

Bump.

Bump.

-------------------------------------Disc 1-------------------------------------
Common Disc Info:
    Title: Lunar 2: Eternal Blue
    Foreign Title (Non-latin): ルナ2~エターナル・ブルー~
    Disc Number / Letter: 1
    Disc Title: N/A
    System: Sega Saturn
    Media Type: CD-ROM
    Category: Games
    Region: Japan
    Languages: Japanese
    Disc Serial: T-27906G

    Ringcode Information:
        Mastering Code (laser branded/etched): T-27906GP-02332-P1K    V
        Mastering SID Code: IFPI L237
        Data-Side Mould SID Code: IFPI 4011
        Label-Side Mould SID Code: N/A
        Additional Mould: N/A
        Toolstamp or Mastering Code (engraved/stamped): 1
    Barcode: T4997766300061
    EXE/Build Date: 19980622
    Error Count: 0
    Comments: N/A
    Contents: N/A

Version and Editions:
    Version: V1.002
    Edition/Release: Original

Extras:
    Primary Volume Descriptor (PVD):

0320 : 20 20 20 20 20 20 20 20  20 20 20 20 20 31 39 39                199
0330 : 38 30 36 32 32 32 31 35  34 34 33 30 30 14 31 39   8062221544300.19
0340 : 39 38 30 36 32 32 32 31  35 34 34 33 30 30 14 30   98062221544300.0
0350 : 30 30 30 30 30 30 30 30  30 30 30 30 30 30 30 00   000000000000000.
0360 : 30 30 30 30 30 30 30 30  30 30 30 30 30 30 30 30   0000000000000000
0370 : 00 01 00 00 00 00 00 00  00 00 00 00 00 00 00 00   ................

    Header:

0000 : 53 45 47 41 20 53 45 47  41 53 41 54 55 52 4E 20   SEGA SEGASATURN
0010 : 53 45 47 41 20 54 50 20  54 2D 32 37 39 20 20 20   SEGA TP T-279   
0020 : 54 2D 32 37 39 30 36 47  20 20 56 31 2E 30 30 32   T-27906G  V1.002
0030 : 31 39 39 38 30 36 32 32  43 44 2D 31 2F 32 20 20   19980622CD-1/2 
0040 : 4A 20 20 20 20 20 20 20  20 20 20 20 20 20 20 20   J               
0050 : 4A 20 20 20 20 20 20 20  20 20 20 20 20 20 20 20   J               
0060 : 4C 55 4E 41 52 32 20 45  54 45 52 4E 41 4C 20 42   LUNAR2 ETERNAL B
0070 : 4C 55 45 20 20 20 20 20  20 20 20 20 20 20 20 20   LUE             
0080 : 20 20 20 20 20 20 20 20  20 20 20 20 20 20 20 20                   
0090 : 20 20 20 20 20 20 20 20  20 20 20 20 20 20 20 20                   
00A0 : 20 20 20 20 20 20 20 20  20 20 20 20 20 20 20 20                   
00B0 : 20 20 20 20 20 20 20 20  20 20 20 20 20 20 20 20                   
00C0 : 20 20 20 20 20 20 20 20  20 20 20 20 20 20 20 20                   
00D0 : 00 00 00 00 00 00 00 00  00 00 00 00 00 00 00 00   ................
00E0 : 00 00 18 00 00 00 00 00  00 00 00 00 00 00 00 00   ................
00F0 : 06 00 C0 00 00 00 00 00  00 00 00 00 00 00 00 00   ................

Tracks and Write Offsets:
    DAT:

<rom name="LUNAR2_ETERNAL_BLUE_1 (Track 1).bin" size="653957136" crc="49d70180" md5="07136c4431147a54f12a15291102a3ef" sha1="135c69c600dac940cd542a3436cb26a72a0929ec" />
<rom name="LUNAR2_ETERNAL_BLUE_1 (Track 2).bin" size="3586800" crc="ea67ba9f" md5="7b432ffee1d865af82ac17672d6c9e98" sha1="051daa5bf0446657c95e70c918c71b460114e765" />

    Cuesheet:

CATALOG 0000000000000
FILE "LUNAR2_ETERNAL_BLUE_1 (Track 1).bin" BINARY
  TRACK 01 MODE1/2352
    INDEX 01 00:00:00
FILE "LUNAR2_ETERNAL_BLUE_1 (Track 2).bin" BINARY
  TRACK 02 AUDIO
    INDEX 00 00:00:00
    INDEX 01 00:02:00

    Write Offset: 396

http://redump.org/disc/1426/

https://drive.google.com/file/d/1GuwllY … sp=sharing

-------------------------------------Disc 2-------------------------------------
Common Disc Info:
    Title: Lunar 2: Eternal Blue
    Foreign Title (Non-latin): ルナ2~エターナル・ブルー~
    Disc Number / Letter: 2
    Disc Title: N/A
    System: Sega Saturn
    Media Type: CD-ROM
    Category: Games
    Region: Japan
    Languages: Japanese
    Disc Serial: T-27906G

    Ringcode Information:
        Mastering Code (laser branded/etched): T-27906GP-02333-P1K    V
        Mastering SID Code: IFPIF L237
        Data-Side Mould SID Code: IFPI 4011
        Label-Side Mould SID Code: N/A
        Additional Mould: N/A
        Toolstamp or Mastering Code (engraved/stamped): 4
    Barcode: T4997766300061
    EXE/Build Date: 19980622
    Error Count: 0
    Comments: N/A
    Contents: N/A

Version and Editions:
    Version: V1.002
    Edition/Release: Original

Extras:
    Primary Volume Descriptor (PVD):

0320 : 20 20 20 20 20 20 20 20  20 20 20 20 20 31 39 39                199
0330 : 38 30 36 32 32 32 32 30  36 32 33 30 30 14 31 39   8062222062300.19
0340 : 39 38 30 36 32 32 32 32  30 36 32 33 30 30 14 30   98062222062300.0
0350 : 30 30 30 30 30 30 30 30  30 30 30 30 30 30 30 00   000000000000000.
0360 : 30 30 30 30 30 30 30 30  30 30 30 30 30 30 30 30   0000000000000000
0370 : 00 01 00 00 00 00 00 00  00 00 00 00 00 00 00 00   ................

    Header:

0000 : 53 45 47 41 20 53 45 47  41 53 41 54 55 52 4E 20   SEGA SEGASATURN
0010 : 53 45 47 41 20 54 50 20  54 2D 32 37 39 20 20 20   SEGA TP T-279   
0020 : 54 2D 32 37 39 30 36 47  20 20 56 31 2E 30 30 32   T-27906G  V1.002
0030 : 31 39 39 38 30 36 32 32  43 44 2D 32 2F 32 20 20   19980622CD-2/2 
0040 : 4A 20 20 20 20 20 20 20  20 20 20 20 20 20 20 20   J               
0050 : 4A 20 20 20 20 20 20 20  20 20 20 20 20 20 20 20   J               
0060 : 4C 55 4E 41 52 32 20 45  54 45 52 4E 41 4C 20 42   LUNAR2 ETERNAL B
0070 : 4C 55 45 20 20 20 20 20  20 20 20 20 20 20 20 20   LUE             
0080 : 20 20 20 20 20 20 20 20  20 20 20 20 20 20 20 20                   
0090 : 20 20 20 20 20 20 20 20  20 20 20 20 20 20 20 20                   
00A0 : 20 20 20 20 20 20 20 20  20 20 20 20 20 20 20 20                   
00B0 : 20 20 20 20 20 20 20 20  20 20 20 20 20 20 20 20                   
00C0 : 20 20 20 20 20 20 20 20  20 20 20 20 20 20 20 20                   
00D0 : 00 00 00 00 00 00 00 00  00 00 00 00 00 00 00 00   ................
00E0 : 00 00 18 00 00 00 00 00  00 00 00 00 00 00 00 00   ................
00F0 : 06 00 C0 00 00 00 00 00  00 00 00 00 00 00 00 00   ................

Tracks and Write Offsets:
    DAT:

<rom name="LUNAR2_ETERNAL_BLUE_2 (Track 1).bin" size="659202096" crc="d6cc59ad" md5="a8c24a241e1707b0cb0ae69aa65e7990" sha1="07dfb50073f5899f48ba57d42cac03cea507b89a" />
<rom name="LUNAR2_ETERNAL_BLUE_2 (Track 2).bin" size="3586800" crc="f92e74dc" md5="5e23c8a45aa27797675df37b84a4547d" sha1="2fb649dd4c4e4f5ca1c7d8455b99487be5b4a333" />

    Cuesheet:

CATALOG 0000000000000
FILE "LUNAR2_ETERNAL_BLUE_2 (Track 1).bin" BINARY
  TRACK 01 MODE1/2352
    INDEX 01 00:00:00
FILE "LUNAR2_ETERNAL_BLUE_2 (Track 2).bin" BINARY
  TRACK 02 AUDIO
    INDEX 00 00:00:00
    INDEX 01 00:02:00

    Write Offset: 396

http://redump.org/disc/1427/

https://drive.google.com/file/d/1H0VtAS … sp=sharing

20

(2 replies, posted in Verifications)

Common Disc Info:
    Title: Sonic Jam
    Foreign Title (Non-latin): ソニックジャム
    Disc Number / Letter: N/A
    Disc Title: N/A
    System: Sega Saturn
    Media Type: CD-ROM
    Category: Games
    Region: Japan
    Languages: Japanese
    Disc Serial: GS-9147

    Ringcode Information:
        Mastering Code (laser branded/etched): GS-9147P-01621-P1K    V
        Mastering SID Code: IFPI L237
        Data-Side Mould SID Code: IFPI 4011
        Label-Side Mould SID Code: N/A
        Additional Mould: N/A
        Toolstamp or Mastering Code (engraved/stamped): 2
    Barcode: 4974365091477
    EXE/Build Date: 19970602
    Error Count: 0
    Comments: N/A
    Contents: N/A

Version and Editions:
    Version: V1.005
    Edition/Release: Original

Extras:
    Primary Volume Descriptor (PVD):

0320 : 20 20 20 20 20 20 20 20  20 20 20 20 20 31 39 39                199
0330 : 37 30 36 32 30 30 30 30  31 30 30 30 30 24 31 39   7062000010000$19
0340 : 39 37 30 36 32 30 30 30  30 31 30 30 30 30 24 30   97062000010000$0
0350 : 30 30 30 30 30 30 30 30  30 30 30 30 30 30 30 00   000000000000000.
0360 : 30 30 30 30 30 30 30 30  30 30 30 30 30 30 30 30   0000000000000000
0370 : 00 01 00 00 00 00 00 00  00 00 00 00 00 00 00 00   ................

    Header:

0000 : 53 45 47 41 20 53 45 47  41 53 41 54 55 52 4E 20   SEGA SEGASATURN
0010 : 53 45 47 41 20 45 4E 54  45 52 50 52 49 53 45 53   SEGA ENTERPRISES
0020 : 47 53 2D 39 31 34 37 20  20 20 56 31 2E 30 30 35   GS-9147   V1.005
0030 : 31 39 39 37 30 36 30 32  43 44 2D 31 2F 31 20 20   19970602CD-1/1 
0040 : 4A 54 20 20 20 20 20 20  20 20 20 20 20 20 20 20   JT             
0050 : 45 4A 20 20 20 20 20 20  20 20 20 20 20 20 20 20   EJ             
0060 : 53 4F 4E 49 43 20 4A 41  4D 20 20 20 20 20 20 20   SONIC JAM       
0070 : 20 20 20 20 20 20 20 20  20 20 20 20 20 20 20 20                   
0080 : 20 20 20 20 20 20 20 20  20 20 20 20 20 20 20 20                   
0090 : 20 20 20 20 20 20 20 20  20 20 20 20 20 20 20 20                   
00A0 : 20 20 20 20 20 20 20 20  20 20 20 20 20 20 20 20                   
00B0 : 20 20 20 20 20 20 20 20  20 20 20 20 20 20 20 20                   
00C0 : 20 20 20 20 20 20 20 20  20 20 20 20 20 20 20 20                   
00D0 : 00 00 00 00 00 00 00 00  00 00 00 00 00 00 00 00   ................
00E0 : 00 00 18 00 00 00 00 00  00 00 00 00 00 00 00 00   ................
00F0 : 06 00 A8 00 00 00 00 00  00 00 00 00 00 00 00 00   ................

Tracks and Write Offsets:
    DAT:

<rom name="SONIC_JAM (Track 1).bin" size="631297968" crc="62255ec2" md5="7f1ac13eb6d6d50423efa2a0899cb034" sha1="de51baeacc559d4a0a559d4a7c5a444af1d1fc0a" />
<rom name="SONIC_JAM (Track 2).bin" size="3880800" crc="9f0c72a9" md5="a0504ac125aabae3312a9f61d0becd00" sha1="eb8a96c9bd1358cc8606e099bad61762df07790a" />

    Cuesheet:

CATALOG 0000000000000
FILE "SONIC_JAM (Track 1).bin" BINARY
  TRACK 01 MODE1/2352
    INDEX 01 00:00:00
FILE "SONIC_JAM (Track 2).bin" BINARY
  TRACK 02 AUDIO
    INDEX 00 00:00:00
    INDEX 01 00:02:00

    Write Offset: 390

http://redump.org/disc/3505/

https://drive.google.com/file/d/1fHqJWs … sp=sharing

21

(2 replies, posted in Verifications)

Common Disc Info:
    Title: Space Invaders
    Foreign Title (Non-latin): スペースインベーダー
    System: Sega Saturn
    Media Type: CD-ROM
    Category: Games
    Region: Japan
    Languages: Japanese
    Disc Serial: T-1107G

    Ringcode Information:
        Mastering Code (laser branded/etched): T-1107GP-01155-P1K    V
        Mastering SID Code: IFPI L237
        Data-Side Mould SID Code: IFPI 4011
    Barcode: T4988611960110
    EXE/Build Date: 19961024
    Error Count: 0

Version and Editions:
    Version: V1.001
    Edition/Release: Original

Extras:
    Primary Volume Descriptor (PVD):

0320 : 20 20 20 20 20 20 20 20  20 20 20 20 20 31 39 39                199
0330 : 36 31 30 32 34 30 30 30  30 30 30 30 30 24 31 39   6102400000000$19
0340 : 39 36 31 30 32 34 30 30  30 30 30 30 30 30 24 30   96102400000000$0
0350 : 30 30 30 30 30 30 30 30  30 30 30 30 30 30 30 00   000000000000000.
0360 : 30 30 30 30 30 30 30 30  30 30 30 30 30 30 30 30   0000000000000000
0370 : 00 01 00 00 00 00 00 00  00 00 00 00 00 00 00 00   ................

    Header:

0000 : 53 45 47 41 20 53 45 47  41 53 41 54 55 52 4E 20   SEGA SEGASATURN
0010 : 53 45 47 41 20 54 50 20  54 2D 31 31 20 20 20 20   SEGA TP T-11   
0020 : 54 2D 31 31 30 37 47 20  20 20 56 31 2E 30 30 31   T-1107G   V1.001
0030 : 31 39 39 36 31 30 32 34  43 44 2D 31 2F 31 20 20   19961024CD-1/1 
0040 : 4A 54 20 20 20 20 20 20  20 20 20 20 20 20 20 20   JT             
0050 : 4A 20 20 20 20 20 20 20  20 20 20 20 20 20 20 20   J               
0060 : 53 50 41 43 45 20 49 4E  56 41 44 45 52 53 20 20   SPACE INVADERS 
0070 : 20 20 20 20 20 20 20 20  20 20 20 20 20 20 20 20                   
0080 : 20 20 20 20 20 20 20 20  20 20 20 20 20 20 20 20                   
0090 : 20 20 20 20 20 20 20 20  20 20 20 20 20 20 20 20                   
00A0 : 20 20 20 20 20 20 20 20  20 20 20 20 20 20 20 20                   
00B0 : 20 20 20 20 20 20 20 20  20 20 20 20 20 20 20 20                   
00C0 : 20 20 20 20 20 20 20 20  20 20 20 20 20 20 20 20                   
00D0 : 00 00 00 00 00 00 00 00  00 00 00 00 00 00 00 00   ................
00E0 : 00 00 10 00 00 00 00 00  00 00 00 00 00 00 00 00   ................
00F0 : 06 01 00 00 00 00 00 00  00 00 00 00 00 00 00 00   ................

Tracks and Write Offsets:
    DAT:

<rom name="SpaceInvaders (Track 1).bin" size="2253216" crc="333eb4f7" md5="4f010010660339bbee29b921284cc2dd" sha1="3e96c341c0df1860262a82782b02d5926d0f2e2d" />
<rom name="SpaceInvaders (Track 2).bin" size="15358560" crc="b2643bd9" md5="9c641d83d7d8b7ed57912f84ee9aaf5d" sha1="28f2c9cb05ebd2c8c9c80c5adabb7523185d0d54" />
<rom name="SpaceInvaders (Track 3).bin" size="40875408" crc="0579ae03" md5="075dc8285b56d920b45a6ec20702a4c3" sha1="dfd572f1547ca87cdffb74f3f23ae11ab8046e02" />

    Cuesheet:

CATALOG 0000000000000
FILE "SpaceInvaders (Track 1).bin" BINARY
  TRACK 01 MODE1/2352
    INDEX 01 00:00:00
FILE "SpaceInvaders (Track 2).bin" BINARY
  TRACK 02 AUDIO
    INDEX 00 00:00:00
    INDEX 01 00:02:00
FILE "SpaceInvaders (Track 3).bin" BINARY
  TRACK 03 AUDIO
    INDEX 00 00:00:00
    INDEX 01 00:01:74

    Write Offset: 684

http://redump.org/disc/17354/

https://drive.google.com/file/d/1DYChLA … sp=sharing