1

(0 replies, posted in New Dumps)

New disc. https://en.wikipedia.org/wiki/Azrael%27s_Tear

Files here: https://drive.google.com/file/d/1amB0_l … sp=sharing

DIC  20190326 220739

Title: Azrael's Tear
Disc Number / Letter: (OPTIONAL)
Disc Title: (OPTIONAL)
System: IBM PC Compatible
Media Type: CD-ROM
Category: Games
Region: USA
Languages: English
Disc Serial: (REQUIRED, IF EXISTS)
Ringcode Information:
    Mastering Code (laser branded/etched): FM 12255(45-CDAZRAEL/ST0001)
    Mastering SID Code: (REQUIRED, IF EXISTS)
    Data-Side Mould SID Code: IFPI 3V12
    Label-Side Mould SID Code: (REQUIRED, IF EXISTS)
    Additional Mould: (REQUIRED, IF EXISTS)
    Toolstamp or Mastering Code (engraved/stamped): (REQUIRED, IF EXISTS)
Barcode: (OPTIONAL)
ISBN: (OPTIONAL)
Error Count: 0
Comments: (OPTIONAL)
Contents: (OPTIONAL)
Version: (REQUIRED, IF EXISTS)
Edition/Release: Original (VERIFY THIS)
Primary Volume Descriptor (PVD):

0320 : 20 20 20 20 20 20 20 20  20 20 20 20 20 31 39 39                199
0330 : 36 31 31 30 34 31 31 33  37 33 34 30 30 00 31 39   6110411373400.19
0340 : 39 36 31 31 30 34 31 31  33 37 33 34 30 30 00 32   96110411373400.2
0350 : 30 30 36 31 31 30 32 31  31 33 37 33 34 30 30 00   006110211373400.
0360 : 31 39 39 36 31 31 30 34  31 31 33 37 33 34 30 30   1996110411373400
0370 : 00 01 00 00 00 00 00 00  00 00 00 00 00 00 00 00   ................

Copy Protection: None found

DAT:

<rom name="Azrael's Tear (USA).bin" size="565521936" crc="3fe7a41e" md5="562dc5ef00a48318a3a47fbfd0d8d849" sha1="bd2b0b4dd6e7da648968a91057281261b083c80b" />

Cuesheet:

FILE "Azrael's Tear (USA).bin" BINARY
  TRACK 01 MODE1/2352
    INDEX 01 00:00:00

Write Offset: -22

New disc, doesn't match existing entries, this is a rerelease of the first Gabriel Knight included in the US Limited Edition box set: https://www.mobygames.com/game/gabriel- … ed-edition

Note that I only know it doesn't match the existing non-USA releases in the database, I do not know for sure if this disc is identical to the original standalone, non-box-set USA release, I am assuming it is not, as this is the only copy I own I cannot verify.

Files here: https://drive.google.com/file/d/1mF1Ryx … sp=sharing

DIC  20190326 220739

Title: Gabriel Knight: Sins Of The Fathers
Disc Number / Letter: (OPTIONAL)
Disc Title: (OPTIONAL)
System: IBM PC Compatible
Media Type: CD-ROM
Category: Games
Region: USA
Languages: English
Disc Serial: (REQUIRED, IF EXISTS)
Ringcode Information:
    Mastering Code (laser branded/etched): 30447 2 8 <8093> S7058170 CD-ROM BY SIERRA
    Mastering SID Code: (REQUIRED, IF EXISTS)
    Data-Side Mould SID Code: (REQUIRED, IF EXISTS)
    Label-Side Mould SID Code: (REQUIRED, IF EXISTS)
    Additional Mould: (REQUIRED, IF EXISTS)
    Toolstamp or Mastering Code (engraved/stamped): (REQUIRED, IF EXISTS)
Barcode: (OPTIONAL)
ISBN: (OPTIONAL)
Error Count: 0
Comments: (OPTIONAL)
Contents: (OPTIONAL)
Version: (REQUIRED, IF EXISTS)
Edition/Release: Gabriel Knight Mysteries: Limited Edition
Primary Volume Descriptor (PVD):

0320 : 20 20 20 20 20 20 20 20  20 20 20 20 20 31 39 39                199
0330 : 38 30 37 30 39 31 33 33  37 33 38 30 30 00 31 39   8070913373800.19
0340 : 39 38 30 37 30 39 31 33  33 37 33 38 30 30 00 30   98070913373800.0
0350 : 30 30 30 30 30 30 30 30  30 30 30 30 30 30 30 00   000000000000000.
0360 : 30 30 30 30 30 30 30 30  30 30 30 30 30 30 30 30   0000000000000000
0370 : 00 01 00 00 00 00 00 00  00 00 00 00 00 00 00 00   ................

Copy Protection: None found

DAT:

<rom name="Gabriel Knight - Sins of the Fathers (USA) (Rerelease).bin" size="729141168" crc="7f0f9ade" md5="64456baf6fd4c11923c67ae1fad9db0a" sha1="c219a2adce51feedc63622a5257d12097f88c623" />

Cuesheet:

FILE "Gabriel Knight - Sins of the Fathers (USA) (Rerelease).bin" BINARY
  TRACK 01 MODE1/2352
    INDEX 01 00:00:00

Write Offset: -12

New disc. https://www.mobygames.com/game/lands-of … e-of-chaos

Files here: https://drive.google.com/file/d/1zHf3_S … sp=sharing

DIC  20190326 220739

Title: Lands of Lore: The Throne Of Chaos
Disc Number / Letter: (OPTIONAL)
Disc Title: (OPTIONAL)
System: IBM PC Compatible
Media Type: CD-ROM
Category: Games
Region: USA
Languages: English
Disc Serial: (REQUIRED, IF EXISTS)
Ringcode Information:
    Mastering Code (laser branded/etched): LANDS0FLORE R2D MFD BY JVC 
    Mastering SID Code: (REQUIRED, IF EXISTS)
    Data-Side Mould SID Code: (REQUIRED, IF EXISTS)
    Label-Side Mould SID Code: (REQUIRED, IF EXISTS)
    Additional Mould: (REQUIRED, IF EXISTS)
    Toolstamp or Mastering Code (engraved/stamped): (REQUIRED, IF EXISTS)
Barcode: (OPTIONAL)
ISBN: (OPTIONAL)
Error Count: 0
Comments: (OPTIONAL)
Contents: (OPTIONAL)
Version: (REQUIRED, IF EXISTS)
Edition/Release: Original big box
Primary Volume Descriptor (PVD):

0320 : 20 20 20 20 20 20 20 20  20 20 20 20 20 31 39 39                199
0330 : 34 30 31 32 32 31 35 34  30 35 33 30 30 00 31 39   4012215405300.19
0340 : 39 34 30 31 32 32 31 35  34 30 35 33 30 30 00 30   94012215405300.0
0350 : 30 30 30 30 30 30 30 30  30 30 30 30 30 30 30 00   000000000000000.
0360 : 30 30 30 30 30 30 30 30  30 30 30 30 30 30 30 30   0000000000000000
0370 : 00 01 00 00 00 00 00 00  00 00 00 00 00 00 00 00   ................

Copy Protection: None found

DAT:

<rom name="Lands of Lore - The Throne of Chaos (USA).bin" size="363833232" crc="1dfef8a7" md5="d1e9e74a0db41e7b644a9bae0218c2ac" sha1="0a69709bc0c24f1711ea060180264779634d8b89" />

Cuesheet:

CATALOG 0000000000000
FILE "Lands of Lore - The Throne of Chaos (USA).bin" BINARY
  TRACK 01 MODE1/2352
    INDEX 01 00:00:00

Write Offset: -1080

New disc. https://www.mobygames.com/game/windows/ … eys-beyond

Files here: https://drive.google.com/file/d/1hB3sx5 … sp=sharing

DIC  20190326 220739

Title: Amber: Journeys Beyond
Disc Number / Letter: (OPTIONAL)
Disc Title: (OPTIONAL)
System: IBM PC Compatible
Media Type: CD-ROM
Category: Games
Region: USA
Languages: English
Disc Serial: (REQUIRED, IF EXISTS)
Ringcode Information:
    Mastering Code (laser branded/etched): C2 158907-01 S7041911
    Mastering SID Code: IFPI L892
    Data-Side Mould SID Code: IFPI 2T09
    Label-Side Mould SID Code: (REQUIRED, IF EXISTS)
    Additional Mould: (REQUIRED, IF EXISTS)
    Toolstamp or Mastering Code (engraved/stamped): (REQUIRED, IF EXISTS)
Barcode: (OPTIONAL)
ISBN: (OPTIONAL)
Error Count: 0
Comments: (OPTIONAL)
Contents: (OPTIONAL)
Version: (REQUIRED, IF EXISTS)
Edition/Release: Original
Primary Volume Descriptor (PVD):

0320 : 20 20 20 20 20 20 20 20  20 20 20 20 20 31 39 39                199
0330 : 39 30 33 32 39 31 33 30  31 34 35 30 30 00 31 39   9032913014500.19
0340 : 39 39 30 33 32 39 31 33  30 35 32 32 30 30 00 00   99032913052200..
0350 : 00 00 00 00 00 00 00 00  00 00 00 00 00 00 00 00   ................
0360 : 00 00 00 00 00 00 00 00  00 00 00 00 00 00 00 00   ................
0370 : 00 01 00 00 00 00 00 00  00 00 00 00 00 00 00 00   ................

Copy Protection: None found

DAT:

<rom name="Amber - Journeys Beyond (USA).bin" size="691629120" crc="d3826d0a" md5="195c7ba0e8fca9ea91e4822f78814551" sha1="55319390d23f6886a9078d867e8d51146e685bf1" />

Cuesheet:

FILE "Amber - Journeys Beyond (USA).bin" BINARY
  TRACK 01 MODE2/2352
    INDEX 01 00:00:00

Write Offset: -22

5

(0 replies, posted in New Dumps)

New disc. https://www.mobygames.com/game/dark-eye


Files here: https://drive.google.com/file/d/1GY_vZO … sp=sharing

DIC  20190326 220739

Title: The Dark Eye
Disc Number / Letter: (OPTIONAL)
Disc Title: (OPTIONAL)
System: IBM PC Compatible
Media Type: CD-ROM
Category: Games
Region: USA
Languages: English
Disc Serial: (REQUIRED, IF EXISTS)
Ringcode Information:
    Mastering Code (laser branded/etched): 1 70011 RE-1 SRCR@@01
    Mastering SID Code: (REQUIRED, IF EXISTS)
    Data-Side Mould SID Code: IFPI 2U3V
    Label-Side Mould SID Code: (REQUIRED, IF EXISTS)
    Additional Mould: (REQUIRED, IF EXISTS)
    Toolstamp or Mastering Code (engraved/stamped): (REQUIRED, IF EXISTS)
Barcode: (OPTIONAL)
ISBN: (OPTIONAL)
Error Count: 0
Comments: US PC Big Box release
Contents: (OPTIONAL)
Version: (REQUIRED, IF EXISTS)
Edition/Release: Original
Primary Volume Descriptor (PVD):

0320 : 20 20 20 20 20 20 20 20  20 20 20 20 20 31 39 39                199
0330 : 35 31 30 32 32 31 33 32  30 32 31 30 30 00 31 39   5102213202100.19
0340 : 39 35 31 30 32 32 31 33  32 30 32 31 30 30 00 00   95102213202100..
0350 : 00 00 00 00 00 00 00 00  00 00 00 00 00 00 00 00   ................
0360 : 00 00 00 00 00 00 00 00  00 00 00 00 00 00 00 00   ................
0370 : 00 01 00 00 00 00 00 00  00 00 00 00 00 00 00 00   ................

Copy Protection: None found

DAT:

<rom name="The Dark Eye (USA).bin" size="725975376" crc="067d2a38" md5="b703405e0202ceea1cce4b8ef89b343e" sha1="56873195614af97324f735732370ba50fe95eb8b" />

Cuesheet:

CATALOG 0000000000000
FILE "The Dark Eye (USA).bin" BINARY
  TRACK 01 MODE1/2352
    INDEX 01 00:00:00

Write Offset: 222

6

(0 replies, posted in New Dumps)

Looks like I have a different version of Blade Runner (1997) for PC, with different ring/mastering codes than either this: http://redump.org/disc/15398/ or this http://redump.org/disc/9670/.

This is a regular PC "big box", not a reissue as far as I can tell

DIC  20190326 220739

Files: https://drive.google.com/drive/folders/ … sp=sharing

Title: Blade Runner (USA) (Disc 1) (Alt)
Disc Number / Letter: 1
Disc Title: Blade Runner (USA) (Disc 1) (Alt)
System: IBM PC Compatible
Media Type: CD-ROM
Category: Games
Region: USA
Languages: English
Disc Serial: (REQUIRED, IF EXISTS)
Ringcode Information:
    Mastering Code (laser branded/etched): C2 125223-01 D831161 
    Mastering SID Code: IFPI L892
    Data-Side Mould SID Code: IFPI 2T08
    Label-Side Mould SID Code: (REQUIRED, IF EXISTS)
        Additional Mould: (REQUIRED, IF EXISTS)
    Toolstamp or Mastering Code (engraved/stamped): (REQUIRED, IF EXISTS)
Barcode: (OPTIONAL)
ISBN: (OPTIONAL)
Error Count: 0
Comments: (OPTIONAL)
Contents: (OPTIONAL)
Version: (REQUIRED, IF EXISTS)
Edition/Release: Original (VERIFY THIS)
Primary Volume Descriptor (PVD):

0320 : 20 20 20 20 20 20 20 20  20 20 20 20 20 30 30 30                000
0330 : 30 30 30 30 30 30 30 30  30 30 30 30 30 00 30 30   0000000000000.00
0340 : 30 30 30 30 30 30 30 30  30 30 30 30 30 30 00 30   00000000000000.0
0350 : 30 30 30 30 30 30 30 30  30 30 30 30 30 30 30 00   000000000000000.
0360 : 30 30 30 30 30 30 30 30  30 30 30 30 30 30 30 30   0000000000000000
0370 : 00 01 00 00 00 00 00 00  00 00 00 00 00 00 00 00   ................

Copy Protection: None found

DAT:

<rom name="Blade Runner (USA) (Disc 1) (Alt).bin" size="713265168" crc="49e19159" md5="6e0955db02cc5e930ff946a22363c4c6" sha1="537515d188c6b4ec1e9d0c76d9ea326bdf101ed1" />

Cuesheet:

FILE "Blade Runner (USA) (Disc 1) (Alt).bin" BINARY
  TRACK 01 MODE1/2352
    INDEX 01 00:00:00

Write Offset: -22
Title: Blade Runner (USA) (Disc 2) (Alt)
Disc Number / Letter: 2
Disc Title: Blade Runner (USA) (Disc 2) (Alt)
System: IBM PC Compatible
Media Type: CD-ROM
Category: Games
Region: USA
Languages: English
Disc Serial: (REQUIRED, IF EXISTS)
Ringcode Information:
    Mastering Code (laser branded/etched): C2 125227-02 D831162 
    Mastering SID Code: IFPI L892
    Data-Side Mould SID Code: IFPI 2T05
    Label-Side Mould SID Code: (REQUIRED, IF EXISTS)
        Additional Mould: (REQUIRED, IF EXISTS)
    Toolstamp or Mastering Code (engraved/stamped): (REQUIRED, IF EXISTS)
Barcode: (OPTIONAL)
ISBN: (OPTIONAL)
Error Count: 0
Comments: (OPTIONAL)
Contents: (OPTIONAL)
Version: (REQUIRED, IF EXISTS)
Edition/Release: Original (VERIFY THIS)
Primary Volume Descriptor (PVD):

0320 : 20 20 20 20 20 20 20 20  20 20 20 20 20 30 30 30                000
0330 : 30 30 30 30 30 30 30 30  30 30 30 30 30 00 30 30   0000000000000.00
0340 : 30 30 30 30 30 30 30 30  30 30 30 30 30 30 00 30   00000000000000.0
0350 : 30 30 30 30 30 30 30 30  30 30 30 30 30 30 30 00   000000000000000.
0360 : 30 30 30 30 30 30 30 30  30 30 30 30 30 30 30 30   0000000000000000
0370 : 00 01 00 00 00 00 00 00  00 00 00 00 00 00 00 00   ................

Copy Protection: None found

DAT:

<rom name="Blade Runner (USA) (Disc 2) (Alt).bin" size="725519088" crc="235a397f" md5="18957d51183729b1fc39dffedbce33f4" sha1="e57db799b71246c937ec7a98f5a55be4b5cc1dac" />

Cuesheet:

FILE "Blade Runner (USA) (Disc 2) (Alt).bin" BINARY
  TRACK 01 MODE1/2352
    INDEX 01 00:00:00

Write Offset: -22
Title: Blade Runner (USA) (Disc 3) (Alt)
Disc Number / Letter: 3
Disc Title: Blade Runner (USA) (Disc 3) (Alt)
System: IBM PC Compatible
Media Type: CD-ROM
Category: Games
Region: USA
Languages: English
Disc Serial: (REQUIRED, IF EXISTS)
Ringcode Information:
    Mastering Code (laser branded/etched): C2 125226-01 D831163
    Mastering SID Code: IFPI L892
    Data-Side Mould SID Code: IFPI 2T01
    Label-Side Mould SID Code: (REQUIRED, IF EXISTS)
        Additional Mould: (REQUIRED, IF EXISTS)
    Toolstamp or Mastering Code (engraved/stamped): (REQUIRED, IF EXISTS)
Barcode: (OPTIONAL)
ISBN: (OPTIONAL)
Error Count: 0
Comments: (OPTIONAL)
Contents: (OPTIONAL)
Version: (REQUIRED, IF EXISTS)
Edition/Release: Original (VERIFY THIS)
Primary Volume Descriptor (PVD):

0320 : 20 20 20 20 20 20 20 20  20 20 20 20 20 30 30 30                000
0330 : 30 30 30 30 30 30 30 30  30 30 30 30 30 00 30 30   0000000000000.00
0340 : 30 30 30 30 30 30 30 30  30 30 30 30 30 30 00 30   00000000000000.0
0350 : 30 30 30 30 30 30 30 30  30 30 30 30 30 30 30 00   000000000000000.
0360 : 30 30 30 30 30 30 30 30  30 30 30 30 30 30 30 30   0000000000000000
0370 : 00 01 00 00 00 00 00 00  00 00 00 00 00 00 00 00   ................

Copy Protection: None found

DAT:

<rom name="Blade Runner (USA) (Disc 3) (Alt).bin" size="683063136" crc="2a216573" md5="724734596aa47ba6954986e6ce3b1203" sha1="d9fad3777fec2737d5a0af678c1f503ddce8c6a9" />

Cuesheet:

FILE "Blade Runner (USA) (Disc 3) (Alt).bin" BINARY
  TRACK 01 MODE1/2352
    INDEX 01 00:00:00

Write Offset: -22
Title: Blade Runner (USA) (Disc 4) (Alt)
Disc Number / Letter: 4
Disc Title: Blade Runner (USA) (Disc 4) (Alt)
System: IBM PC Compatible
Media Type: CD-ROM
Category: Games
Region: USA
Languages: English
Disc Serial: (REQUIRED, IF EXISTS)
Ringcode Information:
    Mastering Code (laser branded/etched): C2 125225-01 D831164
    Mastering SID Code: IFPI L892
    Data-Side Mould SID Code: IFPI 2T02
    Label-Side Mould SID Code: (REQUIRED, IF EXISTS)
        Additional Mould: (REQUIRED, IF EXISTS)
    Toolstamp or Mastering Code (engraved/stamped): (REQUIRED, IF EXISTS)
Barcode: (OPTIONAL)
ISBN: (OPTIONAL)
Error Count: 0
Comments: (OPTIONAL)
Contents: (OPTIONAL)
Version: (REQUIRED, IF EXISTS)
Edition/Release: Original (VERIFY THIS)
Primary Volume Descriptor (PVD):

0320 : 20 20 20 20 20 20 20 20  20 20 20 20 20 30 30 30                000
0330 : 30 30 30 30 30 30 30 30  30 30 30 30 30 00 30 30   0000000000000.00
0340 : 30 30 30 30 30 30 30 30  30 30 30 30 30 30 00 30   00000000000000.0
0350 : 30 30 30 30 30 30 30 30  30 30 30 30 30 30 30 00   000000000000000.
0360 : 30 30 30 30 30 30 30 30  30 30 30 30 30 30 30 30   0000000000000000
0370 : 00 01 00 00 00 00 00 00  00 00 00 00 00 00 00 00   ................

Copy Protection: None found

DAT:

<rom name="Blade Runner (USA) (Disc 4) (Alt).bin" size="667050720" crc="41c41eff" md5="da8493d41fa7f3a03f830f81de9fcaa9" sha1="03e0a40aa6c9707a16b2dace28591362d5556e9a" />

Cuesheet:

FILE "Blade Runner (USA) (Disc 4) (Alt).bin" BINARY
  TRACK 01 MODE1/2352
    INDEX 01 00:00:00

Write Offset: -22

7

(0 replies, posted in Verifications)

DIC  20190326 220739

Files: https://drive.google.com/drive/folders/ … sp=sharing




Darius Gaiden: http://redump.org/disc/3560/
All hashes match, new SID codes

Title: Darius Gaiden
Disc Number / Letter: (OPTIONAL)
Disc Title: (OPTIONAL)
System: Sega Saturn
Media Type: CD-ROM
Category: Games
Region: Japan
Languages: Japanese
Disc Serial: T-1102G 
Build Date: 19951110
Ringcode Information:
    Mastering Code (laser branded/etched): T-1102GP-00592 3MM1 C 5Y
    Mastering SID Code: IFPI L223
    Data-Side Mould SID Code: IFPI 3905
    Label-Side Mould SID Code: (REQUIRED, IF EXISTS)
    Additional Mould: (REQUIRED, IF EXISTS)
    Toolstamp or Mastering Code (engraved/stamped): (REQUIRED, IF EXISTS)
Barcode: (OPTIONAL)
Error Count: 0
Comments: (OPTIONAL)
Contents: (OPTIONAL)
Version: V1.001
Edition/Release: Original (VERIFY THIS)
Header:

0000 : 53 45 47 41 20 53 45 47  41 53 41 54 55 52 4E 20   SEGA SEGASATURN 
0010 : 53 45 47 41 20 54 50 20  54 2D 31 31 20 20 20 20   SEGA TP T-11    
0020 : 54 2D 31 31 30 32 47 20  20 20 56 31 2E 30 30 31   T-1102G   V1.001
0030 : 31 39 39 35 31 31 31 30  43 44 2D 31 2F 31 20 20   19951110CD-1/1  
0040 : 4A 54 20 20 20 20 20 20  20 20 20 20 20 20 20 20   JT              
0050 : 4A 20 20 20 20 20 20 20  20 20 20 20 20 20 20 20   J               
0060 : 44 41 52 49 55 53 20 47  41 49 44 45 4E 20 20 20   DARIUS GAIDEN   
0070 : 20 20 20 20 20 20 20 20  20 20 20 20 20 20 20 20                   
0080 : 20 20 20 20 20 20 20 20  20 20 20 20 20 20 20 20                   
0090 : 20 20 20 20 20 20 20 20  20 20 20 20 20 20 20 20                   
00A0 : 20 20 20 20 20 20 20 20  20 20 20 20 20 20 20 20                   
00B0 : 20 20 20 20 20 20 20 20  20 20 20 20 20 20 20 20                   
00C0 : 20 20 20 20 20 20 20 20  20 20 20 20 20 20 20 20                   
00D0 : 00 00 00 00 00 00 00 00  00 00 00 00 00 00 00 00   ................
00E0 : 00 00 18 00 00 00 00 00  00 00 00 00 00 00 00 00   ................
00F0 : 06 01 20 00 00 00 00 00  00 00 00 00 00 00 00 00   .. .............

Primary Volume Descriptor (PVD):

0320 : 20 20 20 20 20 20 20 20  20 20 20 20 20 31 39 39                199
0330 : 35 30 38 30 39 30 30 30  30 30 30 30 30 24 31 39   5080900000000$19
0340 : 39 35 30 38 30 39 30 30  30 30 30 30 30 30 24 30   95080900000000$0
0350 : 30 30 30 30 30 30 30 30  30 30 30 30 30 30 30 00   000000000000000.
0360 : 30 30 30 30 30 30 30 30  30 30 30 30 30 30 30 30   0000000000000000
0370 : 00 01 00 00 00 00 00 00  00 00 00 00 00 00 00 00   ................

DAT:

<rom name="Darius Gaiden (Japan) (3M) (Track 01).bin" size="23362416" crc="9df46871" md5="8ed009c1eac1d9b53441af6adc2513fd" sha1="22910f1b417c5616fe9b9c489c36317754d18147" />
<rom name="Darius Gaiden (Japan) (3M) (Track 02).bin" size="49039200" crc="3b5bbdee" md5="ba8c43d7b19ea18e210297c7036604d0" sha1="541cb763b925714c02f6b43ca6137f240db94373" />
<rom name="Darius Gaiden (Japan) (3M) (Track 03).bin" size="1058400" crc="fbb657ca" md5="44c88094a05fbcf53553a13615262c74" sha1="f5273210c531e0124b371b2c354d4e2fd5b02c7c" />
<rom name="Darius Gaiden (Japan) (3M) (Track 04).bin" size="19933200" crc="8603105f" md5="889c350a5f9e6b3e92e35548a2e2a584" sha1="1d1216535b410d70289e6f5e581094c9a8b58bfa" />
<rom name="Darius Gaiden (Japan) (3M) (Track 05).bin" size="18973584" crc="5eb5e7e3" md5="782ee3bf9409d857dceece818874a59e" sha1="f1e14b8f8ad4969b0cccd3b307475529fc8fa6c5" />
<rom name="Darius Gaiden (Japan) (3M) (Track 06).bin" size="45200736" crc="4d46ffe6" md5="b02982fc205845dd82f4800097d5fa99" sha1="393b32579d3e6adeec8dbdea6f71e08e0fcbaf60" />
<rom name="Darius Gaiden (Japan) (3M) (Track 07).bin" size="24759504" crc="8dfb6159" md5="253cb581ae2776dae0acedd2d2861dba" sha1="5221c2e1a88f541e8ce3db8d5ca512b74547ba1c" />
<rom name="Darius Gaiden (Japan) (3M) (Track 08).bin" size="44217600" crc="8ecfd1fd" md5="08fc37a5f40489e61f6710bdd2094599" sha1="e901e8f45c493612d8a18fbe2227d22d574b94e4" />
<rom name="Darius Gaiden (Japan) (3M) (Track 09).bin" size="21445536" crc="9d1d72d5" md5="13b7abbf918586f198994895d4e022b7" sha1="eae96448d41e7c71245556c908a192c7313283d9" />
<rom name="Darius Gaiden (Japan) (3M) (Track 10).bin" size="18620784" crc="581548f0" md5="ddb994d7345af9127649b8352ead7f5f" sha1="364b7bfdfaffb27b4078a8894618a000d808377d" />
<rom name="Darius Gaiden (Japan) (3M) (Track 11).bin" size="31399200" crc="061dc5c5" md5="2e5483428e870c72b8f1a26b7044509d" sha1="8bcff02b7723c7e6ae56106e4c90f2dd2105870b" />
<rom name="Darius Gaiden (Japan) (3M) (Track 12).bin" size="44391648" crc="28516c80" md5="f38f66015d2bfe7af7539c3d130a4f0c" sha1="1922f7843cf4c41be13350dd383adc1736700a87" />
<rom name="Darius Gaiden (Japan) (3M) (Track 13).bin" size="17397744" crc="cbd37ef7" md5="36020add3f41736badb103ba9aa4f5cf" sha1="ccaeea88fdb176dc46545cfc0e02b4e543846bed" />
<rom name="Darius Gaiden (Japan) (3M) (Track 14).bin" size="9807840" crc="0ac29bc7" md5="708258e51bd7fac07544c9c8a4b74dc0" sha1="590372c0da1a8504457d42852f472631f50597d1" />
<rom name="Darius Gaiden (Japan) (3M) (Track 15).bin" size="26483520" crc="4b8a86b5" md5="d33077e0e6b733484fc12f3b8792be2d" sha1="a1b5ea6df66caa819aca571d680e8dace8491599" />
<rom name="Darius Gaiden (Japan) (3M) (Track 16).bin" size="1905120" crc="5a30353f" md5="c89cfdaaf805b76a51897409a6b9a443" sha1="4201cffae0bbdfbc5d24c4346778409fa7c6f8ad" />

Cuesheet:

CATALOG 0000000000000
FILE "Darius Gaiden (Japan) (3M) (Track 01).bin" BINARY
  TRACK 01 MODE1/2352
    INDEX 01 00:00:00
FILE "Darius Gaiden (Japan) (3M) (Track 02).bin" BINARY
  TRACK 02 AUDIO
    INDEX 00 00:00:00
    INDEX 01 00:02:00
FILE "Darius Gaiden (Japan) (3M) (Track 03).bin" BINARY
  TRACK 03 AUDIO
    INDEX 00 00:00:00
    INDEX 01 00:02:00
FILE "Darius Gaiden (Japan) (3M) (Track 04).bin" BINARY
  TRACK 04 AUDIO
    INDEX 00 00:00:00
    INDEX 01 00:02:00
FILE "Darius Gaiden (Japan) (3M) (Track 05).bin" BINARY
  TRACK 05 AUDIO
    INDEX 00 00:00:00
    INDEX 01 00:02:00
FILE "Darius Gaiden (Japan) (3M) (Track 06).bin" BINARY
  TRACK 06 AUDIO
    INDEX 00 00:00:00
    INDEX 01 00:02:00
FILE "Darius Gaiden (Japan) (3M) (Track 07).bin" BINARY
  TRACK 07 AUDIO
    INDEX 00 00:00:00
    INDEX 01 00:02:00
FILE "Darius Gaiden (Japan) (3M) (Track 08).bin" BINARY
  TRACK 08 AUDIO
    INDEX 00 00:00:00
    INDEX 01 00:02:00
FILE "Darius Gaiden (Japan) (3M) (Track 09).bin" BINARY
  TRACK 09 AUDIO
    INDEX 00 00:00:00
    INDEX 01 00:02:00
FILE "Darius Gaiden (Japan) (3M) (Track 10).bin" BINARY
  TRACK 10 AUDIO
    INDEX 00 00:00:00
    INDEX 01 00:02:00
FILE "Darius Gaiden (Japan) (3M) (Track 11).bin" BINARY
  TRACK 11 AUDIO
    INDEX 00 00:00:00
    INDEX 01 00:02:00
FILE "Darius Gaiden (Japan) (3M) (Track 12).bin" BINARY
  TRACK 12 AUDIO
    INDEX 00 00:00:00
    INDEX 01 00:02:00
FILE "Darius Gaiden (Japan) (3M) (Track 13).bin" BINARY
  TRACK 13 AUDIO
    INDEX 00 00:00:00
    INDEX 01 00:02:00
FILE "Darius Gaiden (Japan) (3M) (Track 14).bin" BINARY
  TRACK 14 AUDIO
    INDEX 00 00:00:00
    INDEX 01 00:02:00
FILE "Darius Gaiden (Japan) (3M) (Track 15).bin" BINARY
  TRACK 15 AUDIO
    INDEX 00 00:00:00
    INDEX 01 00:02:00
FILE "Darius Gaiden (Japan) (3M) (Track 16).bin" BINARY
  TRACK 16 AUDIO
    INDEX 00 00:00:00
    INDEX 01 00:02:00

Write Offset: 0

Darius II: http://redump.org/disc/34318/
All hashes match

Title: Darius II
Disc Number / Letter: (OPTIONAL)
Disc Title: (OPTIONAL)
System: Sega Saturn
Media Type: CD-ROM
Category: Games
Region: Japan
Languages: Japanese
Disc Serial: T-1104G 
Build Date: 19960418
Ringcode Information:
    Mastering Code (laser branded/etched): T-1104GP-00824 2MB1 C 64 5
    Mastering SID Code: IFPI L223
    Data-Side Mould SID Code: IFPI 3908
    Label-Side Mould SID Code: (REQUIRED, IF EXISTS)
    Additional Mould: (REQUIRED, IF EXISTS)
    Toolstamp or Mastering Code (engraved/stamped): (REQUIRED, IF EXISTS)
Barcode: (OPTIONAL)
Error Count: 0
Comments: (OPTIONAL)
Contents: (OPTIONAL)
Version: V1.003
Edition/Release: Original (VERIFY THIS)
Header:

0000 : 53 45 47 41 20 53 45 47  41 53 41 54 55 52 4E 20   SEGA SEGASATURN 
0010 : 53 45 47 41 20 54 50 20  54 2D 31 31 20 20 20 20   SEGA TP T-11    
0020 : 54 2D 31 31 30 34 47 20  20 20 56 31 2E 30 30 33   T-1104G   V1.003
0030 : 31 39 39 36 30 34 31 38  43 44 2D 31 2F 31 20 20   19960418CD-1/1  
0040 : 4A 54 20 20 20 20 20 20  20 20 20 20 20 20 20 20   JT              
0050 : 4A 20 20 20 20 20 20 20  20 20 20 20 20 20 20 20   J               
0060 : 44 41 52 49 55 53 32 20  20 20 20 20 20 20 20 20   DARIUS2         
0070 : 20 20 20 20 20 20 20 20  20 20 20 20 20 20 20 20                   
0080 : 20 20 20 20 20 20 20 20  20 20 20 20 20 20 20 20                   
0090 : 20 20 20 20 20 20 20 20  20 20 20 20 20 20 20 20                   
00A0 : 20 20 20 20 20 20 20 20  20 20 20 20 20 20 20 20                   
00B0 : 20 20 20 20 20 20 20 20  20 20 20 20 20 20 20 20                   
00C0 : 20 20 20 20 20 20 20 20  20 20 20 20 20 20 20 20                   
00D0 : 00 00 00 00 00 00 00 00  00 00 00 00 00 00 00 00   ................
00E0 : 00 00 18 00 00 00 00 00  00 00 00 00 00 00 00 00   ................
00F0 : 06 00 40 00 00 00 00 00  00 00 00 00 00 00 00 00   ..@.............

Primary Volume Descriptor (PVD):

0320 : 20 20 20 20 20 20 20 20  20 20 20 20 20 31 39 39                199
0330 : 36 30 34 31 38 31 32 30  32 30 33 30 30 14 31 39   6041812020300.19
0340 : 39 36 30 34 31 38 31 32  30 32 30 33 30 30 14 30   96041812020300.0
0350 : 30 30 30 30 30 30 30 30  30 30 30 30 30 30 30 00   000000000000000.
0360 : 30 30 30 30 30 30 30 30  30 30 30 30 30 30 30 30   0000000000000000
0370 : 00 01 00 00 00 00 00 00  00 00 00 00 00 00 00 00   ................

DAT:

<rom name="Darius II (Japan) (2M) (Track 01).bin" size="9161040" crc="a3ec1bb6" md5="560e36d43aefecaa17a65db99c0bd051" sha1="1b0f63f33735b82265ba4955a64df7e6afc7c157" />
<rom name="Darius II (Japan) (2M) (Track 02).bin" size="43853040" crc="18f5efa2" md5="802d231616a4d1a6759069799a675b2e" sha1="23d3cc5b3e8ddf9f9d7aa974683b90079ee428eb" />
<rom name="Darius II (Japan) (2M) (Track 03).bin" size="37791936" crc="41ff900e" md5="31f320df00dc04e444d3fb86b0204ef3" sha1="48f3892dc0db51177cdaeb41ba11e8ceaa27ec1f" />
<rom name="Darius II (Japan) (2M) (Track 04).bin" size="39243120" crc="ac61e703" md5="bde41a973b463432dc3a814ee71622c4" sha1="3d275a7a5964d9086090ff78a0171d60a36b5b37" />
<rom name="Darius II (Japan) (2M) (Track 05).bin" size="36905232" crc="06683f62" md5="c64f1b1b034f40375ef57af4e726632b" sha1="9415d12e98d1ce67302e53c5aad8baac302f1f2f" />
<rom name="Darius II (Japan) (2M) (Track 06).bin" size="40468512" crc="6fc2f3ed" md5="a24aff3bccbbec705310550122666311" sha1="018d0f0f044cdb628d1b2b051e9dd5a84f2c1c97" />
<rom name="Darius II (Japan) (2M) (Track 07).bin" size="38309376" crc="f5c3d272" md5="067c275eae1eeb3fd0dafa809a38283e" sha1="b37c731be0b3420388fb0b9ce54117d0a3050568" />
<rom name="Darius II (Japan) (2M) (Track 08).bin" size="37396800" crc="6050716e" md5="4adf5309f62a78f2899844c2cef8f4b9" sha1="598aafba079e70f8c061e0dd522dd203cfbcc18c" />
<rom name="Darius II (Japan) (2M) (Track 09).bin" size="58564800" crc="8b7d7c65" md5="081d59d1ab3d359511b3fd1e5260775c" sha1="0f154ad8f3b7b92b0d2a6a5a50676e3d29eb764f" />
<rom name="Darius II (Japan) (2M) (Track 10).bin" size="11491872" crc="b3c34dfa" md5="c6065a42293d2d86499711d2ff47afe9" sha1="bb79c01b44b37db001bbf026b7184419d3935bb9" />
<rom name="Darius II (Japan) (2M) (Track 11).bin" size="40786032" crc="7207715c" md5="eda4c57b9e5248a70de6a9a0f3b60432" sha1="77c99a81b1ed665af1bb6fac18133386e6a6b340" />
<rom name="Darius II (Japan) (2M) (Track 12).bin" size="40889520" crc="a97c779d" md5="f9557c65d4994b809966a30b5cd78d4e" sha1="f606f7bbdcc4d7da9f6b84ff65728e35f8d57f3b" />
<rom name="Darius II (Japan) (2M) (Track 13).bin" size="9758448" crc="1c140207" md5="15d4b11ea1faad8b835bf0e834426399" sha1="dd8115011b45649d5264f0b519c37d779e6a90e6" />
<rom name="Darius II (Japan) (2M) (Track 14).bin" size="4059552" crc="710a3868" md5="c47c844e1b62d0d69513debd1ac1b10c" sha1="efc0af183411e5307fdd7a9825b1f9ea06dc5517" />
<rom name="Darius II (Japan) (2M) (Track 15).bin" size="8387232" crc="a5f6168d" md5="9e24a3a959030f3c3fb02105b7d9a119" sha1="6b72d0d6b4080ef47021f1cee41629cb45fce703" />
<rom name="Darius II (Japan) (2M) (Track 16).bin" size="7999152" crc="d65268e0" md5="640f4db482b2e00d5bbc441a281f5c4d" sha1="275b526c7fa1a078747f3cd2edcecaaff6fa4ba1" />
<rom name="Darius II (Japan) (2M) (Track 17).bin" size="24583104" crc="7deb3b8e" md5="c1fb8584bb121117538895249e1c00c5" sha1="644ab3a7e48a0b4a0bfe0bb5e93e42f6fdc78812" />

Cuesheet:

CATALOG 0000000000000
FILE "Darius II (Japan) (2M) (Track 01).bin" BINARY
  TRACK 01 MODE1/2352
    INDEX 01 00:00:00
FILE "Darius II (Japan) (2M) (Track 02).bin" BINARY
  TRACK 02 AUDIO
    INDEX 00 00:00:00
    INDEX 01 00:02:00
FILE "Darius II (Japan) (2M) (Track 03).bin" BINARY
  TRACK 03 AUDIO
    INDEX 00 00:00:00
    INDEX 01 00:02:00
FILE "Darius II (Japan) (2M) (Track 04).bin" BINARY
  TRACK 04 AUDIO
    INDEX 00 00:00:00
    INDEX 01 00:02:00
FILE "Darius II (Japan) (2M) (Track 05).bin" BINARY
  TRACK 05 AUDIO
    INDEX 00 00:00:00
    INDEX 01 00:02:00
FILE "Darius II (Japan) (2M) (Track 06).bin" BINARY
  TRACK 06 AUDIO
    INDEX 00 00:00:00
    INDEX 01 00:02:00
FILE "Darius II (Japan) (2M) (Track 07).bin" BINARY
  TRACK 07 AUDIO
    INDEX 00 00:00:00
    INDEX 01 00:02:00
FILE "Darius II (Japan) (2M) (Track 08).bin" BINARY
  TRACK 08 AUDIO
    INDEX 00 00:00:00
    INDEX 01 00:02:00
FILE "Darius II (Japan) (2M) (Track 09).bin" BINARY
  TRACK 09 AUDIO
    INDEX 00 00:00:00
    INDEX 01 00:02:00
FILE "Darius II (Japan) (2M) (Track 10).bin" BINARY
  TRACK 10 AUDIO
    INDEX 00 00:00:00
    INDEX 01 00:02:00
FILE "Darius II (Japan) (2M) (Track 11).bin" BINARY
  TRACK 11 AUDIO
    INDEX 00 00:00:00
    INDEX 01 00:02:00
FILE "Darius II (Japan) (2M) (Track 12).bin" BINARY
  TRACK 12 AUDIO
    INDEX 00 00:00:00
    INDEX 01 00:02:00
FILE "Darius II (Japan) (2M) (Track 13).bin" BINARY
  TRACK 13 AUDIO
    INDEX 00 00:00:00
    INDEX 01 00:02:00
FILE "Darius II (Japan) (2M) (Track 14).bin" BINARY
  TRACK 14 AUDIO
    INDEX 00 00:00:00
    INDEX 01 00:02:00
FILE "Darius II (Japan) (2M) (Track 15).bin" BINARY
  TRACK 15 AUDIO
    INDEX 00 00:00:00
    INDEX 01 00:02:00
FILE "Darius II (Japan) (2M) (Track 16).bin" BINARY
  TRACK 16 AUDIO
    INDEX 00 00:00:00
    INDEX 01 00:02:00
FILE "Darius II (Japan) (2M) (Track 17).bin" BINARY
  TRACK 17 AUDIO
    INDEX 00 00:00:00
    INDEX 01 00:02:00

Write Offset: 0

Metal Black: http://redump.org/disc/34343/
All hashes match

Title: Metal Black
Disc Number / Letter: (OPTIONAL)
Disc Title: (OPTIONAL)
System: Sega Saturn
Media Type: CD-ROM
Category: Games
Region: Japan
Languages: Japanese
Disc Serial: T-19902G
Build Date: 19960324
Ringcode Information:
    Mastering Code (laser branded/etched): T-19902GP-00812 1MM1 C 64
    Mastering SID Code: IFPI L223
    Data-Side Mould SID Code: IFPI 3913
    Label-Side Mould SID Code: (REQUIRED, IF EXISTS)
    Additional Mould: (REQUIRED, IF EXISTS)
    Toolstamp or Mastering Code (engraved/stamped): (REQUIRED, IF EXISTS)
Barcode: (OPTIONAL)
Error Count: 0
Comments: (OPTIONAL)
Contents: (OPTIONAL)
Version: V1.000
Edition/Release: Original (VERIFY THIS)
Header:

0000 : 53 45 47 41 20 53 45 47  41 53 41 54 55 52 4E 20   SEGA SEGASATURN 
0010 : 53 45 47 41 20 54 50 20  54 2D 31 39 39 20 20 20   SEGA TP T-199   
0020 : 54 2D 31 39 39 30 32 47  20 20 56 31 2E 30 30 30   T-19902G  V1.000
0030 : 31 39 39 36 30 33 32 34  43 44 2D 31 2F 31 20 20   19960324CD-1/1  
0040 : 4A 20 20 20 20 20 20 20  20 20 20 20 20 20 20 20   J               
0050 : 4A 20 20 20 20 20 20 20  20 20 20 20 20 20 20 20   J               
0060 : 4D 45 54 41 4C 20 42 4C  41 43 4B 20 20 20 20 20   METAL BLACK     
0070 : 20 20 20 20 20 20 20 20  20 20 20 20 20 20 20 20                   
0080 : 20 20 20 20 20 20 20 20  20 20 20 20 20 20 20 20                   
0090 : 20 20 20 20 20 20 20 20  20 20 20 20 20 20 20 20                   
00A0 : 20 20 20 20 20 20 20 20  20 20 20 20 20 20 20 20                   
00B0 : 20 20 20 20 20 20 20 20  20 20 20 20 20 20 20 20                   
00C0 : 20 20 20 20 20 20 20 20  20 20 20 20 20 20 20 20                   
00D0 : 00 00 00 00 00 00 00 00  00 00 00 00 00 00 00 00   ................
00E0 : 00 00 18 00 00 00 00 00  00 00 00 00 00 00 00 00   ................
00F0 : 06 01 00 00 00 00 00 00  00 00 00 00 00 00 00 00   ................

Primary Volume Descriptor (PVD):

0320 : 20 20 20 20 20 20 20 20  20 20 20 20 20 31 39 39                199
0330 : 35 31 31 32 34 30 30 30  30 30 30 30 30 24 31 39   5112400000000$19
0340 : 39 36 30 33 32 34 30 30  30 30 30 30 30 30 24 30   96032400000000$0
0350 : 30 30 30 30 30 30 30 30  30 30 30 30 30 30 30 00   000000000000000.
0360 : 30 30 30 30 30 30 30 30  30 30 30 30 30 30 30 30   0000000000000000
0370 : 00 01 00 00 00 00 00 00  00 00 00 00 00 00 00 00   ................

DAT:

<rom name="Metal Black (Japan) (1M) (Track 01).bin" size="5623632" crc="65069511" md5="50aa092277c6d05830d0bb9e8f644f27" sha1="0cd3c65b44cb511257230c30ea08c010b36585b6" />
<rom name="Metal Black (Japan) (1M) (Track 02).bin" size="13620432" crc="e9dd6014" md5="fb0d01129a42ea0d0f8758e453577190" sha1="c1ca5894bdc670c3682fbfa697e62caaf6684bd6" />
<rom name="Metal Black (Japan) (1M) (Track 03).bin" size="3504480" crc="5e8c4720" md5="6ab048279b6e59ca5a6ad6e7722c7826" sha1="693cc42d4027c7960b82d8945340be8b205bacc7" />
<rom name="Metal Black (Japan) (1M) (Track 04).bin" size="26340048" crc="c2a6d328" md5="3ce4547baa7e7b64321c36378aa1281d" sha1="29017dfa9f004acb21f2f4b71e8bda3d814a6230" />
<rom name="Metal Black (Japan) (1M) (Track 05).bin" size="32986800" crc="83bc2711" md5="27e282d6d87f8d219682ccbfd7256e0a" sha1="cefc8258db0f6af902fc39ff1d821526c2f39b2b" />
<rom name="Metal Black (Japan) (1M) (Track 06).bin" size="32104800" crc="aa88d5fa" md5="dfba514c53e87936fdc2d8c80c0eb77e" sha1="dbf32d75cc49f65b775bcf5d1fb22d7abee11ed0" />
<rom name="Metal Black (Japan) (1M) (Track 07).bin" size="28635600" crc="97cec2a3" md5="f6da389d178d7fa4529aa8ccad125b6b" sha1="b9e4936f9b78b845d202ee2f80c49809e0230d17" />
<rom name="Metal Black (Japan) (1M) (Track 08).bin" size="33405456" crc="e360835e" md5="2b3afbd9e69e8a01e790268510fdfc70" sha1="415eaf79be6e12f4f4acee44584f40ea5896e876" />
<rom name="Metal Black (Japan) (1M) (Track 09).bin" size="4233600" crc="44fa782e" md5="2616cbfc3bec63ccda96b90bc3ae0649" sha1="182f5c53c6f7c67ab33fa09dc948cbe0fad36ec4" />
<rom name="Metal Black (Japan) (1M) (Track 10).bin" size="32730432" crc="96194ffb" md5="87d6bffc01bd08bcab557753ade311b2" sha1="636e6b1b38ea877b32f23580eb5d4052a9b8b87a" />
<rom name="Metal Black (Japan) (1M) (Track 11).bin" size="33062064" crc="2d8d34e1" md5="85ff97e7f6e5fc545dd17a5ff8013764" sha1="38946f293e1722dfb63e05921a0eea10f1aa1882" />
<rom name="Metal Black (Japan) (1M) (Track 12).bin" size="21628992" crc="1bece431" md5="66aebfa8bd5877f57fcb9b4d37103ec5" sha1="092299e5b36e1969fab87f414d4fd639d73f1863" />
<rom name="Metal Black (Japan) (1M) (Track 13).bin" size="24670128" crc="065e7bc3" md5="3178f11c17ff390f41188ef166fe9bcf" sha1="280b6f4fad80ae3096e8b15776a2953be7d60f68" />
<rom name="Metal Black (Japan) (1M) (Track 14).bin" size="34819008" crc="0f30b86f" md5="8e3fffebdd862602dcb93d5fcacb28f8" sha1="3acd7954b73a81de5e47bf04780a6d39335fddae" />
<rom name="Metal Black (Japan) (1M) (Track 15).bin" size="29884512" crc="24452a14" md5="a19df96d6d18e3fc4b02695ad0daf386" sha1="e9a8a7e91f7de19aa0b491aed4d88d8f61b87a0d" />
<rom name="Metal Black (Japan) (1M) (Track 16).bin" size="33059712" crc="08bd670b" md5="0e0ddf5b516ff7ad34c182d69ead6539" sha1="6480e165c51396ed2f72ecb5a640c9740381066d" />
<rom name="Metal Black (Japan) (1M) (Track 17).bin" size="42691152" crc="0ed9bec4" md5="a811287d37e290e132bb906bd7d17b11" sha1="2e4effb660eb2167bc61f54bdd820970475c0369" />
<rom name="Metal Black (Japan) (1M) (Track 18).bin" size="15911280" crc="049ee89e" md5="9cc5f4db74a18828ebb4f00764e02dad" sha1="4197b13d398726c23b6fba3e70e50b0c7b3085c0" />
<rom name="Metal Black (Japan) (1M) (Track 19).bin" size="11839968" crc="dbf9d383" md5="58bee59e8eca8727988712a605cd0172" sha1="03555660b875ec7a482087610313e99936a3fe42" />
<rom name="Metal Black (Japan) (1M) (Track 20).bin" size="6580896" crc="89bd34af" md5="bc3a2125e3a83995fa3253759cde2792" sha1="1bba1d1d80dc269caf9282f02783c8954b32ae8e" />
<rom name="Metal Black (Japan) (1M) (Track 21).bin" size="16499280" crc="a0806833" md5="644abfe259af90dc1d130ca35ddf8e41" sha1="73e1e38f005c9733629b10392eec3faacc757875" />
<rom name="Metal Black (Japan) (1M) (Track 22).bin" size="10936800" crc="79bf8fd0" md5="78477ed4efda381cdf48f3528f7c4bf5" sha1="af330dcf65974c1422603540af8944b758079cec" />

Cuesheet:

CATALOG 0000000000000
FILE "Metal Black (Japan) (1M) (Track 01).bin" BINARY
  TRACK 01 MODE1/2352
    INDEX 01 00:00:00
FILE "Metal Black (Japan) (1M) (Track 02).bin" BINARY
  TRACK 02 AUDIO
    INDEX 00 00:00:00
    INDEX 01 00:02:00
FILE "Metal Black (Japan) (1M) (Track 03).bin" BINARY
  TRACK 03 AUDIO
    INDEX 00 00:00:00
    INDEX 01 00:02:00
FILE "Metal Black (Japan) (1M) (Track 04).bin" BINARY
  TRACK 04 AUDIO
    INDEX 00 00:00:00
    INDEX 01 00:02:00
FILE "Metal Black (Japan) (1M) (Track 05).bin" BINARY
  TRACK 05 AUDIO
    INDEX 00 00:00:00
    INDEX 01 00:02:00
FILE "Metal Black (Japan) (1M) (Track 06).bin" BINARY
  TRACK 06 AUDIO
    INDEX 00 00:00:00
    INDEX 01 00:02:00
FILE "Metal Black (Japan) (1M) (Track 07).bin" BINARY
  TRACK 07 AUDIO
    INDEX 00 00:00:00
    INDEX 01 00:02:00
FILE "Metal Black (Japan) (1M) (Track 08).bin" BINARY
  TRACK 08 AUDIO
    INDEX 00 00:00:00
    INDEX 01 00:02:00
FILE "Metal Black (Japan) (1M) (Track 09).bin" BINARY
  TRACK 09 AUDIO
    INDEX 00 00:00:00
    INDEX 01 00:02:00
FILE "Metal Black (Japan) (1M) (Track 10).bin" BINARY
  TRACK 10 AUDIO
    INDEX 00 00:00:00
    INDEX 01 00:02:00
FILE "Metal Black (Japan) (1M) (Track 11).bin" BINARY
  TRACK 11 AUDIO
    INDEX 00 00:00:00
    INDEX 01 00:02:00
FILE "Metal Black (Japan) (1M) (Track 12).bin" BINARY
  TRACK 12 AUDIO
    INDEX 00 00:00:00
    INDEX 01 00:02:00
FILE "Metal Black (Japan) (1M) (Track 13).bin" BINARY
  TRACK 13 AUDIO
    INDEX 00 00:00:00
    INDEX 01 00:02:00
FILE "Metal Black (Japan) (1M) (Track 14).bin" BINARY
  TRACK 14 AUDIO
    INDEX 00 00:00:00
    INDEX 01 00:02:00
FILE "Metal Black (Japan) (1M) (Track 15).bin" BINARY
  TRACK 15 AUDIO
    INDEX 00 00:00:00
    INDEX 01 00:02:00
FILE "Metal Black (Japan) (1M) (Track 16).bin" BINARY
  TRACK 16 AUDIO
    INDEX 00 00:00:00
    INDEX 01 00:02:00
FILE "Metal Black (Japan) (1M) (Track 17).bin" BINARY
  TRACK 17 AUDIO
    INDEX 00 00:00:00
    INDEX 01 00:02:00
FILE "Metal Black (Japan) (1M) (Track 18).bin" BINARY
  TRACK 18 AUDIO
    INDEX 00 00:00:00
    INDEX 01 00:02:00
FILE "Metal Black (Japan) (1M) (Track 19).bin" BINARY
  TRACK 19 AUDIO
    INDEX 00 00:00:00
    INDEX 01 00:02:00
FILE "Metal Black (Japan) (1M) (Track 20).bin" BINARY
  TRACK 20 AUDIO
    INDEX 00 00:00:00
    INDEX 01 00:02:00
FILE "Metal Black (Japan) (1M) (Track 21).bin" BINARY
  TRACK 21 AUDIO
    INDEX 00 00:00:00
    INDEX 01 00:02:00
FILE "Metal Black (Japan) (1M) (Track 22).bin" BINARY
  TRACK 22 AUDIO
    INDEX 00 00:00:00
    INDEX 01 00:02:00

Write Offset: 0

Steep Slope Sliders: http://redump.org/disc/61913/
All hashes match

Title: Steep Slope Sliders
Disc Number / Letter: (OPTIONAL)
Disc Title: (OPTIONAL)
System: Sega Saturn
Media Type: CD-ROM
Category: Games
Region: USA
Languages: English
Disc Serial: MK-81128
Build Date: 19971024
Ringcode Information:
    Mastering Code (laser branded/etched): *2S* 81128 B
    Mastering SID Code: IFPI L434
    Data-Side Mould SID Code: (REQUIRED, IF EXISTS)
    Label-Side Mould SID Code: (REQUIRED, IF EXISTS)
    Additional Mould: (REQUIRED, IF EXISTS)
    Toolstamp or Mastering Code A1
Barcode: (OPTIONAL)
Error Count: 0
Comments: (OPTIONAL)
Contents: (OPTIONAL)
Version: V1.000
Edition/Release: Original (VERIFY THIS)
Header:

0000 : 53 45 47 41 20 53 45 47  41 53 41 54 55 52 4E 20   SEGA SEGASATURN 
0010 : 53 45 47 41 20 45 4E 54  45 52 50 52 49 53 45 53   SEGA ENTERPRISES
0020 : 4D 4B 2D 38 31 31 32 38  20 20 56 31 2E 30 30 30   MK-81128  V1.000
0030 : 31 39 39 37 31 30 32 34  43 44 2D 31 2F 31 20 20   19971024CD-1/1  
0040 : 55 20 20 20 20 20 20 20  20 20 20 20 20 20 20 20   U               
0050 : 4A 20 20 20 20 20 20 20  20 20 20 20 20 20 20 20   J               
0060 : 53 54 45 45 50 20 53 4C  4F 50 45 20 53 4C 49 44   STEEP SLOPE SLID
0070 : 45 52 53 20 20 20 20 20  20 20 20 20 20 20 20 20   ERS             
0080 : 20 20 20 20 20 20 20 20  20 20 20 20 20 20 20 20                   
0090 : 20 20 20 20 20 20 20 20  20 20 20 20 20 20 20 20                   
00A0 : 20 20 20 20 20 20 20 20  20 20 20 20 20 20 20 20                   
00B0 : 20 20 20 20 20 20 20 20  20 20 20 20 20 20 20 20                   
00C0 : 20 20 20 20 20 20 20 20  20 20 20 20 20 20 20 20                   
00D0 : 00 00 00 00 00 00 00 00  00 00 00 00 00 00 00 00   ................
00E0 : 00 00 18 00 00 00 00 00  00 00 00 00 00 00 00 00   ................
00F0 : 06 00 40 00 00 00 00 00  00 00 00 00 00 00 00 00   ..@.............

Primary Volume Descriptor (PVD):

0320 : 20 20 20 20 20 20 20 20  20 20 20 20 20 31 39 39                199
0330 : 37 31 30 32 34 31 30 30  35 35 32 30 30 14 31 39   7102410055200.19
0340 : 39 37 31 30 32 34 31 30  30 35 35 32 30 30 14 30   97102410055200.0
0350 : 30 30 30 30 30 30 30 30  30 30 30 30 30 30 30 00   000000000000000.
0360 : 30 30 30 30 30 30 30 30  30 30 30 30 30 30 30 30   0000000000000000
0370 : 00 01 00 00 00 00 00 00  00 00 00 00 00 00 00 00   ................

DAT:

<rom name="Steep Slope Sliders (USA) (Track 01).bin" size="21459648" crc="390772ed" md5="da15931d505d5f85e5e00e89653570a4" sha1="834be3e8787a954b0a4430d826ec65f1ed0a8b87" />
<rom name="Steep Slope Sliders (USA) (Track 02).bin" size="32441136" crc="773759a0" md5="5a9eab6f7a3edccbd774f3aa6abbf817" sha1="0733cba692480e9fd21e1d747d90091754935b7d" />
<rom name="Steep Slope Sliders (USA) (Track 03).bin" size="30822960" crc="c0de61aa" md5="2b95c2166269c4cce931a859a9a44073" sha1="daa0d5ecd9f84e88a41470abf666ab4fe604811d" />
<rom name="Steep Slope Sliders (USA) (Track 04).bin" size="33219648" crc="cd51fff9" md5="6b51d770790e96ad99f7e2394d0327ea" sha1="eaca3f05b7118f14b0d6f9af54073a0981d54b87" />
<rom name="Steep Slope Sliders (USA) (Track 05).bin" size="29301216" crc="ea187245" md5="93116a9d6fb939141fc46dcc4f1eee81" sha1="8acbbd35c1e527d02c58970961df58b43cb5e1c6" />
<rom name="Steep Slope Sliders (USA) (Track 06).bin" size="27142080" crc="8831b673" md5="e1e543cd76c03ff3acb11e21611dfdb3" sha1="83e9d37011305ee2bdffc0c2bd3a8f202b5128d9" />
<rom name="Steep Slope Sliders (USA) (Track 07).bin" size="32097744" crc="6ed5a53a" md5="2dbddf62b2ef4c595c5dc37b9c0a8bb5" sha1="e81b9c4ef509150f973c0eb961e69ad9107ee698" />
<rom name="Steep Slope Sliders (USA) (Track 08).bin" size="32450544" crc="02fdbe5d" md5="7dbfe19ccff0ba4c5f20a70909ca16ad" sha1="c69f8fe858c61ca8773745d13b1adcf3fdc15271" />

Cuesheet:

FILE "Steep Slope Sliders (USA) (Track 01).bin" BINARY
  TRACK 01 MODE1/2352
    INDEX 01 00:00:00
FILE "Steep Slope Sliders (USA) (Track 02).bin" BINARY
  TRACK 02 AUDIO
    INDEX 00 00:00:00
    INDEX 01 00:02:00
FILE "Steep Slope Sliders (USA) (Track 03).bin" BINARY
  TRACK 03 AUDIO
    INDEX 00 00:00:00
    INDEX 01 00:02:00
FILE "Steep Slope Sliders (USA) (Track 04).bin" BINARY
  TRACK 04 AUDIO
    INDEX 00 00:00:00
    INDEX 01 00:02:00
FILE "Steep Slope Sliders (USA) (Track 05).bin" BINARY
  TRACK 05 AUDIO
    INDEX 00 00:00:00
    INDEX 01 00:02:00
FILE "Steep Slope Sliders (USA) (Track 06).bin" BINARY
  TRACK 06 AUDIO
    INDEX 00 00:00:00
    INDEX 01 00:02:00
FILE "Steep Slope Sliders (USA) (Track 07).bin" BINARY
  TRACK 07 AUDIO
    INDEX 00 00:00:00
    INDEX 01 00:02:00
FILE "Steep Slope Sliders (USA) (Track 08).bin" BINARY
  TRACK 08 AUDIO
    INDEX 00 00:00:00
    INDEX 01 00:02:00
FILE "Steep Slope Sliders (USA) (Track 09).bin" BINARY
  TRACK 09 AUDIO
    INDEX 00 00:00:00
    INDEX 01 00:02:00
FILE "Steep Slope Sliders (USA) (Track 10).bin" BINARY
  TRACK 10 AUDIO
    INDEX 00 00:00:00
    INDEX 01 00:02:00
FILE "Steep Slope Sliders (USA) (Track 11).bin" BINARY
  TRACK 11 AUDIO
    INDEX 00 00:00:00
    INDEX 01 00:02:00
FILE "Steep Slope Sliders (USA) (Track 12).bin" BINARY
  TRACK 12 AUDIO
    INDEX 00 00:00:00
    INDEX 01 00:02:00

Write Offset: 0

Tempest 2000: http://redump.org/disc/50004/
All hashes match

Title: Tempest 2000
Disc Number / Letter: (OPTIONAL)
Disc Title: (OPTIONAL)
System: Sega Saturn
Media Type: CD-ROM
Category: Games
Region: USA
Languages: English
Disc Serial: T-12516H
Build Date: 19961111
Ringcode Information:
    Mastering Code (laser branded/etched): *4S* T-12516H
    Mastering SID Code: IFPI L433
    Data-Side Mould SID Code: (REQUIRED, IF EXISTS)
    Label-Side Mould SID Code: (REQUIRED, IF EXISTS)
    Additional Mould: (REQUIRED, IF EXISTS)
    Toolstamp or Mastering Code (engraved/stamped): A1
Barcode: (OPTIONAL)
Error Count: 0
Comments: (OPTIONAL)
Contents: (OPTIONAL)
Version: V1.000
Edition/Release: Original
Header:

0000 : 53 45 47 41 20 53 45 47  41 53 41 54 55 52 4E 20   SEGA SEGASATURN 
0010 : 53 45 47 41 20 54 50 20  54 2D 31 32 35 20 20 20   SEGA TP T-125   
0020 : 54 2D 31 32 35 31 36 48  20 20 56 31 2E 30 30 30   T-12516H  V1.000
0030 : 31 39 39 36 31 31 31 31  43 44 2D 31 2F 31 20 20   19961111CD-1/1  
0040 : 55 20 20 20 20 20 20 20  20 20 20 20 20 20 20 20   U               
0050 : 4A 20 20 20 20 20 20 20  20 20 20 20 20 20 20 20   J               
0060 : 54 45 4D 50 45 53 54 20  32 30 30 30 20 20 20 20   TEMPEST 2000    
0070 : 20 20 20 20 20 20 20 20  20 20 20 20 20 20 20 20                   
0080 : 20 20 20 20 20 20 20 20  20 20 20 20 20 20 20 20                   
0090 : 20 20 20 20 20 20 20 20  20 20 20 20 20 20 20 20                   
00A0 : 20 20 20 20 20 20 20 20  20 20 20 20 20 20 20 20                   
00B0 : 20 20 20 20 20 20 20 20  20 20 20 20 20 20 20 20                   
00C0 : 20 20 20 20 20 20 20 20  20 20 20 20 20 20 20 20                   
00D0 : 00 00 00 00 00 00 00 00  00 00 00 00 00 00 00 00   ................
00E0 : 00 00 18 00 00 00 00 00  00 00 00 00 00 00 00 00   ................
00F0 : 06 01 00 00 00 00 00 00  00 00 00 00 00 00 00 00   ................

Primary Volume Descriptor (PVD):

0320 : 20 20 20 20 20 20 20 20  20 20 20 20 20 31 39 39                199
0330 : 36 31 31 31 31 31 34 35  39 33 32 30 30 14 31 39   6111114593200.19
0340 : 39 36 31 31 31 31 31 34  35 39 33 32 30 30 14 30   96111114593200.0
0350 : 30 30 30 30 30 30 30 30  30 30 30 30 30 30 30 00   000000000000000.
0360 : 30 30 30 30 30 30 30 30  30 30 30 30 30 30 30 30   0000000000000000
0370 : 00 01 00 00 00 00 00 00  00 00 00 00 00 00 00 00   ................

DAT:

<rom name="Tempest 2000 (USA) (Track 01).bin" size="2573088" crc="9e969e36" md5="aab84d9000aba10bac28189054ebfd18" sha1="2b421c579f3f374501b7b31dd07c9c129ebb106f" />
<rom name="Tempest 2000 (USA) (Track 02).bin" size="42888720" crc="13e90cf2" md5="7c0213c7d7527b103e9235247a0f5966" sha1="c429ab40de88f37f7524fa9269a3fa1fbe9814b4" />
<rom name="Tempest 2000 (USA) (Track 03).bin" size="52223808" crc="7ea5e76d" md5="6af3e921b0c5e58fd828fee1bf919db3" sha1="b749ec77fdfee604c6dccab2e207eb6ad72e4a0b" />
<rom name="Tempest 2000 (USA) (Track 04).bin" size="53978400" crc="c6d04c09" md5="4d428505b500c055bcaba9417a6612cf" sha1="30d2e551389cdb62bcf3ac358b07bc3b81276579" />
<rom name="Tempest 2000 (USA) (Track 05).bin" size="44069424" crc="4c1e7c9b" md5="bd3f9e4edb991f37ab382d2319a84a20" sha1="cc5c1ef790d95d0b70c785c60969dac7a5bb39ca" />
<rom name="Tempest 2000 (USA) (Track 06).bin" size="43297968" crc="d4fe5d5e" md5="8fadbc7a1c623e9d1af7cacdbe1f72c9" sha1="ad981c13441d28256ecb7efd4d7ce60d9dfe031c" />
<rom name="Tempest 2000 (USA) (Track 07).bin" size="57769824" crc="bf3b5c6c" md5="b3ce6e46f92516ea75e33cc278e011d0" sha1="7c37e90734f159551f05534930510c591c4c2a38" />
<rom name="Tempest 2000 (USA) (Track 08).bin" size="54345312" crc="3a332a0c" md5="7f9a9692d024e37389cddd57f6268b52" sha1="da90cdd06ac1926b88fe8d5405ddad0e57920d0b" />
<rom name="Tempest 2000 (USA) (Track 09).bin" size="47345760" crc="6db29ca6" md5="5aa3ff5a0ea6adf5c70531f886575d9d" sha1="af4333db1fd68505fd2ddb5943f432f8f387cabc" />
<rom name="Tempest 2000 (USA) (Track 10).bin" size="55876464" crc="8bbaf5ca" md5="be1b603e2b4fbc93b813ceba55916f03" sha1="137fa8eef099a1edaf68f3874b9668bb36b53002" />
<rom name="Tempest 2000 (USA) (Track 11).bin" size="80421936" crc="f2c69646" md5="07c64426a1cb4e3eb1d5a3049c70c266" sha1="a5b902afee308320e8a1acb38cc49f4dfc9fcf81" />
<rom name="Tempest 2000 (USA) (Track 12).bin" size="62012832" crc="2f9157a7" md5="940f6611c0b8a3219147484f5d8ce999" sha1="14549da58b20ff9940c35e95c949e0609e04f01a" />

Cuesheet:

FILE "Tempest 2000 (USA) (Track 01).bin" BINARY
  TRACK 01 MODE1/2352
    INDEX 01 00:00:00
FILE "Tempest 2000 (USA) (Track 02).bin" BINARY
  TRACK 02 AUDIO
    INDEX 00 00:00:00
    INDEX 01 00:02:00
FILE "Tempest 2000 (USA) (Track 03).bin" BINARY
  TRACK 03 AUDIO
    INDEX 00 00:00:00
    INDEX 01 00:02:00
FILE "Tempest 2000 (USA) (Track 04).bin" BINARY
  TRACK 04 AUDIO
    INDEX 00 00:00:00
    INDEX 01 00:02:00
FILE "Tempest 2000 (USA) (Track 05).bin" BINARY
  TRACK 05 AUDIO
    INDEX 00 00:00:00
    INDEX 01 00:02:00
FILE "Tempest 2000 (USA) (Track 06).bin" BINARY
  TRACK 06 AUDIO
    INDEX 00 00:00:00
    INDEX 01 00:02:00
FILE "Tempest 2000 (USA) (Track 07).bin" BINARY
  TRACK 07 AUDIO
    INDEX 00 00:00:00
    INDEX 01 00:02:00
FILE "Tempest 2000 (USA) (Track 08).bin" BINARY
  TRACK 08 AUDIO
    INDEX 00 00:00:00
    INDEX 01 00:02:00
FILE "Tempest 2000 (USA) (Track 09).bin" BINARY
  TRACK 09 AUDIO
    INDEX 00 00:00:00
    INDEX 01 00:02:00
FILE "Tempest 2000 (USA) (Track 10).bin" BINARY
  TRACK 10 AUDIO
    INDEX 00 00:00:00
    INDEX 01 00:02:00
FILE "Tempest 2000 (USA) (Track 11).bin" BINARY
  TRACK 11 AUDIO
    INDEX 00 00:00:00
    INDEX 01 00:02:00
FILE "Tempest 2000 (USA) (Track 12).bin" BINARY
  TRACK 12 AUDIO
    INDEX 00 00:00:00
    INDEX 01 00:02:00

Write Offset: 1176

Virtua Cop: http://redump.org/disc/17472/
All hashes match, new mastering code

Title: Virtua Cop
Disc Number / Letter: (OPTIONAL)
Disc Title: (OPTIONAL)
System: Sega Saturn
Media Type: CD-ROM
Category: Games
Region: USA
Languages: English
Disc Serial: MK-81015
Build Date: 19951017
Ringcode Information:
    Mastering Code (laser branded/etched): (REQUIRED, IF EXISTS)
    Mastering SID Code: IFPI L433
    Data-Side Mould SID Code: (REQUIRED, IF EXISTS)
    Label-Side Mould SID Code: (REQUIRED, IF EXISTS)
    Additional Mould: (REQUIRED, IF EXISTS)
    Toolstamp or Mastering Code (engraved/stamped): VIRTUACOP   10/95 5SA3
Barcode: (OPTIONAL)
Error Count: 0
Comments: (OPTIONAL)
Contents: (OPTIONAL)
Version: V1.001
Edition/Release: Original (VERIFY THIS)
Header:

0000 : 53 45 47 41 20 53 45 47  41 53 41 54 55 52 4E 20   SEGA SEGASATURN 
0010 : 53 45 47 41 20 45 4E 54  45 52 50 52 49 53 45 53   SEGA ENTERPRISES
0020 : 4D 4B 2D 38 31 30 31 35  20 20 56 31 2E 30 30 31   MK-81015  V1.001
0030 : 31 39 39 35 31 30 31 37  43 44 2D 31 2F 31 20 20   19951017CD-1/1  
0040 : 54 55 20 20 20 20 20 20  20 20 20 20 20 20 20 20   TU              
0050 : 4A 4D 47 20 20 20 20 20  20 20 20 20 20 20 20 20   JMG             
0060 : 56 49 52 54 55 41 20 43  4F 50 20 20 20 20 20 20   VIRTUA COP      
0070 : 20 20 20 20 20 20 20 20  20 20 20 20 20 20 20 20                   
0080 : 20 20 20 20 20 20 20 20  20 20 20 20 20 20 20 20                   
0090 : 20 20 20 20 20 20 20 20  20 20 20 20 20 20 20 20                   
00A0 : 20 20 20 20 20 20 20 20  20 20 20 20 20 20 20 20                   
00B0 : 20 20 20 20 20 20 20 20  20 20 20 20 20 20 20 20                   
00C0 : 20 20 20 20 20 20 20 20  20 20 20 20 20 20 20 20                   
00D0 : 00 00 00 00 00 00 00 00  00 00 00 00 00 00 00 00   ................
00E0 : 00 00 80 00 00 00 00 00  00 00 00 00 00 00 00 00   ................
00F0 : 06 00 3C 00 00 00 00 00  00 00 00 00 00 00 00 00   ..<.............

Primary Volume Descriptor (PVD):

0320 : 20 20 20 20 20 20 20 20  20 20 20 20 20 31 39 39                199
0330 : 35 31 30 31 37 31 36 31  34 34 36 30 30 14 31 39   5101716144600.19
0340 : 39 35 31 30 31 37 31 36  31 34 34 36 30 30 14 30   95101716144600.0
0350 : 30 30 30 30 30 30 30 30  30 30 30 30 30 30 30 00   000000000000000.
0360 : 30 30 30 30 30 30 30 30  30 30 30 30 30 30 30 30   0000000000000000
0370 : 00 01 00 00 00 00 00 00  00 00 00 00 00 00 00 00   ................

DAT:

<rom name="Virtua Cop (USA) (6S) (Track 01).bin" size="50655024" crc="1f08de95" md5="117e40c1c1f308764df5f72d0df98723" sha1="f545c290b4aff92567d9dd9be704611afc389333" />
<rom name="Virtua Cop (USA) (6S) (Track 02).bin" size="1615824" crc="5f1f6354" md5="68939efbc75fcd29976db00622ae0a0c" sha1="ff0bb54bc6eae2a4112e255d83b8bd3578fe2a7a" />
<rom name="Virtua Cop (USA) (6S) (Track 03).bin" size="24531360" crc="3a6f3a57" md5="c44d9e7ed8052aeb1fc1fde511dcb2e3" sha1="1ff3ab49b439849b55771e3da5b149e401bf20a0" />
<rom name="Virtua Cop (USA) (6S) (Track 04).bin" size="9422112" crc="5d5d013d" md5="4b0f933ce3bcfdf6a63fdfca5c2f4f35" sha1="1d29514e2a4a32035b2926dd312f514459e7e98d" />
<rom name="Virtua Cop (USA) (6S) (Track 05).bin" size="11990496" crc="ef3c9994" md5="82ec47216607603cf43a6794d7e5da06" sha1="1b5d9589d2c4321e5bbff48ebeb36502c7dfda19" />
<rom name="Virtua Cop (USA) (6S) (Track 06).bin" size="44323440" crc="405e90f8" md5="5fc51b36600d176cf2164cf2646b2ba2" sha1="3e8a27bfde62668762011852762ec0dd709ba603" />
<rom name="Virtua Cop (USA) (6S) (Track 07).bin" size="38537520" crc="523b5f7b" md5="e5bf48d765cb593bce0a4620578300f0" sha1="9e8791b9f851f35407eba71b7a7b3ba4e0f7197a" />
<rom name="Virtua Cop (USA) (6S) (Track 08).bin" size="37274496" crc="db83d165" md5="4d59cf181b04c088a2c81aaa2b5d8dc2" sha1="f92167ab5bb9cf7b1d82098362c96fe007bc1971" />
<rom name="Virtua Cop (USA) (6S) (Track 09).bin" size="17569440" crc="cb93d256" md5="ec6ac52cd6ac15ebe291814312ace15e" sha1="aa05610341dd2e797ff4f854156883c096517baf" />
<rom name="Virtua Cop (USA) (6S) (Track 10).bin" size="28092288" crc="7b89a3a3" md5="8d5bc41aec7223a00d6e6a68f1891076" sha1="e0975a0fc072e3dc5f8b29e40211e8f2b18e997d" />
<rom name="Virtua Cop (USA) (6S) (Track 11).bin" size="24804192" crc="60da28f4" md5="164cfe7d86300bb379e55aecc3251354" sha1="2eb83aad76c99397ddaf7146f6ead24c6746e172" />
<rom name="Virtua Cop (USA) (6S) (Track 12).bin" size="24256176" crc="d6df75a0" md5="19b1ec1a242ab411fcf7019f45d7d5b9" sha1="d04c30ff0619ccf79a92b05468b3c5b95657af5c" />
<rom name="Virtua Cop (USA) (6S) (Track 13).bin" size="28983696" crc="6061700f" md5="000481e9d2f269960bbf1a19df5053ce" sha1="e5cc033658307ba335153cc27eb57cef6035ed8f" />
<rom name="Virtua Cop (USA) (6S) (Track 14).bin" size="1305360" crc="d31ab80e" md5="e45d7d8fe2d271cb049a1b8c65f96f12" sha1="6c9869f3d1d43e54e2664a37cdd8962a1270ecee" />
<rom name="Virtua Cop (USA) (6S) (Track 15).bin" size="1653456" crc="936f36a6" md5="b7da22159e0cd3e5d8ae641bcb3235cf" sha1="829ec234e7042340180c53d09b24b23d9d092d28" />
<rom name="Virtua Cop (USA) (6S) (Track 16).bin" size="13695696" crc="bd4ea043" md5="4df875691519f5201366f1451a577e86" sha1="9ba1b7d69499720b684c42cbbe2a250cb0d9fc9c" />
<rom name="Virtua Cop (USA) (6S) (Track 17).bin" size="41000064" crc="5b9882b5" md5="e987f6042e9e4cfc98ee9a9cb0858c13" sha1="b42823674a3d77000a6620bd82d25b3619061873" />
<rom name="Virtua Cop (USA) (6S) (Track 18).bin" size="43660176" crc="54e8317f" md5="ae0622b33fba93985793c45fdfe70d3c" sha1="6a81b63e4704366d4033dba136ddf856956135ad" />
<rom name="Virtua Cop (USA) (6S) (Track 19).bin" size="48963936" crc="3563a4a0" md5="434b4bb53f2f12ce2c336bd320849b1a" sha1="49dd4a92d84ed3b40010eb4c65f4fccbe25b58b0" />

Cuesheet:

CATALOG 0000000000000
FILE "Virtua Cop (USA) (6S) (Track 01).bin" BINARY
  TRACK 01 MODE1/2352
    INDEX 01 00:00:00
FILE "Virtua Cop (USA) (6S) (Track 02).bin" BINARY
  TRACK 02 AUDIO
    INDEX 00 00:00:00
    INDEX 01 00:01:74
FILE "Virtua Cop (USA) (6S) (Track 03).bin" BINARY
  TRACK 03 AUDIO
    INDEX 00 00:00:00
    INDEX 01 00:02:00
FILE "Virtua Cop (USA) (6S) (Track 04).bin" BINARY
  TRACK 04 AUDIO
    INDEX 00 00:00:00
    INDEX 01 00:02:00
FILE "Virtua Cop (USA) (6S) (Track 05).bin" BINARY
  TRACK 05 AUDIO
    INDEX 00 00:00:00
    INDEX 01 00:02:00
FILE "Virtua Cop (USA) (6S) (Track 06).bin" BINARY
  TRACK 06 AUDIO
    INDEX 00 00:00:00
    INDEX 01 00:02:00
FILE "Virtua Cop (USA) (6S) (Track 07).bin" BINARY
  TRACK 07 AUDIO
    INDEX 00 00:00:00
    INDEX 01 00:02:00
FILE "Virtua Cop (USA) (6S) (Track 08).bin" BINARY
  TRACK 08 AUDIO
    INDEX 00 00:00:00
    INDEX 01 00:02:00
FILE "Virtua Cop (USA) (6S) (Track 09).bin" BINARY
  TRACK 09 AUDIO
    INDEX 00 00:00:00
    INDEX 01 00:02:00
FILE "Virtua Cop (USA) (6S) (Track 10).bin" BINARY
  TRACK 10 AUDIO
    INDEX 00 00:00:00
    INDEX 01 00:02:00
FILE "Virtua Cop (USA) (6S) (Track 11).bin" BINARY
  TRACK 11 AUDIO
    INDEX 00 00:00:00
    INDEX 01 00:02:00
FILE "Virtua Cop (USA) (6S) (Track 12).bin" BINARY
  TRACK 12 AUDIO
    INDEX 00 00:00:00
    INDEX 01 00:02:00
FILE "Virtua Cop (USA) (6S) (Track 13).bin" BINARY
  TRACK 13 AUDIO
    INDEX 00 00:00:00
    INDEX 01 00:02:00
FILE "Virtua Cop (USA) (6S) (Track 14).bin" BINARY
  TRACK 14 AUDIO
    INDEX 00 00:00:00
    INDEX 01 00:02:00
FILE "Virtua Cop (USA) (6S) (Track 15).bin" BINARY
  TRACK 15 AUDIO
    INDEX 00 00:00:00
    INDEX 01 00:02:00
FILE "Virtua Cop (USA) (6S) (Track 16).bin" BINARY
  TRACK 16 AUDIO
    INDEX 00 00:00:00
    INDEX 01 00:02:00
FILE "Virtua Cop (USA) (6S) (Track 17).bin" BINARY
  TRACK 17 AUDIO
    INDEX 00 00:00:00
    INDEX 01 00:02:00
FILE "Virtua Cop (USA) (6S) (Track 18).bin" BINARY
  TRACK 18 AUDIO
    INDEX 00 00:00:00
    INDEX 01 00:02:00
FILE "Virtua Cop (USA) (6S) (Track 19).bin" BINARY
  TRACK 19 AUDIO
    INDEX 00 00:00:00
    INDEX 01 00:02:00

Write Offset: 222

World Series Baseball 98: http://redump.org/disc/16787/
All hashes match, corrected ring code

Title: World Series Baseball 98
Disc Number / Letter: (OPTIONAL)
Disc Title: (OPTIONAL)
System: Sega Saturn
Media Type: CD-ROM
Category: Games
Region: USA
Languages: English
Disc Serial: MK-81127
Build Date: 19970612
Ringcode Information:
    Mastering Code (laser branded/etched): *2S* 81127
    Mastering SID Code: IFPI L433
    Data-Side Mould SID Code: (REQUIRED, IF EXISTS)
    Label-Side Mould SID Code: (REQUIRED, IF EXISTS)
    Additional Mould: (REQUIRED, IF EXISTS)
    Toolstamp or Mastering Code (engraved/stamped): A1
Barcode: (OPTIONAL)
Error Count: 0
Comments: (OPTIONAL)
Contents: (OPTIONAL)
Version: V1.006
Edition/Release: Original
Header:

0000 : 53 45 47 41 20 53 45 47  41 53 41 54 55 52 4E 20   SEGA SEGASATURN 
0010 : 53 45 47 41 20 45 4E 54  45 52 50 52 49 53 45 53   SEGA ENTERPRISES
0020 : 4D 4B 2D 38 31 31 32 37  20 20 56 31 2E 30 30 36   MK-81127  V1.006
0030 : 31 39 39 37 30 36 31 32  43 44 2D 31 2F 31 20 20   19970612CD-1/1  
0040 : 55 20 20 20 20 20 20 20  20 20 20 20 20 20 20 20   U               
0050 : 4A 20 20 20 20 20 20 20  20 20 20 20 20 20 20 20   J               
0060 : 57 4F 52 4C 44 20 53 45  52 49 45 53 20 20 20 20   WORLD SERIES    
0070 : 42 41 53 45 42 41 4C 4C  20 39 38 20 20 20 20 20   BASEBALL 98     
0080 : 20 20 20 20 20 20 20 20  20 20 20 20 20 20 20 20                   
0090 : 20 20 20 20 20 20 20 20  20 20 20 20 20 20 20 20                   
00A0 : 20 20 20 20 20 20 20 20  20 20 20 20 20 20 20 20                   
00B0 : 20 20 20 20 20 20 20 20  20 20 20 20 20 20 20 20                   
00C0 : 20 20 20 20 20 20 20 20  20 20 20 20 20 20 20 20                   
00D0 : 00 00 00 00 00 00 00 00  00 00 00 00 00 00 00 00   ................
00E0 : 00 00 80 00 00 00 00 00  06 00 20 00 06 00 10 00   .......... .....
00F0 : 06 00 40 00 00 00 00 00  00 00 00 00 00 00 00 00   ..@.............

Primary Volume Descriptor (PVD):

0320 : 20 20 20 20 20 20 20 20  20 20 20 20 20 31 39 39                199
0330 : 37 30 36 31 32 31 35 34  37 31 38 30 30 14 31 39   7061215471800.19
0340 : 39 37 30 36 31 32 31 35  34 37 31 38 30 30 14 30   97061215471800.0
0350 : 30 30 30 30 30 30 30 30  30 30 30 30 30 30 30 00   000000000000000.
0360 : 30 30 30 30 30 30 30 30  30 30 30 30 30 30 30 30   0000000000000000
0370 : 00 01 00 00 00 00 00 00  00 00 00 00 00 00 00 00   ................

DAT:

<rom name="World Series Baseball 98 (USA) (Track 1).bin" size="389531184" crc="1fba73cb" md5="2c1995df3e9a163590b3651204d2c06c" sha1="fc55ec35a9f24233abcf7b537b5447b680f90f78" />
<rom name="World Series Baseball 98 (USA) (Track 2).bin" size="7277088" crc="bd54686e" md5="2f26eb19e043878f8ce5f6bee44b8ddf" sha1="533a50c9bac4ff4b851ec0033fb64ee5530ba9a0" />
<rom name="World Series Baseball 98 (USA) (Track 3).bin" size="7592256" crc="65fe4a1f" md5="c5ac80d057ddbcb947d5d27315db50df" sha1="6165036d65237d0819ae72bc336e39d6d37b9478" />
<rom name="World Series Baseball 98 (USA) (Track 4).bin" size="13345248" crc="42836739" md5="74ae7278ad30323ed031d1126482dea7" sha1="b5b817968688746c8061afa839d22ef64de9f0dc" />
<rom name="World Series Baseball 98 (USA) (Track 5).bin" size="12479712" crc="6af276d3" md5="d40d2797946855e8e47522a960caa943" sha1="9f7176dbb9ce4ae7561ab3941ed36cfdeef8ec9e" />

Cuesheet:

FILE "World Series Baseball 98 (USA) (Track 1).bin" BINARY
  TRACK 01 MODE1/2352
    INDEX 01 00:00:00
FILE "World Series Baseball 98 (USA) (Track 2).bin" BINARY
  TRACK 02 AUDIO
    INDEX 00 00:00:00
    INDEX 01 00:02:00
FILE "World Series Baseball 98 (USA) (Track 3).bin" BINARY
  TRACK 03 AUDIO
    INDEX 00 00:00:00
    INDEX 01 00:02:00
FILE "World Series Baseball 98 (USA) (Track 4).bin" BINARY
  TRACK 04 AUDIO
    INDEX 00 00:00:00
    INDEX 01 00:02:00
FILE "World Series Baseball 98 (USA) (Track 5).bin" BINARY
  TRACK 05 AUDIO
    INDEX 00 00:00:00
    INDEX 01 00:02:00

Write Offset: 588