1

(0 replies, posted in Verifications)

Verification of http://redump.org/disc/29557/
Logs: http://robdangero.us/redump/PatchesAndD … s_logs.zip
Pics: http://robdangero.us/redump/PatchesAndD … s_pics.zip

This is listed here as "Resident Evil (Manuals & Patches)" but for me it was in a box with Earthworm Jim 3D and Renegade Racers and the disc contains stuff for a big bunch of games - was probably packed in with a lot of white label releases. How about calling it "white label (Manuals & Patches)"?

Common Disc Info:
    Title: Handbücher & Patches
    Disc Number / Letter: (OPTIONAL)
    Disc Title: Manuals & Patches
    System: IBM PC compatible
    Media Type: CD-ROM
    Category: Bonus Discs
    Fully Matching ID: 29557
    Region: Europe
    Languages: SILENCE! (CHANGE THIS)
    Disc Serial: (REQUIRED, IF EXISTS)

    Ringcode Information:

Data Side Mastering Code (laser branded/etched): sonopress XA A-57550/XXS03MNM23 A
Data Side Mastering SID Code: (REQUIRED, IF EXISTS)
Data Side Toolstamp or Mastering Code (engraved/stamped): (REQUIRED, IF EXISTS)
Data Side Mould SID Code: IFPI 0795
Data Side Additional Mould: (REQUIRED, IF EXISTS)
Label Side Mould SID Code: (REQUIRED, IF EXISTS)

    Barcode: (OPTIONAL)
    Error Count: 0
    Comments:

[T:VOL] 010712_1622
(OPTIONAL)

    Contents: (OPTIONAL)

Version and Editions:
    Version: (REQUIRED, IF EXISTS)
    Edition/Release: white label

Extras:
    Primary Volume Descriptor (PVD):

0320 : 20 20 20 20 20 20 20 20  20 20 20 20 20 32 30 30                200
0330 : 31 30 37 31 32 31 36 35  34 33 33 30 30 00 32 30   1071216543300.20
0340 : 30 31 30 37 31 32 31 36  35 34 33 33 30 30 00 30   01071216543300.0
0350 : 30 30 30 30 30 30 30 30  30 30 30 30 30 30 30 04   000000000000000.
0360 : 30 30 30 30 30 30 30 30  30 30 30 30 30 30 30 30   0000000000000000
0370 : 04 01 00 00 00 00 00 00  00 00 00 00 00 00 00 00   ................

Copy Protection:
    Copy Protection: None found [OMIT FROM SUBMISSION]
    SubIntention Data (SecuROM/LibCrypt): 

Tracks and Write Offsets:
    DAT:

<rom name="PatchesAndDocsForJim3DandRenegadeRacers.bin" size="101131296" crc="bb15eecc" md5="f408b26d7a90855ccdf26bf9e2ff7183" sha1="e8df87009607024a834ad12c521693a18ab9e263" />

    Cuesheet:

FILE "PatchesAndDocsForJim3DandRenegadeRacers.bin" BINARY
  TRACK 01 MODE2/2352
    INDEX 01 00:00:00

    Write Offset: -12

Dumping Info:
    Frontend Version: 3.1.9-f97e293ad2e882943b373fa781ec977c31fc9e3a
    Dumping Program: Redumper v2024.05.06 build_325
    Date: 2024-05-22 20:22:31
    Manufacturer: PLEXTOR
    Model: DVDR PX-760A
    Firmware: 1.07 (08/18/07 15:10)
    Reported Disc Type: CD-ROM
    C2 Error Count: 0

2

(0 replies, posted in Verifications)

Verification of http://redump.org/disc/9758/
Logs: http://robdangero.us/redump/EarthwormJim3D_logs.zip
Pics: http://robdangero.us/redump/EarthwormJim3D_pics.zip

In a box with Renegade Racers.

Common Disc Info:
    Title: Earthworm Jim 3D
    Disc Number / Letter: (OPTIONAL)
    Disc Title: (OPTIONAL)
    System: IBM PC compatible
    Media Type: CD-ROM
    Category: Games
    Fully Matching ID: 9758
    Region: Europe
    Languages: SILENCE! (CHANGE THIS)
    Disc Serial: (REQUIRED, IF EXISTS)

    Ringcode Information:

Data Side Mastering Code (laser branded/etched): sonopress ROMM A-18314/ W95695M26 A
Data Side Mastering SID Code: (REQUIRED, IF EXISTS)
Data Side Toolstamp or Mastering Code (engraved/stamped): (REQUIRED, IF EXISTS)
Data Side Mould SID Code: IFPI 0756
Data Side Additional Mould: (REQUIRED, IF EXISTS)
Label Side Mould SID Code: (REQUIRED, IF EXISTS)

    Barcode: (OPTIONAL)
    Error Count: 0
    Comments:

[T:VOL] Earthworm Jim 3D
(OPTIONAL)

    Contents: (OPTIONAL)

Version and Editions:
    Version: (REQUIRED, IF EXISTS)
    Edition/Release: white label

Extras:
    Primary Volume Descriptor (PVD):

0320 : 20 20 20 20 20 20 20 20  20 20 20 20 20 31 39 39                199
0330 : 39 31 32 30 32 31 31 32  34 35 36 00 00 04 31 39   91202112456...19
0340 : 39 39 31 32 30 32 31 31  32 34 35 36 00 00 04 32   991202112456...2
0350 : 39 39 39 31 32 30 32 31  31 32 34 35 34 00 00 04   9991202112454...
0360 : 31 39 39 39 31 32 30 32  31 31 32 34 35 34 00 00   19991202112454..
0370 : 04 01 00 00 00 00 00 00  00 00 00 00 00 00 00 00   ................

Copy Protection:
    Copy Protection: Exception occurred while scanning [RESCAN NEEDED]
    SubIntention Data (SecuROM/LibCrypt): 

Tracks and Write Offsets:
    DAT:

<rom name="EarthwormJim3D (Track 01).bin" size="102711840" crc="96a537af" md5="38469c7c760ecee1ea8515882c134fef" sha1="9652f11cb01f2e0cf43c6a0ff7b3ed26c3d080fa" />
<rom name="EarthwormJim3D (Track 02).bin" size="15175104" crc="e68f8d84" md5="c3c815fa5bfec28c0c035fd98a014b47" sha1="4bae5319a523da8898011c180aabaccc53cf5729" />
<rom name="EarthwormJim3D (Track 03).bin" size="38459904" crc="dc84c2f9" md5="ce068a29da3a5597bc0d88f20842abc7" sha1="19d1b79f6bf15bc05a6007bdb02a8b9435c3b8fb" />
<rom name="EarthwormJim3D (Track 04).bin" size="14469504" crc="4cd43d9d" md5="2c52d9b6c588f9e429bcace50872c20d" sha1="f478d0b6f77b2be61982f3438d4d94d87f9914db" />
<rom name="EarthwormJim3D (Track 05).bin" size="28757904" crc="c82284a4" md5="80c658160ac8159294ab7fa89e1eef1f" sha1="322092c5e51b6b3ab0fad8c644f4f7140c2a1ae2" />
<rom name="EarthwormJim3D (Track 06).bin" size="20819904" crc="05768785" md5="ee06094d3ef76d2f9cf1ed5c2373810d" sha1="9131b2139a7b8c92701090c349a6b298c9464112" />
<rom name="EarthwormJim3D (Track 07).bin" size="27523104" crc="560d007e" md5="7b40ce6f0f5fe79166fcbbf3ef67aad1" sha1="6effd8a263fd46e9a31c5b542ebcce099199aa83" />
<rom name="EarthwormJim3D (Track 08).bin" size="27170304" crc="c0da41be" md5="80d0681ac9f96b229831d033fab25319" sha1="395c2ec5e0de771210de3b5e0438f9bbd1cfaa61" />
<rom name="EarthwormJim3D (Track 09).bin" size="45339504" crc="22e057da" md5="160873fc47b2497563d14c1166c4649d" sha1="84c90e6dfb01785d7ac3969f56c3237c7e0bf763" />
<rom name="EarthwormJim3D (Track 10).bin" size="65096304" crc="772c3145" md5="9f56810228dcd12dd745bda812455649" sha1="405b9273f525cccf7f048f28c8532c062339749b" />
<rom name="EarthwormJim3D (Track 11).bin" size="16409904" crc="e57045c5" md5="1c949fff7676421b04b75ae791beec9f" sha1="8e17a65cebaeebb1a14dda6f11d1678f01aefe4e" />
<rom name="EarthwormJim3D (Track 12).bin" size="16762704" crc="2e7560ac" md5="f04fc443d9b0f176529cfe8ae2d6a3ab" sha1="243472742094215503b9d080e3a333ebfb98cc2b" />
<rom name="EarthwormJim3D (Track 13).bin" size="11117904" crc="2334bbaf" md5="8453dc934c9dd6b217f7a5d80671ecda" sha1="c889a2f800766182f771fed0e0d926723a93c125" />
<rom name="EarthwormJim3D (Track 14).bin" size="11117904" crc="98d6ffe3" md5="52d3937fadda2110521a89bd7a237587" sha1="55066e2dcb7ade1c496adf947b4bce774cfba182" />
<rom name="EarthwormJim3D (Track 15).bin" size="38107104" crc="4aef9d6a" md5="9f38e09fbdec0b8f0f86090611ae5f7c" sha1="01a51ad98f8eb0a50394830e900189673a41349b" />
<rom name="EarthwormJim3D (Track 16).bin" size="32462304" crc="536e7fa5" md5="5524f273f34fc9d1fa9426ecd23787fe" sha1="d573f564cf74fd1e78d7243535c9561a5eb328fc" />
<rom name="EarthwormJim3D (Track 17).bin" size="11999904" crc="e398bc44" md5="d7c79a9e63111d8c69ef808f8ea751eb" sha1="76365649bb378bd71e02b81cb112dbd5b0e6904f" />
<rom name="EarthwormJim3D (Track 18).bin" size="40576704" crc="a0bdb33b" md5="a1e0939a61836a7338df47c44da2de3c" sha1="ff9d250a75ed88281e8722a148f83cfffd82cd82" />
<rom name="EarthwormJim3D (Track 19).bin" size="18526704" crc="23de2ff8" md5="8a50ebf98603aaa4b3d901340d8b8468" sha1="2aa98ed18c3211016d3855c7a661e450d327ebcb" />
<rom name="EarthwormJim3D (Track 20).bin" size="16233504" crc="4ef21028" md5="bc04f399139a29aa335f3dc0b2308326" sha1="4b0da7b910725617329d4603d750d41069056b89" />
<rom name="EarthwormJim3D (Track 21).bin" size="23818704" crc="c292bc62" md5="8f0af581ea0dff485ce2c7fb78d6cdfd" sha1="2136e919a624ef62106731243e254f25a6307132" />
<rom name="EarthwormJim3D (Track 22).bin" size="37225104" crc="f92ad0c8" md5="07a4243e11a19e6715a8c61a9383fe9d" sha1="791a33b6eba7c8d5feddd91ad11099e0fc72cfb7" />
<rom name="EarthwormJim3D (Track 23).bin" size="20467104" crc="9ca8caf4" md5="ac769ef658880ec88bb669ba13d67728" sha1="85b8bd82671fe415d1fdc37777c93998cdcef84d" />
<rom name="EarthwormJim3D (Track 24).bin" size="32991504" crc="1f029583" md5="4ec4bbb2de74dcf338199b2d74abcbea" sha1="b0bc4a7bae0b44bf8c471a9887f569e36f72dd21" />

    Cuesheet:

CATALOG 0000000000000
FILE "EarthwormJim3D (Track 01).bin" BINARY
  TRACK 01 MODE1/2352
    INDEX 01 00:00:00
FILE "EarthwormJim3D (Track 02).bin" BINARY
  TRACK 02 AUDIO
    INDEX 00 00:00:00
    INDEX 01 00:02:00
FILE "EarthwormJim3D (Track 03).bin" BINARY
  TRACK 03 AUDIO
    INDEX 00 00:00:00
    INDEX 01 00:02:00
FILE "EarthwormJim3D (Track 04).bin" BINARY
  TRACK 04 AUDIO
    INDEX 00 00:00:00
    INDEX 01 00:02:00
FILE "EarthwormJim3D (Track 05).bin" BINARY
  TRACK 05 AUDIO
    INDEX 00 00:00:00
    INDEX 01 00:02:00
FILE "EarthwormJim3D (Track 06).bin" BINARY
  TRACK 06 AUDIO
    INDEX 00 00:00:00
    INDEX 01 00:02:00
FILE "EarthwormJim3D (Track 07).bin" BINARY
  TRACK 07 AUDIO
    INDEX 00 00:00:00
    INDEX 01 00:02:00
FILE "EarthwormJim3D (Track 08).bin" BINARY
  TRACK 08 AUDIO
    INDEX 00 00:00:00
    INDEX 01 00:02:00
FILE "EarthwormJim3D (Track 09).bin" BINARY
  TRACK 09 AUDIO
    INDEX 00 00:00:00
    INDEX 01 00:02:00
FILE "EarthwormJim3D (Track 10).bin" BINARY
  TRACK 10 AUDIO
    INDEX 00 00:00:00
    INDEX 01 00:02:00
FILE "EarthwormJim3D (Track 11).bin" BINARY
  TRACK 11 AUDIO
    INDEX 00 00:00:00
    INDEX 01 00:02:00
FILE "EarthwormJim3D (Track 12).bin" BINARY
  TRACK 12 AUDIO
    INDEX 00 00:00:00
    INDEX 01 00:02:00
FILE "EarthwormJim3D (Track 13).bin" BINARY
  TRACK 13 AUDIO
    INDEX 00 00:00:00
    INDEX 01 00:02:00
FILE "EarthwormJim3D (Track 14).bin" BINARY
  TRACK 14 AUDIO
    INDEX 00 00:00:00
    INDEX 01 00:02:00
FILE "EarthwormJim3D (Track 15).bin" BINARY
  TRACK 15 AUDIO
    INDEX 00 00:00:00
    INDEX 01 00:02:00
FILE "EarthwormJim3D (Track 16).bin" BINARY
  TRACK 16 AUDIO
    INDEX 00 00:00:00
    INDEX 01 00:02:00
FILE "EarthwormJim3D (Track 17).bin" BINARY
  TRACK 17 AUDIO
    INDEX 00 00:00:00
    INDEX 01 00:02:00
FILE "EarthwormJim3D (Track 18).bin" BINARY
  TRACK 18 AUDIO
    INDEX 00 00:00:00
    INDEX 01 00:02:00
FILE "EarthwormJim3D (Track 19).bin" BINARY
  TRACK 19 AUDIO
    INDEX 00 00:00:00
    INDEX 01 00:02:00
FILE "EarthwormJim3D (Track 20).bin" BINARY
  TRACK 20 AUDIO
    INDEX 00 00:00:00
    INDEX 01 00:02:00
FILE "EarthwormJim3D (Track 21).bin" BINARY
  TRACK 21 AUDIO
    INDEX 00 00:00:00
    INDEX 01 00:02:00
FILE "EarthwormJim3D (Track 22).bin" BINARY
  TRACK 22 AUDIO
    INDEX 00 00:00:00
    INDEX 01 00:02:00
FILE "EarthwormJim3D (Track 23).bin" BINARY
  TRACK 23 AUDIO
    INDEX 00 00:00:00
    INDEX 01 00:02:00
FILE "EarthwormJim3D (Track 24).bin" BINARY
  TRACK 24 AUDIO
    INDEX 00 00:00:00
    INDEX 01 00:02:00

    Write Offset: -12

Dumping Info:
    Frontend Version: 3.1.9-f97e293ad2e882943b373fa781ec977c31fc9e3a
    Dumping Program: Redumper v2024.05.06 build_325
    Date: 2024-05-22 18:55:26
    Manufacturer: PLEXTOR
    Model: DVDR PX-760A
    Firmware: 1.07 (08/18/07 15:10)
    Reported Disc Type: CD-ROM
    C2 Error Count: 0
E:\build\Mss16.dll: [Exception opening file, please try again]
E:\Ereg\EReg3201.dll: Executable-Based Online Registration 2.03.44
E:\Ereg\ERegUI32.dll: Executable-Based Online Registration 2.02.01C02

3

(0 replies, posted in Verifications)

Verification of http://redump.org/disc/82883/
Logs: http://robdangero.us/redump/DrakensangP … s_logs.zip
Pic: http://robdangero.us/redump/DrakensangP … is_pic.zip

Common Disc Info:
    Title: Das Schwarze Auge: Drakensang: Phileassons Geheimnis
    Disc Number / Letter: (OPTIONAL)
    Disc Title: (OPTIONAL)
    System: IBM PC compatible
    Media Type: DVD-ROM-5
    Category: Add-Ons
    Fully Matching ID: 82883
    Region: Germany
    Languages: SILENCE! (CHANGE THIS)
    Disc Serial: (REQUIRED, IF EXISTS)

    Ringcode Information:

Data Side Mastering Code (laser branded/etched): PORT PLEXUS GMBH    00095    52584 366    50    01 * 52584905
Data Side Mastering SID Code: IFPI LV26
Data Side Toolstamp or Mastering Code (engraved/stamped): (REQUIRED, IF EXISTS)
Data Side Mould SID Code: (REQUIRED, IF EXISTS)
Data Side Additional Mould: (REQUIRED, IF EXISTS)
Label Side Mould SID Code: (REQUIRED, IF EXISTS)

    Barcode: (OPTIONAL)
    Comments:

[T:VOL] DRAKENSANG_PHILEASSON
(OPTIONAL)

    Contents: (OPTIONAL)

Version and Editions:
    Version: (REQUIRED, IF EXISTS)
    Edition/Release: Original

Extras:
    Primary Volume Descriptor (PVD):

0320 : 20 20 20 20 20 20 20 20  20 20 20 20 20 32 30 31                201
0330 : 30 30 37 32 32 31 36 34  31 32 36 30 30 08 32 30   0072216412600.20
0340 : 31 30 30 37 32 32 31 36  34 31 32 36 30 30 08 30   10072216412600.0
0350 : 30 30 30 30 30 30 30 30  30 30 30 30 30 30 30 00   000000000000000.
0360 : 30 30 30 30 30 30 30 30  30 30 30 30 30 30 30 30   0000000000000000
0370 : 00 01 00 49 01 E8 03 00  00 00 00 00 00 00 00 00   ...I............

Copy Protection:
    Copy Protection: SecuROM 7.42.0001
    SubIntention Data (SecuROM/LibCrypt): 

Size & Checksum:
    Size: 2921529344
    CRC32: 8888321a
    MD5: fadbd723f838eb8d17094f8ea057597a
    SHA1: 65d7980ec5a4b4cb17e3b0d1ea6b00b4a8da64c9

Dumping Info:
    Frontend Version: 3.1.9-f97e293ad2e882943b373fa781ec977c31fc9e3a
    Dumping Program: Redumper v2024.05.06 build_325
    Date: 2024-05-22 09:37:21
    Manufacturer: HL-DT-ST
    Model: BD-RE WH16NS60
    Firmware: 1.03 (N000600M00LBCB4902)
    Reported Disc Type: DVD-ROM
D:\Data\! base\drakensanga1.exe: SecuROM 7.42.0001

4

(0 replies, posted in Verifications)

Verification of http://redump.org/disc/82882/
Logs: http://robdangero.us/redump/DrakensangA … t_logs.zip
Pic: http://robdangero.us/redump/DrakensangA … it_pic.zip

Common Disc Info:
    Title: Das Schwarze Auge: Drakensang: Am Fluss der Zeit
    Disc Number / Letter: (OPTIONAL)
    Disc Title: (OPTIONAL)
    System: IBM PC compatible
    Media Type: DVD-ROM-5
    Category: Games
    Fully Matching ID: 82882
    Region: Germany
    Languages: SILENCE! (CHANGE THIS)
    Disc Serial: (REQUIRED, IF EXISTS)

    Ringcode Information:

Data Side Mastering Code (laser branded/etched): Sony DADC    www.oh-datenservice.de    A0101484337-A511    16 
Data Side Mastering SID Code: IFPI L556
Data Side Toolstamp or Mastering Code (engraved/stamped): A02
Data Side Mould SID Code: IFPI 948U
Data Side Additional Mould: (REQUIRED, IF EXISTS)
Label Side Mould SID Code: (REQUIRED, IF EXISTS)

    Barcode: (OPTIONAL)
    Comments:

[T:VOL] DRAKENSANG
(OPTIONAL)

    Contents: (OPTIONAL)

Version and Editions:
    Version: (REQUIRED, IF EXISTS)
    Edition/Release: Original

Extras:
    Primary Volume Descriptor (PVD):

0320 : 20 20 20 20 20 20 20 20  20 20 20 20 20 32 30 30                200
0330 : 39 31 32 30 33 31 30 35  33 30 37 30 30 04 32 30   9120310530700.20
0340 : 30 39 31 32 30 33 31 30  35 33 30 37 30 30 04 30   09120310530700.0
0350 : 30 30 30 30 30 30 30 30  30 30 30 30 30 30 30 00   000000000000000.
0360 : 30 30 30 30 30 30 30 30  30 30 30 30 30 30 30 30   0000000000000000
0370 : 00 01 00 49 01 E8 03 00  00 00 00 00 00 00 00 00   ...I............

Copy Protection:
    Copy Protection: SecuROM 7.41.0004
    SubIntention Data (SecuROM/LibCrypt): 

Size & Checksum:
    Size: 3822387200
    CRC32: a9432b0f
    MD5: e225051a7b7b9df3d98e8133b3c9d22b
    SHA1: 51aaf8e8069d82c146a875394fc085c6182fbc35

Dumping Info:
    Frontend Version: 3.1.9-f97e293ad2e882943b373fa781ec977c31fc9e3a
    Dumping Program: Redumper v2024.05.06 build_325
    Date: 2024-05-22 09:28:56
    Manufacturer: HL-DT-ST
    Model: BD-RE WH16NS60
    Firmware: 1.03 (N000600M00LBCB4902)
    Reported Disc Type: DVD-ROM
D:\Data\! base\drakensang.exe: SecuROM 7.41.0004

5

(0 replies, posted in Verifications)

Verification of http://redump.org/disc/94311/
Logs: http://robdangero.us/redump/CSIFatalConspiracy_logs.zip

Common Disc Info:
    Title: CSI: Crime Scene Investigation: Fatal Conspiracy
    Disc Number / Letter: (OPTIONAL)
    Disc Title: (OPTIONAL)
    System: IBM PC compatible
    Media Type: DVD-ROM-5
    Category: Games
    Fully Matching ID: 94311
    Region: Europe
    Languages: SILENCE! (CHANGE THIS)
    Disc Serial: (REQUIRED, IF EXISTS)

    Ringcode Information:

Data Side Mastering Code (laser branded/etched): DVP90801    300034558R1/A    01    Technicolor
Data Side Mastering SID Code: IFPILR76
Data Side Toolstamp or Mastering Code (engraved/stamped): OMM
Data Side Mould SID Code: IFPI UG40
Data Side Additional Mould: (REQUIRED, IF EXISTS)
Label Side Mould SID Code: (REQUIRED, IF EXISTS)

    Barcode: (OPTIONAL)
    Comments:

[T:VOL] CSI: Fatal Conspiracy, CSI_FATAL_CONSPIRACY (ISO)
(OPTIONAL)

    Contents: (OPTIONAL)

Version and Editions:
    Version: (REQUIRED, IF EXISTS)
    Edition/Release: Original

Extras:
    Primary Volume Descriptor (PVD):

0320 : 20 20 20 20 20 20 20 20  20 20 20 20 20 32 30 31                201
0330 : 30 30 39 32 38 31 35 30  38 33 35 30 30 E4 32 30   0092815083500.20
0340 : 31 30 30 39 32 38 31 35  30 38 33 35 30 30 E4 30   10092815083500.0
0350 : 30 30 30 30 30 30 30 30  30 30 30 30 30 30 30 00   000000000000000.
0360 : 30 30 30 30 30 30 30 30  30 30 30 30 30 30 30 30   0000000000000000
0370 : 00 01 00 49 6D 67 42 75  72 6E 20 76 32 2E 35 2E   ...ImgBurn v2.5.

Copy Protection:
    Copy Protection: None found [OMIT FROM SUBMISSION]
    SubIntention Data (SecuROM/LibCrypt): 

Size & Checksum:
    Size: 2677735424
    CRC32: 6c4def53
    MD5: bb991fcf7d12793f03a3be26db795338
    SHA1: 85be4087e7c8fc48c146797cf204313d7022a95f

Dumping Info:
    Frontend Version: 3.1.8-96f826994adbbdb46ba3cb84a10bf6be38ab1a07
    Dumping Program: Redumper v2024.01.08 build_311
    Date: 2024-05-17 20:30:15
    Manufacturer: HL-DT-ST
    Model: BD-RE WH16NS60
    Firmware: 1.03 (N000600M00LBCB4902)
    Reported Disc Type: DVD-ROM

6

(0 replies, posted in Verifications)

Verification of http://redump.org/disc/85428/
Logs: http://robdangero.us/redump/ContractJackDisc2_logs.zip

Common Disc Info:
    Title: Contract J.A.C.K.
    Disc Number / Letter: 2
    Disc Title: (OPTIONAL)
    System: IBM PC compatible
    Media Type: CD-ROM
    Category: Games
    Fully Matching ID: 85428
    Region: Germany
    Languages: SILENCE! (CHANGE THIS)
    Disc Serial: (REQUIRED, IF EXISTS)

    Ringcode Information:

Data Side Mastering Code (laser branded/etched): 00095    51446 200    01 / 51448436
Data Side Mastering SID Code: IFPI L001
Data Side Toolstamp or Mastering Code (engraved/stamped): (REQUIRED, IF EXISTS)
Data Side Mould SID Code: (REQUIRED, IF EXISTS)
Data Side Additional Mould: MADE IN GERMANY BY UNIVERSAL M & L    B
Label Side Mould SID Code: (REQUIRED, IF EXISTS)

    Barcode: (OPTIONAL)
    Error Count: 0
    Comments:

[T:VOL] Nolf2xp_2, NOLF2XP_2 (ISO)
(OPTIONAL)

    Contents: (OPTIONAL)

Version and Editions:
    Version: (REQUIRED, IF EXISTS)
    Edition/Release: Original

Extras:
    Primary Volume Descriptor (PVD):

0320 : 20 20 20 20 20 20 20 20  20 20 20 20 20 32 30 30                200
0330 : 33 31 30 32 33 31 32 32  36 30 30 30 30 04 32 30   3102312260000.20
0340 : 30 33 31 30 32 33 31 32  32 36 30 30 30 30 04 30   03102312260000.0
0350 : 30 30 30 30 30 30 30 30  30 30 30 30 30 30 30 00   000000000000000.
0360 : 30 30 30 30 30 30 30 30  30 30 30 30 30 30 30 30   0000000000000000
0370 : 00 01 00 00 00 00 00 00  00 00 00 00 00 00 00 00   ................

Copy Protection:
    Copy Protection: None found [OMIT FROM SUBMISSION]
    SubIntention Data (SecuROM/LibCrypt): 

Tracks and Write Offsets:
    DAT:

<rom name="ContractJackDisc2.bin" size="366627408" crc="a00262ba" md5="b4150714043f165647978836ac9ab34f" sha1="e242453def6f8dc6d1d18a940c60ab54803ca993" />

    Cuesheet:

FILE "ContractJackDisc2.bin" BINARY
  TRACK 01 MODE1/2352
    INDEX 01 00:00:00

    Write Offset: -12

Dumping Info:
    Frontend Version: 3.1.5-771483ac146302cf6634037db23cd336b0d1c97a
    Dumping Program: Redumper v2024.01.08 build_311
    Date: 2024-04-15 19:24:11
    Manufacturer: PLEXTOR
    Model: DVDR PX-760A
    Firmware: 1.07 (08/18/07 15:10)
    Reported Disc Type: CD-ROM
    C2 Error Count: 0

7

(0 replies, posted in Verifications)

Verification of http://redump.org/disc/85426/
Logs: http://robdangero.us/redump/ContractJackDisc1_logs.zip

Common Disc Info:
    Title: Contract J.A.C.K.
    Disc Number / Letter: 1
    Disc Title: (OPTIONAL)
    System: IBM PC compatible
    Media Type: CD-ROM
    Category: Games
    Fully Matching ID: 85426
    Region: Germany
    Languages: SILENCE! (CHANGE THIS)
    Disc Serial: (REQUIRED, IF EXISTS)

    Ringcode Information:

Data Side Mastering Code (laser branded/etched): 00095    51446 197    01 / 51448434
Data Side Mastering SID Code: IFPI L001
Data Side Toolstamp or Mastering Code (engraved/stamped): (REQUIRED, IF EXISTS)
Data Side Mould SID Code: IFPI 0141
Data Side Additional Mould: MADE IN GERMANY BY UNIVERSAL M & L    >B
Label Side Mould SID Code: (REQUIRED, IF EXISTS)

    Barcode: (OPTIONAL)
    Error Count: 0
    Comments:

[T:VOL] Nolf2xp_1, NOLF2XP_1 (ISO)
(OPTIONAL)

    Contents: (OPTIONAL)

Version and Editions:
    Version: (REQUIRED, IF EXISTS)
    Edition/Release: Original

Extras:
    Primary Volume Descriptor (PVD):

0320 : 20 20 20 20 20 20 20 20  20 20 20 20 20 32 30 30                200
0330 : 33 31 30 32 33 31 32 31  39 30 30 30 30 04 32 30   3102312190000.20
0340 : 30 33 31 30 32 33 31 32  31 39 30 30 30 30 04 30   03102312190000.0
0350 : 30 30 30 30 30 30 30 30  30 30 30 30 30 30 30 00   000000000000000.
0360 : 30 30 30 30 30 30 30 30  30 30 30 30 30 30 30 30   0000000000000000
0370 : 00 01 00 00 00 00 00 00  00 00 00 00 00 00 00 00   ................

Copy Protection:
    Copy Protection: None found [OMIT FROM SUBMISSION]
    SubIntention Data (SecuROM/LibCrypt):

MSF: 00:01:74 Q-Data: 410100 00:40:01 00 00:03:74 2EF1
MSF: 01:08:50 Q-Data: 410101 21:06:50 00 05:08:50 0A8F
MSF: 01:17:47 Q-Data: 410101 01:15:67 00 01:17:43 CCFE
MSF: 01:33:32 Q-Data: 410101 01:35:32 00 01:13:32 2596
MSF: 01:59:41 Q-Data: 410101 00:57:41 00 81:59:41 AE2E
MSF: 02:03:04 Q-Data: 410101 02:09:04 00 02:13:04 19A3
MSF: 02:13:67 Q-Data: 410101 02:11:47 00 02:13:63 AB9F
MSF: 02:24:18 Q-Data: 410101 22:22:18 00 06:24:18 21F6
MSF: 02:26:18 Q-Data: 410101 02:24:08 00 02:26:10 CA75
MSF: 03:04:59 Q-Data: 410101 03:02:58 00 03:04:D9 7E95
MSF: 03:45:25 Q-Data: 410101 03:43:27 00 03:45:65 466E

Tracks and Write Offsets:
    DAT:

<rom name="ContractJackDisc1.bin" size="783406512" crc="e0dc83e6" md5="c8ac9be861a43f62aa817612fc24cf3d" sha1="fd48c6d5f4095cdc330fde4e4051658917051a44" />

    Cuesheet:

FILE "ContractJackDisc1.bin" BINARY
  TRACK 01 MODE1/2352
    INDEX 01 00:00:00

    Write Offset: -12

Dumping Info:
    Frontend Version: 3.1.5-771483ac146302cf6634037db23cd336b0d1c97a
    Dumping Program: Redumper v2024.01.08 build_311
    Date: 2024-04-15 19:15:46
    Manufacturer: PLEXTOR
    Model: DVDR PX-760A
    Firmware: 1.07 (08/18/07 15:10)
    Reported Disc Type: CD-ROM
    C2 Error Count: 0

8

(0 replies, posted in Verifications)

Verification of http://redump.org/disc/112627/
Logs: http://robdangero.us/redump/CleverUndSm … 1_logs.zip

Common Disc Info:
    Title: Clever & Smart: A Movie Adventure
    Disc Number / Letter: 1
    Disc Title: (OPTIONAL)
    System: IBM PC compatible
    Media Type: CD-ROM
    Category: Games
    Fully Matching ID: 112627
    Region: Germany
    Languages: SILENCE! (CHANGE THIS)
    Disc Serial: (REQUIRED, IF EXISTS)

    Ringcode Information:

Data Side Mastering Code (laser branded/etched): FPG0002/CD1
Data Side Mastering SID Code: IFPI LL21
Data Side Toolstamp or Mastering Code (engraved/stamped): (REQUIRED, IF EXISTS)
Data Side Mould SID Code: IFPI 06B3
Data Side Additional Mould: (REQUIRED, IF EXISTS)
Label Side Mould SID Code: (REQUIRED, IF EXISTS)

    Barcode: (OPTIONAL)
    Error Count: 0
    Comments:

[T:VOL] CUS1
(OPTIONAL)

    Contents: (OPTIONAL)

Version and Editions:
    Version: (REQUIRED, IF EXISTS)
    Edition/Release: Original

Extras:
    Primary Volume Descriptor (PVD):

0320 : 20 20 20 20 20 20 20 20  20 20 20 20 20 32 30 30                200
0330 : 34 31 30 32 36 31 35 35  34 30 30 30 30 08 32 30   4102615540000.20
0340 : 30 34 31 30 32 36 31 35  35 34 30 30 30 30 08 30   04102615540000.0
0350 : 30 30 30 30 30 30 30 30  30 30 30 30 30 30 30 00   000000000000000.
0360 : 30 30 30 30 30 30 30 30  30 30 30 30 30 30 30 30   0000000000000000
0370 : 00 01 00 00 00 00 00 00  00 00 00 00 00 00 00 00   ................

Copy Protection:
    Copy Protection: None found [OMIT FROM SUBMISSION]
    SubIntention Data (SecuROM/LibCrypt): 

Tracks and Write Offsets:
    DAT:

<rom name="CleverUndSmartDisc1.bin" size="835385712" crc="73540190" md5="d4aff2115950620f136834358a994d01" sha1="8742b9ff79b1819e65d55870c339cd49452821f6" />

    Cuesheet:

FILE "CleverUndSmartDisc1.bin" BINARY
  TRACK 01 MODE1/2352
    INDEX 01 00:00:00

    Write Offset: -12

Dumping Info:
    Frontend Version: 3.1.5-771483ac146302cf6634037db23cd336b0d1c97a
    Dumping Program: Redumper v2024.01.08 build_311
    Date: 2024-04-15 15:23:33
    Manufacturer: PLEXTOR
    Model: DVDR PX-760A
    Firmware: 1.07 (08/18/07 15:10)
    Reported Disc Type: CD-ROM
    C2 Error Count: 0

9

(0 replies, posted in Verifications)

Verification of http://redump.org/disc/13085/
Logs: http://robdangero.us/redump/Civilization4_logs.zip

Common Disc Info:
    Title: Sid Meier's Civilization IV: Complete
    Disc Number / Letter: (OPTIONAL)
    Disc Title: (OPTIONAL)
    System: IBM PC compatible
    Media Type: DVD-ROM-5
    Category: Games
    Fully Matching ID: 13085
    Region: Europe
    Languages: SILENCE! (CHANGE THIS)
    Disc Serial: (REQUIRED, IF EXISTS)

    Ringcode Information:

Data Side Mastering Code (laser branded/etched): Sony DADC    5052955DVD 01
Data Side Mastering SID Code: (REQUIRED, IF EXISTS)
Data Side Toolstamp or Mastering Code (engraved/stamped): (REQUIRED, IF EXISTS)
Data Side Mould SID Code: IFPI AEW07
Data Side Additional Mould: (REQUIRED, IF EXISTS)
Label Side Mould SID Code: (REQUIRED, IF EXISTS)

    Barcode: (OPTIONAL)
    Comments:

[T:VOL] CIVCOMPLETEEU
(OPTIONAL)

    Contents: (OPTIONAL)

Version and Editions:
    Version: (REQUIRED, IF EXISTS)
    Edition/Release: Original

Extras:
    Primary Volume Descriptor (PVD):

0320 : 20 20 20 20 20 20 20 20  20 20 20 20 20 32 30 30                200
0330 : 37 30 39 32 31 31 37 34  32 34 33 30 30 F0 32 30   7092117424300.20
0340 : 30 37 30 39 32 31 31 37  34 32 34 33 30 30 F0 31   07092117424300.1
0350 : 39 38 33 30 39 32 31 31  37 34 32 34 33 30 30 F0   983092117424300.
0360 : 32 30 30 37 30 39 32 31  31 37 34 32 34 33 30 30   2007092117424300
0370 : F0 01 00 00 00 00 00 00  00 00 00 00 00 00 00 00   ................

Copy Protection:
    Copy Protection: SafeDisc 1.06.000+, SafeDisc 3+ (DVD), SafeDisc 4.00.002+
    SubIntention Data (SecuROM/LibCrypt): 

Size & Checksum:
    Size: 2544402432
    CRC32: 39566f47
    MD5: b7dbca0b0f3a1df3f5db82370092d66b
    SHA1: 2382e25098fa7147a11f8b444399711055597f60

Dumping Info:
    Frontend Version: 3.1.5-771483ac146302cf6634037db23cd336b0d1c97a
    Dumping Program: Redumper v2024.01.08 build_311
    Date: 2024-04-15 15:04:26
    Manufacturer: HL-DT-ST
    Model: BD-RE WH16NS60
    Firmware: 1.03 (N000600M00LBCB4902)
    Reported Disc Type: DVD-ROM
D:\: Macrovision Security Driver 4.00.060 / SafeDisc 4.00.000-4.70.000, SafeDisc 1.06.000+, SafeDisc 2+, SafeDisc 3+ (DVD), SafeDisc 4.00.002+
D:\00000001.TMP: SafeDisc 3+ (DVD)
D:\00000002.TMP: SafeDisc 2+
D:\DIAG.EXE: Macrovision Protected Application, SafeDisc 4.60.000, SafeDisc SRV Tool APP 4.60.0.1702 / SafeDisc 4.60.000
D:\DrvMgt.dll: SafeDisc 4.00.002+
D:\SECDRV.SYS: Macrovision Security Driver 4.00.060 / SafeDisc 4.00.000-4.70.000, Macrovision Security Driver 4.00.060 / SafeDisc 4.00.000-4.70.000

10

(0 replies, posted in Verifications)

Verification of http://redump.org/disc/112730/
Logs: http://robdangero.us/redump/Geograficus_logs.zip
Pic: http://robdangero.us/redump/Geograficus_pic.zip

Another "A" missing.

Common Disc Info:
    Title: Geograficus
    Disc Number / Letter: (OPTIONAL)
    Disc Title: (OPTIONAL)
    System: IBM PC compatible
    Media Type: CD-ROM
    Category: Games
    Fully Matching ID: 112730
    Region: Germany
    Languages: German
    Disc Serial: (REQUIRED, IF EXISTS)

    Ringcode Information:

Data Side Mastering Code (laser branded/etched): OH! DATENSERVICE GMBH    WWW.OH-DATENSERVICE.DE    A    00095    51883 699    01 * 51883926
Data Side Mastering SID Code: IFPI LV2
Data Side Toolstamp or Mastering Code (engraved/stamped): (REQUIRED, IF EXISTS)
Data Side Mould SID Code: IFPI 0127
Data Side Additional Mould: (REQUIRED, IF EXISTS)
Label Side Mould SID Code: (REQUIRED, IF EXISTS)

    Barcode: (OPTIONAL)
    Error Count: 0
    Comments:

[T:VOL] Geograficus CD, GEOGRAFICUS_CD (ISO)
(OPTIONAL)

    Contents: (OPTIONAL)

Version and Editions:
    Version: (REQUIRED, IF EXISTS)
    Edition/Release: Heureka Classics Sammelbox

Extras:
    Primary Volume Descriptor (PVD):

0320 : 20 20 20 20 20 20 20 20  20 20 20 20 20 32 30 30                200
0330 : 37 30 34 31 30 31 31 35  32 35 30 30 30 00 32 30   7041011525000.20
0340 : 30 37 30 34 31 30 31 31  35 35 32 35 30 30 00 00   07041011552500..
0350 : 00 00 00 00 00 00 00 00  00 00 00 00 00 00 00 00   ................
0360 : 00 00 00 00 00 00 00 00  00 00 00 00 00 00 00 00   ................
0370 : 00 01 00 00 00 00 00 00  00 00 00 00 00 00 00 00   ................

Copy Protection:
    Copy Protection: None found [OMIT FROM SUBMISSION]
    SubIntention Data (SecuROM/LibCrypt): 

Tracks and Write Offsets:
    DAT:

<rom name="Geograficus.bin" size="803673696" crc="2aa8bab2" md5="bf75b65bb705b0d0723f55091d7ef82c" sha1="3c3069107a46026f0e2386876c2e8c972f8e9abf" />

    Cuesheet:

FILE "Geograficus.bin" BINARY
  TRACK 01 MODE1/2352
    INDEX 01 00:00:00

    Write Offset: -12

Dumping Info:
    Dumping Program: Redumper v2024.01.08 build_311
    Date: 2024-03-15 16:49:20
    Manufacturer: PLEXTOR
    Model: DVDR PX-760A
    Firmware: 1.07 (08/18/07 15:10)
    Reported Disc Type: CD-ROM

11

(0 replies, posted in Verifications)

Verification of http://redump.org/disc/112732/
Logs: http://robdangero.us/redump/Physikus_logs.zip
Pic: http://robdangero.us/redump/Physikus_pic.zip

Was missing a "B".

Common Disc Info:
    Title: Physikus
    Disc Number / Letter: (OPTIONAL)
    Disc Title: (OPTIONAL)
    System: IBM PC compatible
    Media Type: CD-ROM
    Category: Games
    Fully Matching ID: 112732
    Region: Germany
    Languages: German
    Disc Serial: (REQUIRED, IF EXISTS)

    Ringcode Information:

Data Side Mastering Code (laser branded/etched): OH! DATENSERVICE GMBH    WWW.OH-DATENSERVICE.DE    B    00095    51883 688    01 * 51883922
Data Side Mastering SID Code: IFPI LV26
Data Side Toolstamp or Mastering Code (engraved/stamped): (REQUIRED, IF EXISTS)
Data Side Mould SID Code: IFPI 0115
Data Side Additional Mould: (REQUIRED, IF EXISTS)
Label Side Mould SID Code: (REQUIRED, IF EXISTS)

    Barcode: (OPTIONAL)
    Error Count: 0
    Comments:

[T:VOL] Physikus CD, PHYSIKUS_CD (ISO)
(OPTIONAL)

    Contents: (OPTIONAL)

Version and Editions:
    Version: (REQUIRED, IF EXISTS)
    Edition/Release: Heureka Classics Sammelbox

Extras:
    Primary Volume Descriptor (PVD):

0320 : 20 20 20 20 20 20 20 20  20 20 20 20 20 32 30 30                200
0330 : 37 30 34 30 39 31 37 32  31 35 39 30 30 00 32 30   7040917215900.20
0340 : 30 37 30 34 30 39 31 37  32 32 33 31 30 30 00 00   07040917223100..
0350 : 00 00 00 00 00 00 00 00  00 00 00 00 00 00 00 00   ................
0360 : 00 00 00 00 00 00 00 00  00 00 00 00 00 00 00 00   ................
0370 : 00 01 00 00 00 00 00 00  00 00 00 00 00 00 00 00   ................

Copy Protection:
    Copy Protection: None found [OMIT FROM SUBMISSION]
    SubIntention Data (SecuROM/LibCrypt): 

Tracks and Write Offsets:
    DAT:

<rom name="Physikus.bin" size="802667040" crc="efbebff1" md5="81451ee8928006c360e0f96ed1c18a29" sha1="ef1f1ccde8e592fdf3bf7eeb9e6756ef11a7a64e" />

    Cuesheet:

FILE "Physikus.bin" BINARY
  TRACK 01 MODE1/2352
    INDEX 01 00:00:00

    Write Offset: -12

Dumping Info:
    Dumping Program: Redumper v2024.01.08 build_311
    Date: 2024-03-15 16:32:52
    Manufacturer: PLEXTOR
    Model: DVDR PX-760A
    Firmware: 1.07 (08/18/07 15:10)
    Reported Disc Type: CD-ROM

12

(0 replies, posted in Verifications)

Verification of http://redump.org/disc/112729/
Logs: http://robdangero.us/redump/MathicaDisc1_logs.zip
Pic: http://robdangero.us/redump/MathicaDisc1_pic.zip

Looks like an "A" was missed previously but I can't find a mould sid.

Common Disc Info:
    Title: Mathica
    Disc Number / Letter: 1
    Disc Title: (OPTIONAL)
    System: IBM PC compatible
    Media Type: CD-ROM
    Category: Games
    Fully Matching ID: 112729
    Region: Germany
    Languages: German
    Disc Serial: (REQUIRED, IF EXISTS)

    Ringcode Information:

Data Side Mastering Code (laser branded/etched): OH! DATENSERVICE GMBH    WWW.OH-DATENSERVICE.DE    A    00095    51883 790    01 * 51883924
Data Side Mastering SID Code: IFPI LV26
Data Side Toolstamp or Mastering Code (engraved/stamped): (REQUIRED, IF EXISTS)
Data Side Mould SID Code: (REQUIRED, IF EXISTS)
Data Side Additional Mould: (REQUIRED, IF EXISTS)
Label Side Mould SID Code: (REQUIRED, IF EXISTS)

    Barcode: (OPTIONAL)
    Error Count: 0
    Comments:

[T:VOL] Mathica I, MATHICA_I (ISO)
(OPTIONAL)

    Contents: (OPTIONAL)

Version and Editions:
    Version: (REQUIRED, IF EXISTS)
    Edition/Release: Heureka Classics Sammelbox

Extras:
    Primary Volume Descriptor (PVD):

0320 : 20 20 20 20 20 20 20 20  20 20 20 20 20 32 30 30                200
0330 : 37 30 34 31 30 31 33 35  33 30 39 30 30 00 32 30   7041013530900.20
0340 : 30 37 30 34 31 30 31 33  35 33 33 32 30 30 00 00   07041013533200..
0350 : 00 00 00 00 00 00 00 00  00 00 00 00 00 00 00 00   ................
0360 : 00 00 00 00 00 00 00 00  00 00 00 00 00 00 00 00   ................
0370 : 00 01 00 00 00 00 00 00  00 00 00 00 00 00 00 00   ................

Copy Protection:
    Copy Protection: None found [OMIT FROM SUBMISSION]
    SubIntention Data (SecuROM/LibCrypt): 

Tracks and Write Offsets:
    DAT:

<rom name="MathicaDisc1.bin" size="180835872" crc="b38bb1c4" md5="bb1aa2bd5a7d25eb5900b39e376ba9d0" sha1="64adc1d344759e0d3e7bfa484fdf30fe38f25244" />

    Cuesheet:

FILE "MathicaDisc1.bin" BINARY
  TRACK 01 MODE1/2352
    INDEX 01 00:00:00

    Write Offset: -12

Dumping Info:
    Dumping Program: Redumper v2024.01.08 build_311
    Date: 2024-03-15 15:49:35
    Manufacturer: PLEXTOR
    Model: DVDR PX-760A
    Firmware: 1.07 (08/18/07 15:10)
    Reported Disc Type: CD-ROM

13

(2 replies, posted in Verifications)

ifpi actually. And in a fancy font.

14

(0 replies, posted in Verifications)

Verification of http://redump.org/disc/40528/
Logs: http://robdangero.us/redump/ArenaWars_logs.zip

Common Disc Info:
    Title: Arena Wars
    Disc Number / Letter: (OPTIONAL)
    Disc Title: (OPTIONAL)
    System: IBM PC compatible
    Media Type: CD-ROM
    Category: Games
    Fully Matching ID: 40528
    Region: Germany
    Languages: German
    Disc Serial: (REQUIRED, IF EXISTS)

    Ringcode Information:

Data Side Mastering Code (laser branded/etched): sono press 51182064/ARENAWARS 21
Data Side Mastering SID Code: IFPI LP 73
Data Side Toolstamp or Mastering Code (engraved/stamped): (REQUIRED, IF EXISTS)
Data Side Mould SID Code: IFPI 0747
Data Side Additional Mould: (REQUIRED, IF EXISTS)
Label Side Mould SID Code: (REQUIRED, IF EXISTS)

    Barcode: (OPTIONAL)
    Error Count: 0
    Comments:

[T:VOL] AW_1_0
(OPTIONAL)

    Contents: (OPTIONAL)

Version and Editions:
    Version: (REQUIRED, IF EXISTS)
    Edition/Release: Original

Extras:
    Primary Volume Descriptor (PVD):

0320 : 20 20 20 20 20 20 20 20  20 20 20 20 20 32 30 30                200
0330 : 34 30 37 30 33 31 38 30  33 35 33 38 37 08 32 30   4070318035387.20
0340 : 30 34 30 37 30 33 31 38  30 34 35 32 32 32 88 00   04070318045222..
0350 : 00 00 00 00 00 00 00 00  00 00 00 00 00 00 00 00   ................
0360 : 00 00 00 00 00 00 00 00  00 00 00 00 00 00 00 00   ................
0370 : 00 01 00 00 00 00 00 00  00 00 00 00 00 00 00 00   ................

Copy Protection:
    Copy Protection: None found [OMIT FROM SUBMISSION]
    SubIntention Data (SecuROM/LibCrypt): 

Tracks and Write Offsets:
    DAT:

<rom name="ArenaWars.bin" size="802039056" crc="89202fa2" md5="299babaa64a24586ed4b76d535fe19a1" sha1="6f24fa97d0a9dcdb6f10a30d6b9f8346bf63be1d" />

    Cuesheet:

FILE "ArenaWars.bin" BINARY
  TRACK 01 MODE1/2352
    INDEX 01 00:00:00

    Write Offset: 0

Dumping Info:
    Dumping Program: Redumper v2024.01.08 build_311
    Date: 2024-03-11 15:20:40
    Manufacturer: PLEXTOR
    Model: DVDR PX-760A
    Firmware: 1.07 (08/18/07 15:10)
    Reported Disc Type: CD-ROM

15

(0 replies, posted in Verifications)

Verification of http://redump.org/disc/84617/
Logs: http://robdangero.us/redump/Anno1503Disc2_logs.zip

Common Disc Info:
    Title: Anno 1503: Königsedition
    Disc Number / Letter: 2
    Disc Title: (OPTIONAL)
    System: IBM PC compatible
    Media Type: CD-ROM
    Category: Games
    Fully Matching ID: 84617
    Region: Germany
    Languages: German
    Disc Serial: (REQUIRED, IF EXISTS)

    Ringcode Information:

Data Side Mastering Code (laser branded/etched): sonopress arvato    51261905/ANNO1503KE-2 21
Data Side Mastering SID Code: (REQUIRED, IF EXISTS)
Data Side Toolstamp or Mastering Code (engraved/stamped): (REQUIRED, IF EXISTS)
Data Side Mould SID Code: IFPI 0749
Data Side Additional Mould: (REQUIRED, IF EXISTS)
Label Side Mould SID Code: (REQUIRED, IF EXISTS)

    Barcode: (OPTIONAL)
    Error Count: 0
    Comments:

[T:VOL] 1503_CD2
(OPTIONAL)

    Contents: (OPTIONAL)

Version and Editions:
    Version: (REQUIRED, IF EXISTS)
    Edition/Release: Original

Extras:
    Primary Volume Descriptor (PVD):

0320 : 20 20 20 20 20 20 20 20  20 20 20 20 20 32 30 30                200
0330 : 34 30 39 32 34 31 31 34  31 31 33 33 31 08 32 30   4092411411331.20
0340 : 30 34 30 39 32 34 31 32  31 30 33 37 32 35 88 00   04092412103725..
0350 : 00 00 00 00 00 00 00 00  00 00 00 00 00 00 00 00   ................
0360 : 00 00 00 00 00 00 00 00  00 00 00 00 00 00 00 00   ................
0370 : 00 01 00 00 00 00 00 00  00 00 00 00 00 00 00 00   ................

Copy Protection:
    Copy Protection: SecuROM 5.02.00.0003
    SubIntention Data (SecuROM/LibCrypt):

MSF: 00:01:74 Q-Data: 410100 00:40:01 00 00:03:74 2EF1
MSF: 01:08:50 Q-Data: 410101 21:06:50 00 05:08:50 0A8F
MSF: 01:40:08 Q-Data: 410101 09:38:08 00 11:40:08 ED27
MSF: 02:01:44 Q-Data: 410101 21:59:44 00 06:01:44 8339
MSF: 02:18:20 Q-Data: 410101 00:16:20 00 42:18:20 F1BB
MSF: 02:31:43 Q-Data: 410101 12:29:43 00 0A:31:43 0C81
MSF: 02:46:00 Q-Data: 410101 02:45:00 00 02:C6:00 0B09
MSF: 02:49:11 Q-Data: 410101 02:07:11 00 02:4B:11 79CC
MSF: 02:59:33 Q-Data: 410101 02:56:33 00 02:D9:33 282C
MSF: 03:17:31 Q-Data: 410101 43:15:31 00 01:17:31 0C2F
MSF: 03:23:70 Q-Data: 410101 03:31:70 00 03:2B:70 0F8F

Tracks and Write Offsets:
    DAT:

<rom name="1503_CD2.bin" size="829418688" crc="8deae826" md5="cfae30189aedfde0441218d1d7788a47" sha1="22d9253391469d6b3fb58bc73775c461b986ab5a" />

    Cuesheet:

FILE "1503_CD2.bin" BINARY
  TRACK 01 MODE1/2352
    INDEX 01 00:00:00

    Write Offset: -12

Dumping Info:
    Dumping Program: Redumper v2024.01.08 build_311
    Date: 2024-03-10 17:13:49
    Manufacturer: PLEXTOR
    Model: DVDR PX-760A
    Firmware: 1.07 (08/18/07 15:10)
    Reported Disc Type: CD-ROM
E:\Bin\ANNO.exe: SecuROM 5.02.00.0003

16

(0 replies, posted in Verifications)

Verification of http://redump.org/disc/84616/
Logs: http://robdangero.us/redump/Anno1503Disc1_logs.zip

Common Disc Info:
    Title: Anno 1503: Königsedition
    Disc Number / Letter: 1
    Disc Title: (OPTIONAL)
    System: IBM PC compatible
    Media Type: CD-ROM
    Category: Games
    Fully Matching ID: 84616
    Region: Germany
    Languages: German
    Disc Serial: (REQUIRED, IF EXISTS)

    Ringcode Information:

Data Side Mastering Code (laser branded/etched): sonopress arvato    51261900/ANNO1503KE-1 21
Data Side Mastering SID Code: IFPI LB 45
Data Side Toolstamp or Mastering Code (engraved/stamped): (REQUIRED, IF EXISTS)
Data Side Mould SID Code: IFPI 0744
Data Side Additional Mould: (REQUIRED, IF EXISTS)
Label Side Mould SID Code: (REQUIRED, IF EXISTS)

    Barcode: (OPTIONAL)
    Error Count: 0
    Comments:

[T:VOL] 1503_CD1
(OPTIONAL)

    Contents: (OPTIONAL)

Version and Editions:
    Version: (REQUIRED, IF EXISTS)
    Edition/Release: Original

Extras:
    Primary Volume Descriptor (PVD):

0320 : 20 20 20 20 20 20 20 20  20 20 20 20 20 32 30 30                200
0330 : 34 30 39 32 34 31 31 34  31 31 33 33 31 08 32 30   4092411411331.20
0340 : 30 34 30 39 32 34 31 31  34 32 30 35 36 30 88 00   04092411420560..
0350 : 00 00 00 00 00 00 00 00  00 00 00 00 00 00 00 00   ................
0360 : 00 00 00 00 00 00 00 00  00 00 00 00 00 00 00 00   ................
0370 : 00 01 00 00 00 00 00 00  00 00 00 00 00 00 00 00   ................

Copy Protection:
    Copy Protection: None found [OMIT FROM SUBMISSION]
    SubIntention Data (SecuROM/LibCrypt): 

Tracks and Write Offsets:
    DAT:

<rom name="Anno1503Disc1.bin" size="827598240" crc="58e6a7bd" md5="a76e44ec354f2128ffa3b813d5429b5f" sha1="a3d48ff4b0aaede264a8c6ad4df1ff79168e7b00" />

    Cuesheet:

FILE "Anno1503Disc1.bin" BINARY
  TRACK 01 MODE1/2352
    INDEX 01 00:00:00

    Write Offset: -12

Dumping Info:
    Dumping Program: Redumper v2024.01.08 build_311
    Date: 2024-03-10 16:58:23
    Manufacturer: PLEXTOR
    Model: DVDR PX-760A
    Firmware: 1.07 (08/18/07 15:10)
    Reported Disc Type: CD-ROM

17

(0 replies, posted in Verifications)

Verification of http://redump.org/disc/49310/
Logs: http://robdangero.us/redump/Ankh3_logs.zip

Common Disc Info:
    Title: Ankh 3: Kampf der Götter
    Disc Number / Letter: (OPTIONAL)
    Disc Title: (OPTIONAL)
    System: IBM PC compatible
    Media Type: CD-ROM
    Category: Games
    Fully Matching ID: 49310
    Region: Germany
    Languages: German
    Disc Serial: (REQUIRED, IF EXISTS)

    Ringcode Information:

Data Side Mastering Code (laser branded/etched): 6150    A713900-01    manufactured by optimal media production 
Data Side Mastering SID Code: IFPI L572
Data Side Toolstamp or Mastering Code (engraved/stamped): (REQUIRED, IF EXISTS)
Data Side Mould SID Code: IFPI 9710
Data Side Additional Mould: (REQUIRED, IF EXISTS)
Label Side Mould SID Code: (REQUIRED, IF EXISTS)

    Barcode: (OPTIONAL)
    Error Count: 0
    Comments:

[T:VOL] Ankh3, ANKH3 (ISO)
(OPTIONAL)

    Contents: (OPTIONAL)

Version and Editions:
    Version: (REQUIRED, IF EXISTS)
    Edition/Release: Original

Extras:
    Primary Volume Descriptor (PVD):

0320 : 20 20 20 20 20 20 20 20  20 20 20 20 20 32 30 30                200
0330 : 37 31 31 30 35 30 32 34  32 30 30 30 30 04 32 30   7110502420000.20
0340 : 30 37 31 31 30 35 30 32  34 32 30 30 30 30 04 30   07110502420000.0
0350 : 30 30 30 30 30 30 30 30  30 30 30 30 30 30 30 00   000000000000000.
0360 : 30 30 30 30 30 30 30 30  30 30 30 30 30 30 30 30   0000000000000000
0370 : 00 01 00 00 00 00 00 00  00 00 00 00 00 00 00 00   ................

Copy Protection:
    Copy Protection: None found [OMIT FROM SUBMISSION]
    SubIntention Data (SecuROM/LibCrypt): 

Tracks and Write Offsets:
    DAT:

<rom name="Ankh3.bin" size="819201600" crc="42e44f07" md5="437680b9b649ec9bcc36956102d866d5" sha1="b0c4c064e08f9fbdb31cd49ab3b699bd0a6baf72" />

    Cuesheet:

FILE "Ankh3.bin" BINARY
  TRACK 01 MODE1/2352
    INDEX 01 00:00:00

    Write Offset: -6

Dumping Info:
    Dumping Program: Redumper v2024.01.08 build_311
    Date: 2024-03-10 16:25:13
    Manufacturer: PLEXTOR
    Model: DVDR PX-760A
    Firmware: 1.07 (08/18/07 15:10)
    Reported Disc Type: CD-ROM

18

(2 replies, posted in Verifications)

Verification of http://redump.org/disc/104440/
Logs: http://robdangero.us/redump/Ankh2_logs.zip

Common Disc Info:
    Title: Ankh: Herz des Osiris
    Disc Number / Letter: (OPTIONAL)
    Disc Title: (OPTIONAL)
    System: IBM PC compatible
    Media Type: CD-ROM
    Category: Games
    Fully Matching ID: 104440
    Region: Germany
    Languages: German
    Disc Serial: (REQUIRED, IF EXISTS)

    Ringcode Information:

Data Side Mastering Code (laser branded/etched): 6100    A668741-01    manufactured by optimal media production
Data Side Mastering SID Code: IFPI L572
Data Side Toolstamp or Mastering Code (engraved/stamped): (REQUIRED, IF EXISTS)
Data Side Mould SID Code: IFPI 9727
Data Side Additional Mould: (REQUIRED, IF EXISTS)
Label Side Mould SID Code: (REQUIRED, IF EXISTS)

    Barcode: (OPTIONAL)
    Error Count: 0
    Comments:

[T:VOL] AnkhHdO, ANKHHDO (ISO)
(OPTIONAL)

    Contents: (OPTIONAL)

Version and Editions:
    Version: (REQUIRED, IF EXISTS)
    Edition/Release: Original

Extras:
    Primary Volume Descriptor (PVD):

0320 : 20 20 20 20 20 20 20 20  20 20 20 20 20 32 30 30                200
0330 : 36 31 30 30 35 31 33 32  33 30 30 30 30 08 32 30   6100513230000.20
0340 : 30 36 31 30 30 35 31 33  32 33 30 30 30 30 08 30   06100513230000.0
0350 : 30 30 30 30 30 30 30 30  30 30 30 30 30 30 30 00   000000000000000.
0360 : 30 30 30 30 30 30 30 30  30 30 30 30 30 30 30 30   0000000000000000
0370 : 00 01 00 00 00 00 00 00  00 00 00 00 00 00 00 00   ................

Copy Protection:
    Copy Protection: None found [OMIT FROM SUBMISSION]
    SubIntention Data (SecuROM/LibCrypt): 

Tracks and Write Offsets:
    DAT:

<rom name="Ankh2.bin" size="550633776" crc="55bbad4b" md5="4b1a7aa0e9c2cdc75aa4771f9960b08b" sha1="44b5833603161842ffe4774a1e663b6415dff8f3" />

    Cuesheet:

FILE "Ankh2.bin" BINARY
  TRACK 01 MODE1/2352
    INDEX 01 00:00:00

    Write Offset: -6

Dumping Info:
    Dumping Program: Redumper v2024.01.08 build_311
    Date: 2024-03-10 16:10:23
    Manufacturer: PLEXTOR
    Model: DVDR PX-760A
    Firmware: 1.07 (08/18/07 15:10)
    Reported Disc Type: CD-ROM

19

(0 replies, posted in Verifications)

Verification of http://redump.org/disc/49797/
Logs: http://robdangero.us/redump/AgrarSimulator2011_logs.zip
Pics: http://robdangero.us/redump/AgrarSimulator2011_logs.zip

Common Disc Info:
    Title: Agrar Simulator 2011
    Foreign Title (Non-latin): (OPTIONAL)
    Disc Number / Letter: (OPTIONAL)
    Disc Title: (OPTIONAL)
    System: IBM PC compatible
    Media Type: CD-ROM
    Category: Games
    Region: Germany
    Languages: German
    Disc Serial: (REQUIRED, IF EXISTS)

    Ringcode Information:

Data Side Mastering Code (laser branded/etched): manufactured by kdg 708.205.B    #3
Data Side Mastering SID Code: IFPI 1173
Data Side Toolstamp or Mastering Code (engraved/stamped): (REQUIRED, IF EXISTS)
Data Side Mould SID Code: IFPI 3086
Data Side Additional Mould: (REQUIRED, IF EXISTS)
Label Side Mould SID Code: (REQUIRED, IF EXISTS)

    Barcode: (OPTIONAL)
    Error Count: 0
    Comments:

[T:VOL] AgrarSim11 - 1.1.0.6, AGRARSIM11 - 1.1.0.6 (ISO)
(OPTIONAL)

    Contents: (OPTIONAL)

Version and Editions:
    Version: (REQUIRED, IF EXISTS)
    Edition/Release: Original

Extras:
    Primary Volume Descriptor (PVD):

0320 : 00 00 00 00 00 00 00 00  00 00 00 00 00 00 00 00   ................
0330 : 00 00 00 00 00 00 00 00  00 00 00 30 30 08 00 00   ...........00...
0340 : 00 00 00 00 00 00 00 00  00 00 00 00 30 30 08 00   ............00..
0350 : 00 00 00 00 00 00 00 00  00 00 00 00 00 30 30 08   .............00.
0360 : 00 00 00 00 00 00 00 00  00 00 00 00 00 00 30 30   ..............00
0370 : 08 01 00 00 00 00 00 00  00 00 00 00 00 00 00 00   ................

Copy Protection:
    Copy Protection: None found [OMIT FROM SUBMISSION]
    SubIntention Data (SecuROM/LibCrypt): 

Tracks and Write Offsets:
    DAT:

<rom name="AgrarSimulator2011.bin" size="709490208" crc="d5eafef7" md5="ee6a3f99c2ef7bd69b6001d9007698ab" sha1="aaeae430d46052234e6619bf1d7ffec546930fae" />

    Cuesheet:

FILE "AgrarSimulator2011.bin" BINARY
  TRACK 01 MODE1/2352
    INDEX 01 00:00:00

    Write Offset: -12

Dumping Info:
    Dumping Program: Redumper v2024.01.08 build_311
    Date: 2024-03-04 16:39:09
    Manufacturer: PLEXTOR
    Model: DVDR PX-760A
    Firmware: 1.07 (08/18/07 15:10)
    Reported Disc Type: CD-ROM