1

(0 replies, posted in New Dumps)

Title: VIRTUA STRIKER 2002
Disc Number / Letter: GDT-0002
Disc Title: VIRTUA STRIKER 2002
System: Triforce
Media Type: GD-ROM
Category: Games
Region: J
Languages: J
Disc Serial:
Ringcode Information:
    Mastering Code (laser branded/etched): GDT-0002 10M4 C 28
    Mastering SID Code: IFPI L223
    Label-Side Mould SID Code:
    Data-Side Mould SID Code: IFPI 39B5
    Additional Mould:
    Toolstamp or Mastering Code (engraved/stamped):
Barcode:
Error Count: 0
Comments: (OPTIONAL)
Contents: (OPTIONAL)
Version: V1.005
Edition/Release: 
Primary Volume Descriptor (PVD):

0320 : 20 20 20 20 20 20 20 20  20 20 20 20 20 32 30 30                200
0330 : 32 30 37 33 30 31 38 32  35 34 32 30 30 24 32 30   2073018254200$20
0340 : 30 32 30 37 33 30 31 38  32 35 34 32 30 30 24 30   02073018254200$0
0350 : 30 30 30 30 30 30 30 30  30 30 30 30 30 30 30 00   000000000000000.
0360 : 30 30 30 30 30 30 30 30  30 30 30 30 30 30 30 30   0000000000000000
0370 : 00 01 00 00 00 00 00 00  00 00 00 00 00 00 00 00   ................

DAT:

<rom name="VIRTUA_STRIKER_2002 (Track 1).bin" size="705600" crc="5b21dede" md5="5061295ab8c25efbeca24abd57f975d7" sha1="1526dbdbc204b5be2f5d55a80e1ae9104db4d047" />
<rom name="VIRTUA_STRIKER_2002 (Track 2).bin" size="3532704" crc="211cdb93" md5="2238142a7f82218edeeb4cc89a562ee6" sha1="80783e504e8e5db70944702b3d90aa14a9f73a41" />
<rom name="VIRTUA_STRIKER_2002 (Track 3).bin" size="1185760800" crc="28f68b49" md5="b6e19372efe020a42dbe62a4c7ac9e05" sha1="0004cbb9aa041c3be3eed83af71a7c0cba7f60a4" />

Cuesheet:

FILE "VIRTUA_STRIKER_2002 (Track 1).bin" BINARY
  TRACK 01 MODE1/2352
    INDEX 01 00:00:00
FILE "VIRTUA_STRIKER_2002 (Track 2).bin" BINARY
  TRACK 02 AUDIO
    INDEX 00 00:00:00
    INDEX 01 00:02:00
FILE "VIRTUA_STRIKER_2002 (Track 3).bin" BINARY
  TRACK 03 MODE1/2352
    INDEX 01 00:00:00

Write Offset: -498

2

(2 replies, posted in Guests & account requests)

Thank You, I'm all set. Going through the guides on submissions now.