Matches:
http://redump.org/disc/74612/

Logs:

https://drive.google.com/file/d/1mibCVG … sp=sharing

2

(3,100 replies, posted in General discussion)

sarami wrote:
RevQuixo wrote:

Got further this time (past the initial error) but new issue:
[ERROR] This program doesn't support to dump the multi-session disc by the plextor CD Drive

See below.
https://github.com/saramibreak/DiscImag … /issues/41

Okay, tried another drive.  Getting a C2 error now at the transition of a session.  Not seeing any physical damage to the disc so not sure of next steps (if any)

3

(3,100 replies, posted in General discussion)

sarami wrote:
RevQuixo wrote:

Here you go.

Uploaded.
https://www.mediafire.com/file/eq80y20l … st.7z/file
Your disc has two 0xb0.

========== FULL TOC (Binary) ==========
========== LBA[000000, 0000000]: Main Channel ==========
       +0 +1 +2 +3 +4 +5 +6 +7  +8 +9 +A +B +C +D +E +F
0000 : 00 9C 01 02 01 10 00 A0  00 00 00 00 01 00 00 01   ................
0010 : 10 00 A1 00 00 00 00 02  00 00 01 10 00 A2 00 00   ................
0020 : 00 00 02 20 48 01 10 00  01 00 00 00 00 00 02 00   ... H...........
0030 : 01 10 00 02 00 00 00 00  02 14 23 01 50 00 B0 05   ..........#.P...
0040 : 02 48 02 4F 3B 47 01 50  00 C0 A0 00 30 00 61 1A   .H.O;G.P....0.a.
0050 : 42 02 10 00 A0 00 00 00  00 03 00 00 02 10 00 A1   B...............
0060 : 00 00 00 00 05 00 00 02  10 00 A2 00 00 00 00 05   ................
0070 : 1F 0B 02 10 00 03 00 00  00 00 05 04 48 02 10 00   ............H...
0080 : 04 00 00 00 00 05 0F 35  02 10 00 05 00 00 00 00   .......5........
0090 : 05 19 0D 02 50 00 B0 FF  FF FF 01 4F 3B 47 00 00   ....P......O;G..

MSF of the 1st 0xb0 had been overwritten by the MSF of 2nd 0xb0. I fixed it.

F1ReB4LL wrote:

Why does C2 rereading give different results every time?

I answered about it in the past.
http://forum.redump.org/post/57771/#p57771
http://forum.redump.org/post/70466/#p70466


Got further this time (past the initial error) but new issue:
[ERROR] This program doesn't support to dump the multi-session disc by the plextor CD Drive

4

(3,100 replies, posted in General discussion)

sarami wrote:
RevQuixo wrote:

Here are the logs for Frog Feast (Jag CD homebrew on CDR).  It fails pretty early on.

https://www.mediafire.com/file/eq80y20l … st.7z/file
- added: output FULLTOC (Binary) to _maininfo.txt for debug
like this

========== FULL TOC (Binary) ==========
========== LBA[000000, 0000000]: Main Channel ==========
       +0 +1 +2 +3 +4 +5 +6 +7  +8 +9 +A +B +C +D +E +F
0000 : 00 4F 01 01 01 14 00 A0  00 00 00 00 01 20 00 01   .O........... ..
0010 : 14 00 A1 00 00 00 00 01  00 00 01 14 00 A2 00 00   ................
0020 : 00 00 02 06 44 01 14 00  01 00 00 00 00 00 02 00   ....D...........
0030 : 01 54 00 B0 04 24 44 03  4F 3B 4A 01 54 00 C0 46   .T...$D.O;J.T..F
0040 : 00 9E 00 61 22 17 01 54  00 C1 48 58 B8 00 00 00   ...a"..T..HX....
0050 : 00 00 00 00 

Please re-upload logs.


Here you go.

5

(3,100 replies, posted in General discussion)

Here are the logs for Frog Feast (Jag CD homebrew on CDR).  It fails pretty early on.

6

(3,100 replies, posted in General discussion)

Getting this error on a JagCD homebrew title:

LBA[1166880, 0x11ce20]: [F:ExecSearchingOffset][L:463]
    Opcode: 0xd8
    ScsiStatus: 0x02 = CHECK_CONDITION
    SenseData Key-Asc-Ascq: 05-21-00 = ILLEGAL_REQUEST - LOGICAL BLOCK ADDRESS OUT OF RANGE
lpCmd: d8, 00, 00, 11, ce, 20, 00, 00, 00, 01, 02, 00
dwBufSize: 2448

The disc is a CDR.  Using the latest DIC packed with MPF

7

(2 replies, posted in Guests & account requests)

I can vouch for atrac17.  He has bought a Plextor and has shipped me stuff to dump in the meantime. Please sign him up.

8

(3,100 replies, posted in General discussion)

Hi Sarami,

The dumper for this CD-i disc has dumped it multiple times and it hashes the same, but is throwing some non-C2 errors:

http://forum.redump.org/topic/31204/phi … s-of-evil/

Maybe worth a look?

9

(3,100 replies, posted in General discussion)

So I'm out of my element here so please forgive my ignorance.  There has been some heated discussion in discord about whether we are creating proper cues for unlicensed DC games specifically revolving the lead-outs and pre-gaps.  Cartain folks think we aren't generating the cue properly to match standards.  As an example here is the cue for Elansar (a recently dumped unlicensed DC game)

REM SESSION 01
FILE "Track 01.bin" BINARY
  TRACK 01 AUDIO
    INDEX 01 00:00:00
REM LEAD-OUT 01:30:00
REM SESSION 02
REM LEAD-IN 01:00:00
REM PREGAP 00:02:00
FILE "Track 02.bin" BINARY
  TRACK 02 MODE2/2352
    INDEX 01 00:00:00

and here is the suggested "proper" cue

REM SESSION 01
FILE "Track 01.bin" BINARY
  TRACK 01 AUDIO
    INDEX 01 00:00:00
REM LEAD-OUT 00:04:02
REM SESSION 02
FILE "Track 02.bin" BINARY
  TRACK 02 MODE2/2352
    INDEX 01 00:00:00

log is here:
https://drive.google.com/open?id=1lsiBG … mwL1M5D8e2

The conversation is way over my head, but thought I'd bring it to the attention of folks in the know for discussion.  We'd like to start getting these discs into the DB "properly", so might as well get it right before we have too many dumped a potentially incorrect/inadequate way.  As I said though, I don't have any notion as to if they are good as is or not.

10

(3,100 replies, posted in General discussion)

sarami wrote:
RevQuixo wrote:

Same error with test version.

Re-uploaded.  http://www.mediafire.com/file/eq80y20l9 … st.7z/file


And fixed!  Thanks for the quick turn around.

11

(3,100 replies, posted in General discussion)

sarami wrote:
RevQuixo wrote:

Dumping an unlicensed DC game - Maquipai and getting the following error:

Uploaded test version but I have not tested.
http://www.mediafire.com/file/eq80y20l9 … st.7z/file


Same error with test version.

12

(3,100 replies, posted in General discussion)

Dumping an unlicensed DC game - Maquipai and getting the following error:

[ERROR] Number of sector(s) where mode2 NoEdc subheader(0x10 - 0x17) isn't same: 3
    Sector: 88956, 88957, 88958,
Total errors: 3
Total warnings: 0

Not sure if it is protection, normal, or something that needs to be looked at further.  Logs are here:

https://drive.google.com/open?id=1YWF7t … vETdbGLs3X

Game is cheap if needs to be reasearched:

https://www.ebay.com/itm/Maqipuai-Dream … 4406090398

Hi,

I'm dumping enough at this point that it might make sense to have Wiki access as I am just bugging other people to make changes.


Thanks,

RevQuixo

14

(3,100 replies, posted in General discussion)

Redumped both games with the test DIC.  Uploaded to my normal spot with test suffix on the zips.

15

(3,100 replies, posted in General discussion)

F1ReB4LL wrote:

Track checksums are good, only cues may be wrong? 00:03:05 => 00:03:06 was the only change.

sarami wrote:

2018-05-22 is no problem. 2018-05-23 - 2019-01-03 is bad.

Only http://forum.redump.org/topic/19964/add … ne-ii-usa/ may be affected, then


I actually own Final Zone II..dumping now with the new version