Common Disc Info:
    Title: Compton's MultiMedia Encyclopedia VIS Edition
    Foreign Title (Non-latin): (OPTIONAL)
    Disc Number / Letter: (OPTIONAL)
    Disc Title: (OPTIONAL)
    System: Tandy / Memorex Visual Information System
    Media Type: CD-ROM
    Category: Multimedia
    Region: US
    Languages: English
    Disc Serial: CDRM1030360

    Ringcode Information:
        Mastering Code CDRM-1030360<tab>4
        Mastering SID Code: (REQUIRED, IF EXISTS)
        Data-Side Mould SID Code: (REQUIRED, IF EXISTS)
        Label-Side Mould SID Code: (REQUIRED, IF EXISTS)
        Additional Mould: (REQUIRED, IF EXISTS)
        Toolstamp or Mastering Code (engraved/stamped): (REQUIRED, IF EXISTS)
    Barcode: (OPTIONAL)
    Error Count: 0
    Comments: (OPTIONAL)
    Contents: (OPTIONAL)

Version and Editions:
    Version: (REQUIRED, IF EXISTS)
    Edition/Release: Original (VERIFY THIS)

Extras:
    Primary Volume Descriptor (PVD):

0320 : 20 20 20 20 20 20 20 20  20 20 20 20 20 31 39 39                199
0330 : 32 31 30 31 39 31 36 31  35 32 37 30 30 00 31 39   2101916152700.19
0340 : 39 32 31 30 31 39 31 36  31 35 32 37 30 30 00 30   92101916152700.0
0350 : 30 30 30 30 30 30 30 30  30 30 30 30 30 30 30 00   000000000000000.
0360 : 31 39 39 32 31 30 31 39  31 36 31 35 32 37 30 30   1992101916152700
0370 : 00 01 00 00 00 00 00 00  00 00 00 00 00 00 00 00   ................

Tracks and Write Offsets:
    DAT:

<rom name="track.bin" size="613425120" crc="ad4f347d" md5="7781708cd9b63f2283da40ce3253845e" sha1="50d489f67e67a39832d42cfee1f8a3530edcd85e" />

    Cuesheet:

FILE "track.bin" BINARY
  TRACK 01 MODE1/2352
    INDEX 01 00:00:00

    Write Offset: -572

logs: https://drive.google.com/file/d/1C3EfsV … sp=sharing

2

(2 replies, posted in Guests & account requests)

I can vouch for atrac17.  He has bought a Plextor and has shipped me stuff to dump in the meantime. Please sign him up.

3

(2,833 replies, posted in General discussion)

Hi Sarami,

The dumper for this CD-i disc has dumped it multiple times and it hashes the same, but is throwing some non-C2 errors:

http://forum.redump.org/topic/31204/phi … s-of-evil/

Maybe worth a look?

4

(2,833 replies, posted in General discussion)

So I'm out of my element here so please forgive my ignorance.  There has been some heated discussion in discord about whether we are creating proper cues for unlicensed DC games specifically revolving the lead-outs and pre-gaps.  Cartain folks think we aren't generating the cue properly to match standards.  As an example here is the cue for Elansar (a recently dumped unlicensed DC game)

REM SESSION 01
FILE "Track 01.bin" BINARY
  TRACK 01 AUDIO
    INDEX 01 00:00:00
REM LEAD-OUT 01:30:00
REM SESSION 02
REM LEAD-IN 01:00:00
REM PREGAP 00:02:00
FILE "Track 02.bin" BINARY
  TRACK 02 MODE2/2352
    INDEX 01 00:00:00

and here is the suggested "proper" cue

REM SESSION 01
FILE "Track 01.bin" BINARY
  TRACK 01 AUDIO
    INDEX 01 00:00:00
REM LEAD-OUT 00:04:02
REM SESSION 02
FILE "Track 02.bin" BINARY
  TRACK 02 MODE2/2352
    INDEX 01 00:00:00

log is here:
https://drive.google.com/open?id=1lsiBG … mwL1M5D8e2

The conversation is way over my head, but thought I'd bring it to the attention of folks in the know for discussion.  We'd like to start getting these discs into the DB "properly", so might as well get it right before we have too many dumped a potentially incorrect/inadequate way.  As I said though, I don't have any notion as to if they are good as is or not.

5

(2,833 replies, posted in General discussion)

sarami wrote:
RevQuixo wrote:

Same error with test version.

Re-uploaded.  http://www.mediafire.com/file/eq80y20l9 … st.7z/file


And fixed!  Thanks for the quick turn around.

6

(2,833 replies, posted in General discussion)

sarami wrote:
RevQuixo wrote:

Dumping an unlicensed DC game - Maquipai and getting the following error:

Uploaded test version but I have not tested.
http://www.mediafire.com/file/eq80y20l9 … st.7z/file


Same error with test version.

7

(2,833 replies, posted in General discussion)

Dumping an unlicensed DC game - Maquipai and getting the following error:

[ERROR] Number of sector(s) where mode2 NoEdc subheader(0x10 - 0x17) isn't same: 3
    Sector: 88956, 88957, 88958,
Total errors: 3
Total warnings: 0

Not sure if it is protection, normal, or something that needs to be looked at further.  Logs are here:

https://drive.google.com/open?id=1YWF7t … vETdbGLs3X

Game is cheap if needs to be reasearched:

https://www.ebay.com/itm/Maqipuai-Dream … 4406090398

Hi,

I'm dumping enough at this point that it might make sense to have Wiki access as I am just bugging other people to make changes.


Thanks,

RevQuixo

9

(2,833 replies, posted in General discussion)

Redumped both games with the test DIC.  Uploaded to my normal spot with test suffix on the zips.

10

(2,833 replies, posted in General discussion)

F1ReB4LL wrote:

Track checksums are good, only cues may be wrong? 00:03:05 => 00:03:06 was the only change.

sarami wrote:

2018-05-22 is no problem. 2018-05-23 - 2019-01-03 is bad.

Only http://forum.redump.org/topic/19964/add … ne-ii-usa/ may be affected, then


I actually own Final Zone II..dumping now with the new version