1

(2 replies, posted in New Dumps)

Double checked, and it turns out Star Trek Armada was already on the database, but Armada 2, Voyager: Elite Force, and Elite Force Expansion were all added afterwards in November by another dumper. I'll have to get mine listed under verified.

http://redump.org/disc/11054/ - Armada
http://redump.org/disc/66422/ - Armada II
http://redump.org/disc/66408/ - Elite Force
http://redump.org/disc/66409/ - EF Expansion

2

(2 replies, posted in New Dumps)

[NEW] Star Trek Armada: https://drive.google.com/drive/folders/ … sp=sharing

Title: Star Trek: Armada
Disc Number / Letter:
Disc Title: Star Trek: Armada
System: IBM PC Compatible
Media Type: CD-ROM
Category: Games
Region: U
Languages: English
Disc Serial: 32257.102.US
Ringcode Information:
    Mastering Ring: 1000913101USRE2 R7F
    Mastering SID Code: IFPI L240
    Mould SID Code: IFPI 4121
    Additional Mould:
    Toolstamp or Mastering Code: 13
Barcode:
ISBN:
Error Count: 0
Comments:
Contents:
Version:
Edition/Release: Star Trek Action Pack
Primary Volume Descriptor (PVD):

0320 : 20 20 20 20 20 20 20 20  20 20 20 20 20 32 30 30                200
0330 : 31 30 39 31 32 31 31 30  36 31 39 30 30 00 32 30   1091211061900.20
0340 : 30 31 30 39 31 32 31 31  30 36 31 39 30 30 00 30   01091211061900.0
0350 : 30 30 30 30 30 30 30 30  30 30 30 30 30 30 30 E4   000000000000000.
0360 : 30 30 30 30 30 30 30 30  30 30 30 30 30 30 30 30   0000000000000000
0370 : E4 01 00 00 00 00 00 00  00 00 00 00 00 00 00 00   ................

Copy Protection: None found

Cuesheet:

FILE "Armada (Track 1).bin" BINARY
  TRACK 01 MODE1/2352
    INDEX 01 00:00:00
FILE "Armada (Track 2).bin" BINARY
  TRACK 02 AUDIO
    INDEX 00 00:00:00
    INDEX 01 00:02:03

Write Offset: -12

DAT:

<rom name="Armada (Track 1).bin" size="710205216" crc="1f88537a" md5="221bda70002b15682b352d32840569f7" sha1="f06595175781832a9a99f00cdd66f314a69fba9b" />
<rom name="Armada (Track 2).bin" size="91739760" crc="44044557" md5="41a4671a5c1ac24e7bcac9601c59d860" sha1="dbf9c15e0c110c4b784dc76880c90936c9862d40" />


--------------------------------------------------------------------------------------------------------------------------------


[NEW] Star Trek Armada 2: https://drive.google.com/drive/folders/ … sp=sharing

Title: Star Trek: Armada II
Disc Number / Letter: (OPTIONAL)
Disc Title: Star Trek: Armada II
System: IBM PC Compatible
Media Type: CD-ROM
Category: Games
Region: U
Languages: English
Disc Serial: 31143.101.US
Ringcode Information:
    Mastering Ring: 31143101USRE2 R1F
    Mastering SID Code: IFPI L240
    Mould SID Code: IFPI 4121
    Additional Mould:
    Toolstamp or Mastering Code: 15
Barcode:
ISBN:
Error Count: 0
Comments:
Contents:
Version:
Edition/Release: Star Trek Action Pack
Primary Volume Descriptor (PVD):

0320 : 20 20 20 20 20 20 20 20  20 20 20 20 20 32 30 30                200
0330 : 32 30 32 31 32 31 37 35  33 30 33 30 30 30 32 30   2021217530300020
0340 : 30 32 30 32 31 32 31 37  35 33 30 33 30 30 30 31   0202121753030001
0350 : 36 30 31 30 31 30 31 31  31 38 35 30 32 34 37 30   6010101118502470
0360 : 31 36 30 31 30 31 30 31  31 31 38 35 30 32 34 37   1601010111850247
0370 : 30 01 00 00 00 00 00 00  00 00 00 00 00 00 00 00   0...............

Copy Protection: None found

Cuesheet:

FILE "Armada 2 (Track 1).bin" BINARY
  TRACK 01 MODE1/2352
    INDEX 01 00:00:00
FILE "Armada 2 (Track 2).bin" BINARY
  TRACK 02 AUDIO
    INDEX 00 00:00:00
    INDEX 01 00:02:00

Write Offset: -12

DAT:

<rom name="Armada 2 (Track 1).bin" size="546299040" crc="6688db15" md5="ddf1f03558766043276ef3bf121aa0dd" sha1="2f467ddfe8ac3b8bcb05b789ea30aabe95a9e478" />
<rom name="Armada 2 (Track 2).bin" size="256485600" crc="f98b3186" md5="1fa4e3795e03a31b50090ddc26798016" sha1="9bf0d99621f7adfa540a2829dc96592399baef9b" />


----------------------------------------------------------------


[NEW] Star Trek Voyager: Elite Force: https://drive.google.com/drive/folders/ … sp=sharing

Title: Star Trek Voyager: Elite Force
Disc Number / Letter:
Disc Title: Star Trek Voyager: Elite Force
System: IBM PC Compatible
Media Type: CD-ROM
Category: Games
Region: U
Languages: English
Disc Serial: 32257.101.US
Ringcode Information:
    Mastering Ring: 32257101US R2J
    Mastering SID Code: IFPI L239
    Mould SID Code: IFPI 4121
    Additional Mould:
    Toolstamp or Mastering Code: 12
Barcode:
ISBN:
Error Count: 0
Comments:
Contents:
Version:
Edition/Release: Star Trek Action Pack
Primary Volume Descriptor (PVD):

0320 : 20 20 20 20 20 20 20 20  20 20 20 20 20 32 30 30                200
0330 : 32 30 37 33 30 31 33 34  30 33 39 30 30 30 32 30   2073013403900020
0340 : 30 32 30 37 33 30 31 33  34 30 33 39 30 30 30 31   0207301340390001
0350 : 36 30 31 30 31 30 31 31  31 38 36 30 32 34 37 30   6010101118602470
0360 : 31 36 30 31 30 31 30 31  31 31 38 36 30 32 34 37   1601010111860247
0370 : 30 01 00 00 00 00 00 00  00 00 00 00 00 00 00 00   0...............

Copy Protection: None found

Cuesheet:

FILE "Eliteforce.bin" BINARY
  TRACK 01 MODE1/2352
    INDEX 01 00:00:00

Write Offset: -12

DAT:

<rom name="Eliteforce.bin" size="795251184" crc="5fc41690" md5="9d4509e05f1538efc27d88bef28b557a" sha1="8fd49b50e66e1b745d2d45001adad5d2f5ab5cd7" />


--------------------------------------------------------------------------------------------------------------------------------


[NEW] Star Trek Voyager: Elite Force Expansion: https://drive.google.com/drive/folders/ … sp=sharing

Title: Star Trek Voyager: Elite Force Expansion Pack
Disc Number / Letter:
Disc Title: Star Trek Voyager: Elite Force Expansion Pack
System: IBM PC Compatible
Media Type: CD-ROM
Category: Games
Region: U
Languages: English
Disc Serial: 31151.101.US
Ringcode Information:
    Mastering Ring: 31151101USRE R1F
    Mastering SID Code: IFPI L240
    Mould SID Code: IFPI 4121
    Additional Mould:
    Toolstamp or Mastering Code: 12
Barcode:
ISBN:
Error Count: 0
Comments:
Contents:
Version:
Edition/Release: Star Trek Action Pack
Primary Volume Descriptor (PVD):

0320 : 20 20 20 20 20 20 20 20  20 20 20 20 20 32 30 30                200
0330 : 32 30 39 31 37 31 37 32  34 33 36 30 30 30 32 30   2091717243600020
0340 : 30 32 30 39 31 37 31 37  32 34 33 36 30 30 30 31   0209171724360001
0350 : 36 30 31 30 31 30 31 31  31 38 36 30 32 34 37 30   6010101118602470
0360 : 31 36 30 31 30 31 30 31  31 31 38 36 30 32 34 37   1601010111860247
0370 : 30 01 00 00 00 00 00 00  00 00 00 00 00 00 00 00   0...............

Copy Protection: None found

Cuesheet:

FILE "EForceXP.bin" BINARY
  TRACK 01 MODE1/2352
    INDEX 01 00:00:00

Write Offset: -12

DAT:

<rom name="EForceXP.bin" size="368930016" crc="8715f30d" md5="2ceb341fc0ba99d5150fb39fde81e6d8" sha1="6f5fde2473fd64fd395010c37aba7f4a4a6837fb" />


--------------------------------------------------------------------------------------------------------------------------------


[NEW] Mission Code Millenium: https://drive.google.com/drive/folders/ … sp=sharing

Title: Mission Code: Millennium
Disc Number / Letter:
Disc Title: Mission Code: Millennium
System: IBM PC Compatible
Media Type: CD-ROM
Category: Games
Region: U
Languages: English
Disc Serial:
Ringcode Information:
    Mastering Ring: ZOMAX OPTICAL PLYMOUTH MN Z11534 M303257-1
    Mastering SID Code:
    Mould SID Code:
    Additional Mould:
    Toolstamp or Mastering Code:
Barcode:
ISBN:
Error Count: 0
Comments:
Contents:
Version:
Edition/Release: Original
Primary Volume Descriptor (PVD):

0320 : 20 20 20 20 20 20 20 20  20 20 20 20 20 31 39 39                199
0330 : 33 30 33 30 33 31 30 30  37 30 37 30 30 30 31 39   3030310070700019
0340 : 39 33 30 33 30 33 31 30  30 37 30 37 30 30 30 31   9303031007070001
0350 : 39 39 33 30 33 30 33 31  30 30 37 30 37 30 30 30   9930303100707000
0360 : 31 39 39 33 30 33 30 33  31 30 30 37 30 37 30 30   1993030310070700
0370 : 30 01 00 00 00 00 00 00  00 00 00 00 00 00 00 00   0...............

Copy Protection: G:\QUICK\BIN\VIEWER.EXE: WTM Copy Protection

Cuesheet:

CATALOG 0000000000000
FILE "MILLENNIUM.bin" BINARY
  TRACK 01 MODE1/2352
    INDEX 01 00:00:00

Write Offset: 222

DAT:

<rom name="MILLENNIUM.bin" size="589818096" crc="4ad708e5" md5="f703fd931fc495dac8463441d71d6e73" sha1="75ad653316ea9063d7712ca6e50b0c83e0134875" />


--------------------------------------------------------------------------------------------------------------------------------


[NEW] Smart Games Challenge 1: https://drive.google.com/drive/folders/ … sp=sharing

Title: Smart Games Challenge 1
Disc Number / Letter:
Disc Title: Smart Games Challenge 1
System: IBM PC Compatible
Media Type: CD-ROM
Category: Games
Region: U
Languages: English
Disc Serial: 99168
Ringcode Information:
    Mastering Ring: 99168 <tab> + + 90234-01
    Mastering SID Code: IFPI L027
    Mould SID Code: IFPI 1030
    Additional Mould:
    Toolstamp or Mastering Code:
Barcode:
ISBN:
Error Count: 0
Comments:
Contents:
Version:
Edition/Release: Original
Primary Volume Descriptor (PVD):

0320 : 20 20 20 20 20 20 20 20  20 20 20 20 20 31 39 39                199
0330 : 38 30 35 31 39 31 36 33  31 30 37 30 30 00 31 39   8051916310700.19
0340 : 39 38 30 35 31 39 31 36  33 31 30 37 30 30 00 32   98051916310700.2
0350 : 30 30 38 30 35 31 36 31  36 33 31 30 37 30 30 00   008051616310700.
0360 : 31 39 39 38 30 35 31 39  31 36 33 31 30 37 30 30   1998051916310700
0370 : 00 01 00 00 00 00 00 00  00 00 00 00 00 00 00 00   ................

Copy Protection: None found

Cuesheet:

FILE "SGC1.bin" BINARY
  TRACK 01 MODE1/2352
    INDEX 01 00:00:00

Write Offset: -12

DAT:

<rom name="SGC1.bin" size="70087248" crc="ae91942c" md5="4890184f1060988d414ac902da13a6a1" sha1="1e4a079e2b6429ce004f63ce32e74abd2a4372b2" />


--------------------------------------------------------------------------------------------------------------------------------


[NEW] I Spy Treasure Hunt: https://drive.google.com/drive/folders/ … sp=sharing

Title: I Spy Treasure Hunt
Disc Number / Letter:
Disc Title: I Spy Treasure Hunt
System: IBM PC Compatible
Media Type: CD-ROM
Category: Games
Region: U
Languages: English
Disc Serial: 934457
Ringcode Information:
    Mastering Ring: WEA mfg. Olyphant Z3228 <tab> AF 344573 R01
    Mastering SID Code: IFPI L909
    Mould SID Code: IFPI 2U7C
    Additional Mould:
    Toolstamp or Mastering Code: M1S1
Barcode: 0 78073 34611 0
ISBN: ISBN 0-439-34611-8
Error Count: 0
Comments:
Contents:
Version:
Edition/Release: Original
Primary Volume Descriptor (PVD):

0320 : 20 20 20 20 20 20 20 20  20 20 20 20 20 32 30 30                200
0330 : 31 30 37 32 31 31 30 34  35 32 39 30 30 00 32 30   1072110452900.20
0340 : 30 31 30 37 32 35 31 32  33 38 32 35 30 30 00 00   01072512382500..
0350 : 00 00 00 00 00 00 00 00  00 00 00 00 00 00 00 00   ................
0360 : 00 00 00 00 00 00 00 00  00 00 00 00 00 00 00 00   ................
0370 : 00 01 00 00 00 00 00 00  00 00 00 00 00 00 00 00   ................

Copy Protection: None found

Cuesheet:

FILE "TREASURE_HUNT.bin" BINARY
  TRACK 01 MODE1/2352
    INDEX 01 00:00:00

Write Offset: -153

DAT:

<rom name="TREASURE_HUNT.bin" size="608335392" crc="6e75abdd" md5="01d1001aaf28ca14657d5a5f1a457ebc" sha1="309abe4046d69e5b54228438c11b47c154076c22" />


--------------------------------------------------------------------------------------------------------------------------------


[NEW] 3D Ultra Pinball: https://drive.google.com/drive/folders/ … sp=sharing

Title: 3-D Ultra Pinball
Disc Number / Letter:
Disc Title: 3-D Ultra Pinball: Fastest Pinball in Space
System: IBM PC Compatible
Media Type: CD-ROM
Category: Games
Region: U
Languages: English
Disc Serial: S676430
Ringcode Information:
    Mastering Ring: WO#49853-3 <tab> DISC MFG., INC.
    Mastering SID Code: IFPI L810
    Mould SID Code: IFPI 2F86
    Additional Mould:
    Toolstamp or Mastering Code:
Barcode:
ISBN:
Error Count: 0
Comments:
Contents:
Version:
Edition/Release: Original
Primary Volume Descriptor (PVD):

0320 : 20 20 20 20 20 20 20 20  20 20 20 20 20 31 39 39                199
0330 : 35 30 39 31 35 31 36 31  36 30 32 30 30 E4 31 39   5091516160200.19
0340 : 39 35 30 39 31 35 31 36  31 36 30 32 30 30 E4 30   95091516160200.0
0350 : 30 30 30 30 30 30 30 30  30 30 30 30 30 30 30 00   000000000000000.
0360 : 30 30 30 30 30 30 30 30  30 30 30 30 30 30 30 30   0000000000000000
0370 : 00 01 00 00 00 00 00 00  00 00 00 00 00 00 00 00   ................

Copy Protection: None found

Cuesheet:

CATALOG 0000000000000
FILE "U-Pinball.bin" BINARY
  TRACK 01 MODE1/2352
    INDEX 01 00:00:00

Write Offset: 0

DAT:

<rom name="U-Pinball.bin" size="64209600" crc="52f525f0" md5="1ba3a85d386881e32c30b64e84dbe597" sha1="08573aa21f13a456cb687cd484fd02ddb3f0df01" />


--------------------------------------------------------------------------------------------------------------------------------


[NEW] Microsoft Windows 95 Full w/ USB: https://drive.google.com/drive/folders/ … sp=sharing

Title: Microsoft Windows 95 w/ USB Support
Disc Number / Letter:
Disc Title: Microsoft Windows 95 with USB Support
System: IBM PC Compatible
Media Type: CD-ROM
Category: Operating System
Region: U
Languages: English
Disc Serial:
Ringcode Information:
    Mastering Ring: MANUFACTURED BY KAO ***SR1056170-08*
    Mastering SID Code: IFPI L955
    Mould SID Code: IFPI 3G29
    Additional Mould: USA
    Toolstamp or Mastering Code:
Barcode:
ISBN:
Error Count: 0
Comments:
Contents:
Version:
Edition/Release: Original
Primary Volume Descriptor (PVD):

0320 : 20 20 20 20 20 20 20 20  20 20 20 20 20 31 39 39                199
0330 : 37 30 35 30 31 31 32 31  34 30 30 30 30 E0 30 30   7050112140000.00
0340 : 30 30 30 30 30 30 30 30  30 30 30 30 30 30 00 30   00000000000000.0
0350 : 30 30 30 30 30 30 30 30  30 30 30 30 30 30 30 00   000000000000000.
0360 : 30 30 30 30 30 30 30 30  30 30 30 30 30 30 30 30   0000000000000000
0370 : 00 01 00 00 00 00 00 00  00 00 00 00 00 00 00 00   ................

Copy Protection: None found

Cuesheet:

FILE "W95_FULL_AR.bin" BINARY
  TRACK 01 MODE1/2352
    INDEX 01 00:00:00

Write Offset: -22

DAT:

<rom name="W95_FULL_AR.bin" size="720471696" crc="7f67232d" md5="2716df2fd432c224334a8b2bad2c74b1" sha1="0f8c2dd85b2c4e7c879de11586f4dfdd681ee2e2" />




--------------------------------------------------------------------------------------------------
MODERATOR'S NOTE: These verifications have already been added.


[VERIFY] Sid Meier's Civilization 3: http://redump.org/disc/20371/
https://drive.google.com/drive/folders/ … sp=sharing

Title: Sid Meier's Civilization III
Disc Number / Letter:
Disc Title: Sid Meier's Civilization III
System: IBM PC Compatible
Media Type: CD-ROM
Category: Games
Region: U/E
Languages: English
Disc Serial: 04-22252CD
Ringcode Information:
    Mastering Ring: 04-22252CD CDR0103527 09
    Mastering SID Code: IFPI LN06
    Mould SID Code:
    Additional Mould:
    Toolstamp or Mastering Code:
Barcode:
ISBN:
Error Count: 579
Comments:
Contents:
Version: 1.07f
Edition/Release: Gold Edition
Primary Volume Descriptor (PVD):

0320 : 20 20 20 20 20 20 20 20  20 20 20 20 20 32 30 30                200
0330 : 31 31 30 30 32 31 39 34  33 34 33 30 30 00 32 30   1100219434300.20
0340 : 30 31 31 30 30 32 31 39  34 33 34 33 30 30 00 30   01100219434300.0
0350 : 30 30 30 30 30 30 30 30  30 30 30 30 30 30 30 00   000000000000000.
0360 : 30 30 30 30 30 30 30 30  30 30 30 30 30 30 30 30   0000000000000000
0370 : 00 01 00 00 00 00 00 00  00 00 00 00 00 00 00 00   ................

Copy Protection: G:\00000001.TMP: SafeDisc v1 or greater
G:\00000002.TMP: SafeDisc v2 or greater
G:\00000409.016: SafeDisc 1
G:\00000409.256: SafeDisc 1
G:\Civilization3.exe: SafeDisc 2.40.010
G:\drvmgt.dll: SafeDisc 1.5x-2.40
G:\secdrv.sys: SafeDisc 2.40

Cuesheet:

FILE "CIV3.bin" BINARY
  TRACK 01 MODE1/2352
    INDEX 01 00:00:00

Write Offset: -12

DAT:

<rom name="CIV3.bin" size="702563568" crc="c7863559" md5="f00f270419d2818c935089f3ecd47276" sha1="948bd105e2f4804741dec9818da4cd0f11b760cb" />


--------------------------------------------------------------------------------------------------

[VERIFY] Gamefest Star Trek Starfleet Command: http://redump.org/disc/54686/
https://drive.google.com/drive/folders/ … sp=sharing

Title: Gamefest Star Trek Classics: Star Trek: Starfleet Command
Disc Number / Letter: 1
Disc Title: Gamefest: Star Trek Classics (Disc 1 of 4) (Star Trek: Starfleet Command)
System: IBM PC Compatible
Media Type: CD-ROM
Category: Games
Region: U
Languages: English
Disc Serial: CD-C95-1321-0
Ringcode Information:
    Mastering Ring: FM\CA <tab> FM 21327 (CD-C95-1321-1/IN0002)
    Mastering SID Code: IFPI LG32
    Mould SID Code: IFPI 3V02
    Additional Mould:
    Toolstamp or Mastering Code: C01 M01 S07
Barcode:
ISBN:
Error Count: 0
Comments:
Contents: Star Trek: Starfleet Command II Demo
Version: 1.0.0.2
Edition/Release: Rerelease
Primary Volume Descriptor (PVD):

0320 : 20 20 20 20 20 20 20 20  20 20 20 20 20 32 30 30                200
0330 : 31 30 37 32 37 31 31 30  35 33 36 30 30 00 32 30   1072711053600.20
0340 : 30 31 30 37 32 37 31 31  30 35 33 36 30 30 00 30   01072711053600.0
0350 : 30 30 30 30 30 30 30 30  30 30 30 30 30 30 30 E4   000000000000000.
0360 : 30 30 30 30 30 30 30 30  30 30 30 30 30 30 30 30   0000000000000000
0370 : E4 01 00 00 00 00 00 00  00 00 00 00 00 00 00 00   ................

Copy Protection: None found

Cuesheet:

FILE "SFC.bin" BINARY
  TRACK 01 MODE2/2352
    INDEX 01 00:00:00

Write Offset: -22

DAT:

<rom name="SFC.bin" size="617933904" crc="b381772a" md5="f374ce03c2bdb806f05c99db92fb98a9" sha1="daf8480e11a5ddec0163d4885641889b01cc1dd4" />


--------------------------------------------------------------------------------------------------

[VERIFY] Gamefest Star Trek New Worlds: http://redump.org/disc/54687/
https://drive.google.com/drive/folders/ … sp=sharing

Title: Gamefest Star Trek Classics: New Worlds
Disc Number / Letter: 2
Disc Title: Gamefest: Star Trek Classics (Disc 2 of 4) (Star Trek: New Worlds)
System: IBM PC Compatible
Media Type: CD-ROM
Category: Games
Region: U
Languages: English
Disc Serial: CD-C95-1321-1
Ringcode Information:
    Mastering Ring: FM\CA FM 21328 (CD-C95-1321-1/IN0002)
    Mastering SID Code: IFPI LG33
    Mould SID Code: IFPI 3V08
    Additional Mould:
    Toolstamp or Mastering Code: C01 M02 S01
Barcode:
ISBN:
Error Count: 0
Comments:
Contents:
Version: 1.0
Edition/Release: Rerelease
Primary Volume Descriptor (PVD):

0320 : 20 20 20 20 20 20 20 20  20 20 20 20 20 32 30 30                200
0330 : 31 30 37 32 37 31 31 34  33 31 34 30 30 00 32 30   1072711431400.20
0340 : 30 31 30 37 32 37 31 31  34 33 31 34 30 30 00 30   01072711431400.0
0350 : 30 30 30 30 30 30 30 30  30 30 30 30 30 30 30 E4   000000000000000.
0360 : 30 30 30 30 30 30 30 30  30 30 30 30 30 30 30 30   0000000000000000
0370 : E4 01 00 00 00 00 00 00  00 00 00 00 00 00 00 00   ................

Copy Protection: None found

Cuesheet:

FILE "NEWWORLDS.bin" BINARY
  TRACK 01 MODE2/2352
    INDEX 01 00:00:00

Write Offset: -12

DAT:

<rom name="NEWWORLDS.bin" size="782235216" crc="d163bca6" md5="f7114fffecb32666412e51382f796157" sha1="b04cb504c4188c2368e271fbb896234342e9ae04" />


--------------------------------------------------------------------------------------------------

[VERIFY] Gamefest Star Trek Starfleet Academy: Strategic Command Part 1: http://redump.org/disc/54688/
https://drive.google.com/drive/folders/ … sp=sharing

Title: Gamefest Star Trek Classics (Disc 3): Starfleet Academy: Strategic Command Part 1
Disc Number / Letter: 3
Disc Title: Gamefest: Star Trek Classics (Disc 3 of 4) (Star Trek: Starfleet Academy: Strategic Command Pt. 1)
System: IBM PC Compatible
Media Type: CD-ROM
Category: Games
Region: U
Languages: English
Disc Serial: CD-C95-1321-2
Ringcode Information:
    Mastering Ring: FM\CA FM 21329 (CD-C95-1321-2/IN0002)
    Mastering SID Code: IFPI LG33
    Mould SID Code: IFPI 3V20
    Additional Mould:
    Toolstamp or Mastering Code: C01 M01 S01
Barcode:
ISBN:
Error Count: 0
Comments:
Contents:
Version: 1.0.0.1
Edition/Release: Rerelease
Primary Volume Descriptor (PVD):

0320 : 20 20 20 20 20 20 20 20  20 20 20 20 20 32 30 30                200
0330 : 31 30 37 32 37 31 33 33  39 32 34 30 30 00 32 30   1072713392400.20
0340 : 30 31 30 37 32 37 31 33  33 39 32 34 30 30 00 30   01072713392400.0
0350 : 30 30 30 30 30 30 30 30  30 30 30 30 30 30 30 E4   000000000000000.
0360 : 30 30 30 30 30 30 30 30  30 30 30 30 30 30 30 30   0000000000000000
0370 : E4 01 00 00 00 00 00 00  00 00 00 00 00 00 00 00   ................

Copy Protection: None Found

Cuesheet:

FILE "SFACD_1.bin" BINARY
  TRACK 01 MODE2/2352
    INDEX 01 00:00:00

Write Offset: -12

DAT:

<rom name="SFACD_1.bin" size="752136672" crc="dfaeb54b" md5="930d0f437f6af0153811648e37d93e60" sha1="bd1cc499894bf280764fb2a1a821daa5b207b95a" />


--------------------------------------------------------------------------------------------------

[VERIFY] Gamefest Star Trek Starfleet Academy: Strategic Command Part 2: http://redump.org/disc/54689/
https://drive.google.com/drive/folders/ … sp=sharing

Title: Gamefest Star Trek Classic (Disc 4): Star Trek: Starfleet Academy Strategic Command Part 2
Disc Number / Letter: 4
Disc Title: Gamefest: Star Trek Classics (Disc 4 of 4) (Star Trek: Starfleet Academy: Strategic Command Pt. 2)
System: IBM PC Compatible
Media Type: CD-ROM
Category: Games
Region: U
Languages: English
Disc Serial: CD-C95-1321-3
Ringcode Information:
    Mastering Ring: FM \ CA FM 21330 (CD-C95-1321-3/IN0002)
    Mastering SID Code: IFPI LG33
    Mould SID Code: IFPI 3V30
    Additional Mould:
    Toolstamp or Mastering Code: C01 M01 S07
Barcode:
ISBN:
Error Count: 0
Comments:
Contents:
Version: 1.0.0.l
Edition/Release: Rerelease
Primary Volume Descriptor (PVD):

0320 : 20 20 20 20 20 20 20 20  20 20 20 20 20 32 30 30                200
0330 : 31 30 37 32 37 31 35 35  34 34 38 30 30 00 32 30   1072715544800.20
0340 : 30 31 30 37 32 37 31 35  35 34 34 38 30 30 00 30   01072715544800.0
0350 : 30 30 30 30 30 30 30 30  30 30 30 30 30 30 30 E4   000000000000000.
0360 : 30 30 30 30 30 30 30 30  30 30 30 30 30 30 30 30   0000000000000000
0370 : E4 01 00 00 00 00 00 00  00 00 00 00 00 00 00 00   ................

Copy Protection: None found

Cuesheet:

FILE "SFACD_2.bin" BINARY
  TRACK 01 MODE2/2352
    INDEX 01 00:00:00

Write Offset: -12

DAT:

<rom name="SFACD_2.bin" size="781078032" crc="7ab7b5a7" md5="43cef1cc699f71bf085a5e93dd0c4e2e" sha1="bc69f95c95a50a38b7952ebf25156cee97948e84" />


--------------------------------------------------------------------------------------------------

[VERIFY] Sonic R: http://redump.org/disc/8351/
https://drive.google.com/drive/folders/ … sp=sharing

Title: Sonic R
Disc Number / Letter:
Disc Title: Sonic R
System: IBM PC Compatible
Media Type: CD-ROM
Category: Games
Region: U
Languages: English
Disc Serial: 682501.101.US 01
Ringcode Information:
    Mastering Ring: 682501101USRE2 R3F <tab> A
    Mastering SID Code: IFPI L240
    Mould SID Code: IFPI 4121
    Additional Mould:
    Toolstamp or Mastering Code: 11
Barcode:
ISBN:
Error Count: 0
Comments:
Contents:
Version:
Edition/Release: Twin Pack
Primary Volume Descriptor (PVD):

0320 : 20 20 20 20 20 20 20 20  20 20 20 20 20 32 30 30                200
0330 : 31 31 32 32 37 31 35 30  33 32 37 30 30 00 32 30   1122715032700.20
0340 : 30 31 31 32 32 37 31 35  30 33 32 37 30 30 00 30   01122715032700.0
0350 : 30 30 30 30 30 30 30 30  30 30 30 30 30 30 30 00   000000000000000.
0360 : 30 30 30 30 30 30 30 30  30 30 30 30 30 30 30 30   0000000000000000
0370 : 00 01 00 00 00 00 00 00  00 00 00 00 00 00 00 00   ................

Copy Protection: None

Cuesheet:

FILE "Sonic_R.bin" BINARY
  TRACK 01 MODE2/2352
    INDEX 01 00:00:00

Write Offset: -12

DAT:

<rom name="Sonic_R.bin" size="129235344" crc="a1ec971a" md5="00ba22869634b89bb50b016140634790" sha1="c5d366ea4f3f2ad6f6f15fe58ccd0516f477ff1c" />


--------------------------------------------------------------------------------------------------

[VERIFY] Warcraft III: Reign of Chaos: http://redump.org/disc/16745/
https://drive.google.com/drive/folders/ … sp=sharing

Title: Warcraft III: Reign of Chaos
Disc Number / Letter:
Disc Title: Warcraft III: Reign of Chaos
System: IBM PC Compatible
Media Type: CD-ROM
Category: Games
Region: U
Languages: English
Disc Serial: S7145310
Ringcode Information:
    Mastering Ring: (190224) S7145310 02 <tab> TECHNICOLOR
    Mastering SID Code: IFPI L891
    Mould SID Code: IFPI 2T01
    Additional Mould: NIMBUS/CA
    Toolstamp or Mastering Code:
Barcode: 0 20626 71648 2
ISBN:
Error Count: 1
Comments:
Contents:
Version: v1.00
Edition/Release: WarCraft Battle Chest
Primary Volume Descriptor (PVD):

0320 : 20 20 20 20 20 20 20 20  20 20 20 20 20 32 30 30                200
0330 : 32 30 36 30 37 32 32 31  31 30 31 30 30 00 32 30   2060722110100.20
0340 : 30 32 30 36 30 37 32 32  31 34 33 32 30 30 00 00   02060722143200..
0350 : 00 00 00 00 00 00 00 00  00 00 00 00 00 00 00 00   ................
0360 : 00 00 00 00 00 00 00 00  00 00 00 00 00 00 00 00   ................
0370 : 00 01 00 00 00 00 00 00  00 00 00 00 00 00 00 00   ................

Copy Protection: None found

SubIntention Data (SecuROM/LibCrypt):

MSF: 00:01:74 Q-Data: 410100 00:40:01 00 00:03:74 2ef1
MSF: 01:08:50 Q-Data: 410101 21:06:50 00 05:08:50 0a8f
MSF: 01:19:51 Q-Data: 410101 05:17:51 00 21:19:51 df99
MSF: 01:38:27 Q-Data: 410101 01:36:37 00 01:38:2f 54b4
MSF: 01:48:63 Q-Data: 410101 03:46:63 00 41:48:63 895f
MSF: 02:06:20 Q-Data: 410101 03:04:20 00 82:06:20 4003
MSF: 02:11:52 Q-Data: 410101 02:19:52 00 02:19:52 9374
MSF: 02:33:14 Q-Data: 410101 02:71:14 00 02:31:14 25d1
MSF: 02:35:62 Q-Data: 410101 02:3b:62 00 02:25:62 ca65
MSF: 03:07:55 Q-Data: 410101 03:0d:55 00 03:17:55 a920
MSF: 03:52:09 Q-Data: 410101 03:10:09 00 03:50:09 6e9f

Cuesheet:

FILE "Warcraft III.bin" BINARY
  TRACK 01 MODE1/2352
    INDEX 01 00:00:00

Write Offset: -12

DAT:

<rom name="Warcraft III.bin" size="761041344" crc="f15d4b6c" md5="aed38160fa0903ddd446aac539896562" sha1="85c593a556260c8e28a1edfcc208cab0b979b909" />


--------------------------------------------------------------------------------------------------

[VERIFY] Warcraft III: The Frozen Throne: http://redump.org/disc/43320/
https://drive.google.com/drive/folders/ … sp=sharing

Title: WarCraft III: Frozen Throne (Expansion Set)
Disc Number / Letter:
Disc Title: WarCraft III: Frozen Throne (Expansion Set)
System: IBM PC Compatible
Media Type: CD-ROM
Category: Games
Region: U
Languages: English
Disc Serial: S7205110
Ringcode Information:
    Mastering Ring: (210256) S7205110 01 <TAB> TECHNICOLOR
    Mastering SID Code: IFPI L892
    Mould SID Code: IFPI 2T03
    Additional Mould: NIMBUS/CA
    Toolstamp or Mastering Code:
Barcode:
ISBN:
Error Count: 1
Comments:
Contents:
Version: 1.07
Edition/Release: WarCraft Battle Chest
Primary Volume Descriptor (PVD):

0320 : 20 20 20 20 20 20 20 20  20 20 20 20 20 32 30 30                200
0330 : 33 30 35 31 38 31 39 34  36 35 39 30 30 00 32 30   3051819465900.20
0340 : 30 33 30 35 31 38 31 39  34 37 34 37 30 30 00 00   03051819474700..
0350 : 00 00 00 00 00 00 00 00  00 00 00 00 00 00 00 00   ................
0360 : 00 00 00 00 00 00 00 00  00 00 00 00 00 00 00 00   ................
0370 : 00 01 00 00 00 00 00 00  00 00 00 00 00 00 00 00   ................

Copy Protection: SecuROM v4.84.76

SubIntention Data (SecuROM/LibCrypt):

MSF: 00:01:74 Q-Data: 410100 00:40:01 00 00:03:74 2ef1
MSF: 01:08:50 Q-Data: 410101 21:06:50 00 05:08:50 0a8f
MSF: 01:19:51 Q-Data: 410101 05:17:51 00 21:19:51 df99
MSF: 01:38:27 Q-Data: 410101 01:36:37 00 01:38:2f 54b4
MSF: 01:48:63 Q-Data: 410101 03:46:63 00 41:48:63 895f
MSF: 02:06:20 Q-Data: 410101 03:04:20 00 82:06:20 4003
MSF: 02:11:52 Q-Data: 410101 02:19:52 00 02:19:52 9374
MSF: 02:33:14 Q-Data: 410101 02:71:14 00 02:31:14 25d1
MSF: 02:35:62 Q-Data: 410101 02:3b:62 00 02:25:62 ca65
MSF: 03:07:55 Q-Data: 410101 03:0d:55 00 03:17:55 a920
MSF: 03:52:09 Q-Data: 410101 03:10:09 00 03:50:09 6e9f

Cuesheet:

FILE "TheFrozenThrone.bin" BINARY
  TRACK 01 MODE1/2352
    INDEX 01 00:00:00

Write Offset: -12

DAT:

<rom name="TheFrozenThrone.bin" size="579212928" crc="4af8c037" md5="2cbe22caa108235b7b5e39a56412071c" sha1="c434df7707921657a01adf0c0d0871d3f59ca8d2" />

3

(6 replies, posted in Guests & account requests)

user7 wrote:

Thank you for your patience, I'll look into it and DM you here with a new link.

Thank you. I shall continue to be patient. smile

4

(6 replies, posted in Guests & account requests)

user7 wrote:

sometimes that happens, we have a rogue bot. feel free to rejoin

The link was expired, hence why I'm requesting a new one.

5

(6 replies, posted in Guests & account requests)

iR0b0t wrote:

Welcome, obtain your password here.

(check the spam folder in case there will be no message in your inbox)

Please make sure you read and understand the dumping process and the way you have to submit the dumping logs before posting your dump info.
Dumping-Guides

Feel free to ask question on the forum, or via Discord about how to get started preserving games with Redump:
Discord

Good evening. I'm sorry to bother you. I was on the discord server earlier, then I somehow wasn't. I don't know if I was kicked or accidentally left. Can you resend the invite to me if it was the latter please?