1

(0 replies, posted in Verifications)

http://redump.org/disc/50738/

Common Disc Info:
    Title: The LEGO Movie: Videogame
    Foreign Title (Non-latin):
    Disc Number / Letter:
    Disc Title:
    System: Microsoft XBOX 360
    Media Type: DVD-ROM-9
    Category: Games
    Region: USA
    Languages: Danish, Dutch, English, French, Italian, Polish, Portuguese, Russian, Spanish
    Disc Serial: WR-2113

    Ringcode Information:
        Inner Mastering Code (laser branded/etched): 777F972C-L0 03
        Inner Mastering SID Code: IFPI LV76
        Inner Toolstamp or Mastering Code (engraved/stamped): 0303
        Outer Mastering Code (laser branded/etched): 777F972C-L1 01
        Outer Mastering SID Code: IFPI LV76
        Outer Toolstamp or Mastering Code (engraved/stamped): 0212
        Data-Side Mould SID Code: IFPI KKLU
        Label-Side Mould SID Code: IFPI KKNC
        Additional Mould:
    Barcode: 8 83929 37533 2
    Comments:

DMI.bin Hashes: <rom name="DMI.bin" size="2048" crc="8fd40948" md5="9bf7bf5bda8e8c8ac72da78b43e54f05" sha1="754e604215e5b2becba79593f8c59ff4da8d8edb"/>
PFI.bin Hashes: <rom name="PFI.bin" size="2048" crc="26af4c58" md5="52eb1d6df4e495e7a71622700d191abb" sha1="54c3eb442f55adfc179ef44f81497be8a7b3f5f6"/>
SS.bin Hashes: 
Security Sector Version: 02

    Contents:

Version and Editions:
    Version: 1.01
    Edition/Release: Original

Extras:
    Primary Volume Descriptor (PVD):

0320 : 20 20 20 20 20 20 20 20  20 20 20 20 20 32 30 31                201
0330 : 34 30 31 30 38 31 36 30  30 30 30 30 30 E0 30 30   4010816000000.00
0340 : 30 30 30 30 30 30 30 30  30 30 30 30 30 30 00 30   00000000000000.0
0350 : 30 30 30 30 30 30 30 30  30 30 30 30 30 30 30 00   000000000000000.
0360 : 30 30 30 30 30 30 30 30  30 30 30 30 30 30 30 30   0000000000000000
0370 : 00 01 00 00 00 00 00 00  00 00 00 00 00 00 00 00   ................

    Security Sector Ranges:

12544-16639
4246304-4250399

Size & Checksum:
    Layerbreak: 2133520
    Size: 8738846720
    CRC32: bba08f68
    MD5: 80be7c65f24b6128c9df7f147a7362cb
    SHA1: 84e4b48920cac0e451d38dcb05e296154ce35d40

2

(0 replies, posted in Verifications)

http://redump.org/disc/38649/

Common Disc Info:
    Title: LEGO Jurassic World
    Foreign Title (Non-latin): 
    Disc Number / Letter: 
    Disc Title: 
    System: Microsoft XBOX 360
    Media Type: DVD-ROM-9
    Category: Games
    Region: USA
    Languages: Danish, Dutch, English, French, German, Italian, Polish, Portuguese, Russian, Spanish
    Disc Serial: WR-2125

    Ringcode Information:
        Inner Mastering Code (laser branded/etched): 7EB7CF88-L0 22 +    +
        Inner Mastering SID Code: IFPI LB41
        Inner Toolstamp or Mastering Code (engraved/stamped): 
        Outer Mastering Code (laser branded/etched): 7EB7CF88-L1 22 +    +
        Outer Mastering SID Code: IFPI LB41
        Outer Toolstamp or Mastering Code (engraved/stamped): 
        Data-Side Mould SID Code: IFPI 10G2
        Label-Side Mould SID Code: IFPI 10M4
        Additional Mould: 
    Barcode: 8 83929 47271 0
    Comments:

DMI.bin Hashes: <rom name="DMI.bin" size="2048" crc="8e21d123" md5="a505a4208429226d32203c82f961fec1" sha1="58fa69078880d1f6ccd5a268165875d25ab333bb"/>
PFI.bin Hashes: <rom name="PFI.bin" size="2048" crc="26af4c58" md5="52eb1d6df4e495e7a71622700d191abb" sha1="54c3eb442f55adfc179ef44f81497be8a7b3f5f6"/>
SS.bin Hashes: 
Security Sector Version: 02

    Contents: 

Version and Editions:
    Version: 1.01
    Edition/Release: Original

Extras:
    Primary Volume Descriptor (PVD):

0320 : 20 20 20 20 20 20 20 20  20 20 20 20 20 32 30 31                201
0330 : 35 30 35 31 37 31 37 30  30 30 30 30 30 E4 30 30   5051717000000.00
0340 : 30 30 30 30 30 30 30 30  30 30 30 30 30 30 00 30   00000000000000.0
0350 : 30 30 30 30 30 30 30 30  30 30 30 30 30 30 30 00   000000000000000.
0360 : 30 30 30 30 30 30 30 30  30 30 30 30 30 30 30 30   0000000000000000
0370 : 00 01 00 00 00 00 00 00  00 00 00 00 00 00 00 00   ................

    Security Sector Ranges:

12544-16639
4246304-4250399

Size & Checksum:
    Layerbreak: 2133520
    Size: 8738846720
    CRC32: eb671ae3
    MD5: d30039f53c5b8fb5f22d0ec741706a3f
    SHA1: 411785a0a997a205c6583cfcd946e730c02d0d26

3

(0 replies, posted in Verifications)

http://redump.org/disc/39239/

Common Disc Info:
    Title: LEGO Marvel Super Heroes
    Foreign Title (Non-latin): 
    Disc Number / Letter:
    Disc Title: 
    System: Microsoft XBOX 360
    Media Type: DVD-ROM-9
    Category: Games
    Region: USA
    Languages: Danish, Dutch, English, French, German, Italian, Polish, Portuguese, Russian, Spanish
    Disc Serial: WR-2101

    Ringcode Information:
        Inner Mastering Code (laser branded/etched): 2B718CEF-L0 23 +    +
        Inner Mastering SID Code: IFPI LB41
        Inner Toolstamp or Mastering Code (engraved/stamped): N/A
        Outer Mastering Code (laser branded/etched): 2B718CEF-L1 24 +    +
        Outer Mastering SID Code: IFPI LB41
        Outer Toolstamp or Mastering Code (engraved/stamped): N/A
        Data-Side Mould SID Code: IFPI 10G2
        Label-Side Mould SID Code: IFPI 10M4
        Additional Mould: 
    Barcode: 8 83929 31970 1
    Comments:

DMI.bin Hashes: <rom name="DMI.bin" size="2048" crc="5c9babf3" md5="63238ea757b0bde45e8f9fdd49e8f7b7" sha1="526fcb62737deafca88bc053545bfb4082684e39"/>
PFI.bin Hashes: <rom name="PFI.bin" size="2048" crc="26af4c58" md5="52eb1d6df4e495e7a71622700d191abb" sha1="54c3eb442f55adfc179ef44f81497be8a7b3f5f6"/>
SS.bin Hashes: 
Security Sector Version: 02

    Contents: 

Version and Editions:
    Version: 1.01
    Edition/Release: Original

Extras:
    Primary Volume Descriptor (PVD):

0320 : 20 20 20 20 20 20 20 20  20 20 20 20 20 32 30 31                201
0330 : 33 30 39 31 37 31 37 30  30 30 30 30 30 E4 30 30   3091717000000.00
0340 : 30 30 30 30 30 30 30 30  30 30 30 30 30 30 00 30   00000000000000.0
0350 : 30 30 30 30 30 30 30 30  30 30 30 30 30 30 30 00   000000000000000.
0360 : 30 30 30 30 30 30 30 30  30 30 30 30 30 30 30 30   0000000000000000
0370 : 00 01 00 00 00 00 00 00  00 00 00 00 00 00 00 00   ................

    Security Sector Ranges:

12544-16639
4246304-4250399

Size & Checksum:
    Layerbreak: 2133520
    Size: 8738846720
    CRC32: 0383bacf
    MD5: 71b696bcd0437da514d371c0590dbb07
    SHA1: e283e5377ab0dcb2ee84a52bd58e1890a411f3c7

4

(0 replies, posted in Verifications)

http://redump.org/disc/82129/

Common Disc Info:
    Title: Scrabble Complete
    Disc Number / Letter: 
    Disc Title: 
    System: IBM PC compatible
    Media Type: CD-ROM
    Category: Games
    Matching IDs: 82129
    Region: USA
    Languages: English
    Disc Serial: 11290-CD v1.0 S

    Ringcode Information:
        Data Side Mastering Code (laser branded/etched): E11290-CD    +    +    FD24801
        Data Side Mastering SID Code: IFPI L028
        Data Side Toolstamp or Mastering Code (engraved/stamped): 
        Data Side Mould SID Code: IFPI 1085
        Data Side Additional Mould: 
        Label Side Mould SID Code: 
    Barcode: 7 05381 11290 7
    Error Count: 0
    Comments: 
    Contents: 

Version and Editions:
    Version: 
    Edition/Release: Original

Extras:
    Primary Volume Descriptor (PVD):

0320 : 20 20 20 20 20 20 20 20  20 20 20 20 20 32 30 30                200
0330 : 32 30 39 30 34 31 31 34  32 35 38 30 30 00 32 30   2090411425800.20
0340 : 30 32 30 39 30 34 31 31  34 32 35 38 30 30 00 30   02090411425800.0
0350 : 30 30 30 30 30 30 30 30  30 30 30 30 30 30 30 00   000000000000000.
0360 : 30 30 30 30 30 30 30 30  30 30 30 30 30 30 30 30   0000000000000000
0370 : 00 01 00 00 00 00 00 00  00 00 00 00 00 00 00 00   ................

Copy Protection:
    Copy Protection:

Tracks and Write Offsets:
    DAT:

<rom name="ScrabbleComplete.bin" size="224639520" crc="9e91f1eb" md5="763e74a1836fc1ad324756c9c6b4f27b" sha1="38f25af9aca4d568b9346f0b95ee6def031a0e42" />

    Cuesheet:

FILE "ScrabbleComplete.bin" BINARY
  TRACK 01 MODE1/2352
    INDEX 01 00:00:00

    Write Offset: -12

Logs: https://cdn.discordapp.com/attachments/ … e_logs.zip

http://redump.org/disc/60419/

Common Disc Info:
    Title: 7 Wonders of the Ancient World
    Disc Number / Letter: 
    Disc Title: 
    System: IBM PC compatible
    Media Type: CD-ROM
    Category: Games
    Matching IDs: 60419
    Region: USA
    Languages: English
    Disc Serial: 

    Ringcode Information:
        Data Side Mastering Code (laser branded/etched): 1026-10270 7 Wonders    [3]    20-35339
        Data Side Mastering SID Code: IFPI LM62
        Data Side Toolstamp or Mastering Code (engraved/stamped): 
        Data Side Mould SID Code: IFPI HK01
        Data Side Additional Mould: 
        Label Side Mould SID Code: 
    Barcode: 
    Error Count: 0
    Comments: 
    Contents: 

Version and Editions:
    Version: 
    Edition/Release: Original 

Extras:
    Primary Volume Descriptor (PVD):

0320 : 20 20 20 20 20 20 20 20  20 20 20 20 20 32 30 30                200
0330 : 36 30 33 31 33 31 37 34  39 30 37 32 39 E8 32 30   6031317490729.20
0340 : 30 36 30 33 31 33 31 37  34 39 30 37 32 39 E8 32   06031317490729.2
0350 : 31 30 36 30 33 31 33 31  37 34 39 30 37 32 39 E8   106031317490729.
0360 : 32 30 30 36 30 33 31 33  31 37 34 39 30 37 32 39   2006031317490729
0370 : E8 01 00 00 00 00 00 00  00 00 00 00 00 00 00 00   ................

Copy Protection:
    Copy Protection: 

Tracks and Write Offsets:
    DAT:

<rom name="7_Wonders.bin" size="327591264" crc="21bd5330" md5="9f1d127e197fb141f110badf0c2a9640" sha1="2b9746448a56d8245e694a2cbc9f80363233025a" />

    Cuesheet:

FILE "7_Wonders.bin" BINARY
  TRACK 01 MODE1/2352
    INDEX 01 00:00:00

    Write Offset: 0

Logs: https://cdn.discordapp.com/attachments/ … s_logs.zip

http://redump.org/disc/70261/

Common Disc Info:
    Title: Nickelodeon Jimmy Neutron: Boy Genius
    Disc Number / Letter: 
    Disc Title: 
    System: IBM PC Compatible
    Media Type: CD-ROM
    Category: Games
    Matching IDs: 70261
    Region: USA
    Languages: English
    Disc Serial: 

    Ringcode Information:
        Data Side Mastering Code (laser branded/etched): METATEC    R6H6605CC
        Data Side Mastering SID Code: 
        Data Side Toolstamp or Mastering Code (engraved/stamped): 
        Data Side Mould SID Code: IFPI 9B75
        Data Side Additional Mould: 
        Label Side Mould SID Code: 
    Barcode: 
    Error Count: 0
    Comments: 
    Contents: 

Version and Editions:
    Version: 
    Edition/Release: Original 

Extras:
    Primary Volume Descriptor (PVD):

0320 : 20 20 20 20 20 20 20 20  20 20 20 20 20 32 30 30                200
0330 : 31 31 30 30 31 31 37 32  37 33 38 39 31 E0 32 30   1100117273891.20
0340 : 30 31 31 30 30 31 31 37  32 37 33 38 39 31 E0 32   01100117273891.2
0350 : 31 30 31 31 30 30 31 31  37 32 37 33 38 39 31 E0   101100117273891.
0360 : 32 30 30 31 31 30 30 31  31 37 32 37 33 38 39 31   2001100117273891
0370 : E0 01 00 00 00 00 00 00  00 00 00 00 00 00 00 00   ................

Copy Protection:
    Copy Protection: None

Tracks and Write Offsets:
    DAT:

<rom name="J_NeutronPC.bin" size="161222544" crc="8fda7db3" md5="73a60c2f683537e6a3fbc68b816089f5" sha1="6ec62e614b9ed6b149e854bb1daf513bc83b3ce9" />

    Cuesheet:

FILE "J_NeutronPC.bin" BINARY
  TRACK 01 MODE1/2352
    INDEX 01 00:00:00

    Write Offset: -12

Logs: https://cdn.discordapp.com/attachments/ … C_logs.zip

7

(0 replies, posted in Verifications)

http://redump.org/disc/35164

Common Disc Info:
    Title: LEGO Creator
    Disc Number / Letter: 
    Disc Title: 
    System: IBM PC Compatible
    Media Type: CD-ROM
    Category: Games
    Matching IDs: 35164
    Region: USA
    Languages: English
    Disc Serial: 

    Ringcode Information:
        Data Side Mastering Code (laser branded/etched): CD-ROM DADR 1GHX2<2019>CREATORREP
        Data Side Mastering SID Code: IFPI L482
        Data Side Toolstamp or Mastering Code (engraved/stamped): 
        Data Side Mould SID Code: IFPI 8104
        Data Side Additional Mould: 
        Label Side Mould SID Code: 
    Barcode: 6 63338 00648 1
    Error Count: 0
    Comments: [T:ISBN]: 1-893018-73-3
    Contents: 

Version and Editions:
    Version: 1.00.12
    Edition/Release: Original 

Extras:
    Primary Volume Descriptor (PVD):

0320 : 20 20 20 20 20 20 20 20  20 20 20 20 20 31 39 39                199
0330 : 38 31 30 30 32 31 30 31  34 30 30 30 30 00 31 39   8100210140000.19
0340 : 39 38 31 30 30 32 31 30  31 34 30 30 30 30 00 32   98100210140000.2
0350 : 30 30 38 30 39 32 39 31  30 31 34 30 30 30 30 00   008092910140000.
0360 : 31 39 39 38 31 30 30 32  31 30 31 34 30 30 30 30   1998100210140000
0370 : 00 01 00 00 00 00 00 00  00 00 00 00 00 00 00 00   ................

Copy Protection:
    Copy Protection: None

Tracks and Write Offsets:
    DAT:

<rom name="Creator.bin" size="398838048" crc="e8539d38" md5="38f1bf419cd9f755efd309abb8ad1928" sha1="80dafee56e40da08ff7cea418e7ea0374ae6c147" />

    Cuesheet:

FILE "Creator.bin" BINARY
  TRACK 01 MODE1/2352
    INDEX 01 00:00:00

    Write Offset: -12

Logs: https://cdn.discordapp.com/attachments/ … r_logs.zip

http://redump.org/disc/59451

Common Disc Info:
    Title: Who Wants to Be a Millionaire: 3rd Edition
    Disc Number / Letter: 
    Disc Title: 
    System: IBM PC Compatible
    Media Type: CD-ROM
    Category: Games
    Matching IDs: 59451
    Region: USA
    Languages: English
    Disc Serial: G0388

    Ringcode Information:
        Data Side Mastering Code (laser branded/etched): FM \ CA    175632 G0388
        Data Side Mastering SID Code: IFPI LG33
        Data Side Toolstamp or Mastering Code (engraved/stamped): C01 M01 S01
        Data Side Mould SID Code: IFPI 3V15
        Data Side Additional Mould: 
        Label Side Mould SID Code: 
    Barcode: 0 44702 01469 9
    Error Count: 0
    Comments:

[T:ISBN]: 1-57350-493-9

PC/Mac Hybrid

    Contents: 

Version and Editions:
    Version: 1.0
    Edition/Release: Original

Extras:
    Primary Volume Descriptor (PVD):

0320 : 20 20 20 20 20 20 20 20  20 20 20 20 20 32 30 30                200
0330 : 31 30 34 32 37 31 35 32  39 30 37 30 30 00 32 30   1042715290700.20
0340 : 30 31 30 34 33 30 31 32  35 33 34 34 30 30 00 00   01043012534400..
0350 : 00 00 00 00 00 00 00 00  00 00 00 00 00 00 00 00   ................
0360 : 00 00 00 00 00 00 00 00  00 00 00 00 00 00 00 00   ................
0370 : 00 01 00 00 00 00 00 00  00 00 00 00 00 00 00 00   ................

Copy Protection:
    Copy Protection: None

Tracks and Write Offsets:
    DAT:

<rom name="WWTBAM3E.bin" size="719552064" crc="b387aa7a" md5="81d5369952174d0f28a3c438a1b2a201" sha1="129265be4717cc278c6f023099a9ad90b12c4018" />

    Cuesheet:

FILE "WWTBAM3E.bin" BINARY
  TRACK 01 MODE1/2352
    INDEX 01 00:00:00

    Write Offset: -12

Logs: https://cdn.discordapp.com/attachments/ … E_logs.zip

9

(0 replies, posted in Verifications)

http://redump.org/disc/28865/

Common Disc Info:
    Title: Tonka Space Station
    Disc Number / Letter: 
    Disc Title: 
    System: IBM PC Compatible
    Media Type: CD-ROM
    Category: Games
    Matching IDs: 28865
    Region: USA
    Languages: English
    Disc Serial: Product# 99583

    Ringcode Information:
        Data Side Mastering Code (laser branded/etched): 99583    + +    A3235-01
        Data Side Mastering SID Code: IFPI LB48
        Data Side Toolstamp or Mastering Code (engraved/stamped): 
        Data Side Mould SID Code: IFPI 1004
        Data Side Additional Mould: 
        Label Side Mould SID Code: 
    Barcode: 
    Error Count: 0
    Comments: 
    Contents: 

Version and Editions:
    Version: 
    Edition/Release: Original

Extras:
    Primary Volume Descriptor (PVD):

0320 : 20 20 20 20 20 20 20 20  20 20 20 20 20 32 30 30                200
0330 : 30 31 30 31 31 32 32 30  34 30 39 30 30 00 32 30   0101122040900.20
0340 : 30 30 31 30 31 31 32 32  30 34 30 39 30 30 00 30   00101122040900.0
0350 : 30 30 30 30 30 30 30 30  30 30 30 30 30 30 30 00   000000000000000.
0360 : 30 30 30 30 30 30 30 30  30 30 30 30 30 30 30 30   0000000000000000
0370 : 00 01 00 00 00 00 00 00  00 00 00 00 00 00 00 00   ................

Copy Protection:
    Copy Protection: None

Tracks and Write Offsets:
    DAT:

<rom name="SpaceStation.bin" size="373706928" crc="ba15f6f7" md5="15186c28edeb381bc6a03e7b4676ac7c" sha1="d1370630da67600890367de69f2169a35240fecc" />

    Cuesheet:

FILE "SpaceStation.bin" BINARY
  TRACK 01 MODE1/2352
    INDEX 01 00:00:00

    Write Offset: -12

Logs: https://cdn.discordapp.com/attachments/ … n_logs.zip

This entry contains remnants of SecuROM 7.00.00.0001. http://redump.org/disc/20434/

This entry should have a note made that it contains the main executable that itself contains SafeDisc 3.20.020, but that this disc itself isn't protected by SafeDisc. http://redump.org/disc/64358/

I will be updating this thread as I find new issues.

All of these should be marked as having "SafeDisc 2.70.030"
http://redump.org/disc/13048/
http://redump.org/disc/13049/
http://redump.org/disc/13050/

13

(1 replies, posted in Guests & account requests)

Hey, I'd like wiki access so I can actively maintain the page on 0800 drives as I research more information about them.

14

(2 replies, posted in Guests & account requests)

Thank you very much! I didn't realize the account got made, sorry about that.