Verify: http://redump.org/disc/42262/
Output: https://drive.google.com/open?id=1Uc-_D … q5Zd1P31A6
Pics: https://drive.google.com/open?id=15xXaz … y6xC0oqt0C

Please add VERSION Number. Also, I noticed there is no serial # on this CD, but on the current datted game there is.


Title: Hot Wheels: Stunt Track Driver
Disc Number / Letter:
Disc Title:
System: IBM PC Compatible
Media Type: CD-ROM
Category: Games
Region: USA
Languages: English
Disc Serial:
Ringcode Information:
    Mastering Code (laser branded/etched): THQ0100604 0448006034
    Mastering SID Code: IFPI L771
    Data-Side Mould SID Code: ifpi 2A41
    Label-Side Mould SID Code:
    Additional Mould:
    Toolstamp or Mastering Code (engraved/stamped):
Barcode:
ISBN:
Error Count: 0
Comments:
Contents:
Version: 1.0
Edition/Release: Original
Primary Volume Descriptor (PVD):

0320 : 20 20 20 20 20 20 20 20  20 20 20 20 20 31 39 39                199
0330 : 38 30 39 31 30 31 34 35  35 35 32 30 30 00 31 39   8091014555200.19
0340 : 39 38 30 39 31 30 31 34  35 35 35 32 30 30 00 32   98091014555200.2
0350 : 30 30 38 30 39 30 37 31  34 35 35 35 32 30 30 00   008090714555200.
0360 : 31 39 39 38 30 39 31 30  31 34 35 35 35 32 30 30   1998091014555200
0370 : 00 01 00 00 00 00 00 00  00 00 00 00 00 00 00 00   ................

Copy Protection: None found

DAT:

<rom name="Sle.bin" size="618742992" crc="28916a6e" md5="9ccbfd608173104425c6909793f0425b" sha1="a504b100d6365d953b8d0a54e9ad6fcfd91fd9fa" />

Cuesheet:

FILE "Sle.bin" BINARY
  TRACK 01 MODE1/2352
    INDEX 01 00:00:00

Write Offset: -22

Verify: http://redump.org/disc/56346/

So yet another copy of this game. I seem to get this game in every game lot I buy sad
If I see this game one more time, I will stop dumping.

Output https://drive.google.com/open?id=1KRcvb … xeZcKCBz6J
Images https://drive.google.com/open?id=1xMR5c … KFlsb0Z58_


Title: Pokémon Project Studio: Red Version
Disc Number / Letter:
Disc Title:
System: IBM PC Compatible
Media Type: CD-ROM
Category: Games
Region: USA
Languages: English
Disc Serial: 378643-CD
Ringcode Information:
    Mastering Code (laser branded/etched): 378643-CD    + +    03616-01
    Mastering SID Code: IFPI LB48
    Data-Side Mould SID Code: IFPI 1006
    Label-Side Mould SID Code:
    Additional Mould:
    Toolstamp or Mastering Code (engraved/stamped):
Barcode:
ISBN:
Error Count: 0
Comments:
Contents:
Version: 1.0
Edition/Release: Original
Primary Volume Descriptor (PVD):

0320 : 20 20 20 20 20 20 20 20  20 20 20 20 20 31 39 39                199
0330 : 39 31 30 32 38 32 32 31  34 35 33 30 30 00 31 39   9102822145300.19
0340 : 39 39 31 30 32 38 32 32  31 35 30 34 30 30 00 00   99102822150400..
0350 : 00 00 00 00 00 00 00 00  00 00 00 00 00 00 00 00   ................
0360 : 00 00 00 00 00 00 00 00  00 00 00 00 00 00 00 00   ................
0370 : 00 01 00 00 00 00 00 00  00 00 00 00 00 00 00 00   ................

Copy Protection: None found

DAT:

<rom name="PPS_Red.bin" size="209217456" crc="f8a921a5" md5="adcbab36d67193cf19b9e250b9db06ca" sha1="071cf13a62cac47668c0c072c2ad9eea500178bf" />

Cuesheet:

FILE "PPS_Red.bin" BINARY
  TRACK 01 MODE1/2352
    INDEX 01 00:00:00

Write Offset: -12

3

(0 replies, posted in Verifications)

Verify: http://redump.org/disc/51287/

Output: https://drive.google.com/open?id=158gnp … JXNNZ3bvdS
Images: https://drive.google.com/open?id=14lZPv … REMogn75MP

Everything Matches

Title: The Italian Job
Disc Number / Letter:
Disc Title:
System: IBM PC Compatible
Media Type: CD-ROM
Category: Games
Region: USA
Languages: English
Disc Serial:
Ringcode Information:
    Mastering Code (laser branded/etched): Made in Canada by Saturn    ST3012207B    GLS00289
    Mastering SID Code: IFPI LG07
    Data-Side Mould SID Code: IFPI 9L01
    Label-Side Mould SID Code:
    Additional Mould:
    Toolstamp or Mastering Code (engraved/stamped):
Barcode:
ISBN:
Error Count: 0
Comments:
Contents:
Version:
Edition/Release: Original
Primary Volume Descriptor (PVD):

0320 : 20 20 20 20 20 20 20 20  20 20 20 20 20 32 30 30                200
0330 : 32 30 37 31 31 31 36 31  35 30 30 30 30 F0 32 30   2071116150000.20
0340 : 30 32 30 37 31 31 31 36  31 35 30 30 30 30 F0 30   02071116150000.0
0350 : 30 30 30 30 30 30 30 30  30 30 30 30 30 30 30 00   000000000000000.
0360 : 30 30 30 30 30 30 30 30  30 30 30 30 30 30 30 30   0000000000000000
0370 : 00 01 00 00 00 00 00 00  00 00 00 00 00 00 00 00   ................

Copy Protection: None found

DAT:

<rom name="Italian Job.bin" size="752040240" crc="e0ba0ae4" md5="e8dd0b2f96cb53e4ebaf9088118cf2ff" sha1="3e204e2bb22202bf8238250e17db624decf3da09" />

Cuesheet:

FILE "Italian Job.bin" BINARY
  TRACK 01 MODE1/2352
    INDEX 01 00:00:00

Write Offset: -12

4

(0 replies, posted in Verifications)

Verify: http://redump.org/disc/59695/
Output:  https://drive.google.com/open?id=1k-J6f … rpWgc9_vf8
Images: https://drive.google.com/open?id=1HfPNC … fedim-jzlb

Ringcodes are different.

Title: Reader Rabbit 2 Deluxe!
Disc Number / Letter:
Disc Title:
System: IBM PC Compatible
Media Type: CD-ROM
Category: Educational
Region: USA
Languages: English
Disc Serial: 59390-CD
Ringcode Information:
    Mastering Code (laser branded/etched): *59390 Z6922E
    Mastering SID Code: IFPI L533
    Data-Side Mould SID Code: IFPI 9218
    Label-Side Mould SID Code:
    Additional Mould:
    Toolstamp or Mastering Code (engraved/stamped):
Barcode:
ISBN:
Error Count: 0
Comments:

PC/Mac Hybrid
Windows Version 1.1
Macintosh Version 1.01

Contents:
Version: 1.1
Edition/Release: Deluxe
Primary Volume Descriptor (PVD):

0320 : 20 20 20 20 20 20 20 20  20 20 20 20 20 31 39 39                199
0330 : 33 30 33 30 33 31 30 30  37 30 37 30 30 30 31 39   3030310070700019
0340 : 39 33 30 33 30 33 31 30  30 37 30 37 30 30 30 31   9303031007070001
0350 : 39 39 33 30 33 30 33 31  30 30 37 30 37 30 30 30   9930303100707000
0360 : 31 39 39 33 30 33 30 33  31 30 30 37 30 37 30 30   1993030310070700
0370 : 30 01 00 00 00 00 00 00  00 00 00 00 00 00 00 00   0...............

Copy Protection: None found

DAT:

<rom name="RR2CD.bin" size="298518192" crc="1a6891af" md5="da73c51f5178d4fa175a2471ed6374fb" sha1="dafd322e1e6739722007a9d63e2afd5d9e86ce5a" />

Cuesheet:

FILE "RR2CD.bin" BINARY
  TRACK 01 MODE1/2352
    INDEX 01 00:00:00

Write Offset: 0

5

(0 replies, posted in Verifications)

Verify: http://redump.org/disc/28708/
Output: https://drive.google.com/open?id=1hvAYh … EISQCovHmK
Images: https://drive.google.com/open?id=1A9NJl … GSBHul5-aq

Please add ISBN and Barcode:   Ringcodes are different.

Title: LEGO Rock Raiders
Disc Number / Letter:
Disc Title:
System: IBM PC Compatible
Media Type: CD-ROM
Category: Games
Region: USA
Languages: English
Disc Serial: Part # 2299691
Ringcode Information:
    Mastering Code (laser branded/etched):CD-ROM DADR 1RNR3<2019>ROCKRAIDERS
    Mastering SID Code: IFPI L481
    Data-Side Mould SID Code: IFPI 8103
    Label-Side Mould SID Code:
    Additional Mould:
    Toolstamp or Mastering Code (engraved/stamped):
Barcode: 6 6333800873 7
ISBN: 1-893018-84-9

Error Count: 798
Comments:
Contents:
Version:
Edition/Release: Original
Primary Volume Descriptor (PVD):

0320 : 20 20 20 20 20 20 20 20  20 20 20 20 20 31 39 39                199
0330 : 39 31 30 31 32 30 32 34  31 35 34 30 30 00 31 39   9101202415400.19
0340 : 39 39 31 30 31 32 30 32  34 31 35 34 30 30 00 30   99101202415400.0
0350 : 30 30 30 30 30 30 30 30  30 30 30 30 30 30 30 00   000000000000000.
0360 : 30 30 30 30 30 30 30 30  30 30 30 30 30 30 30 30   0000000000000000
0370 : 00 01 00 00 00 00 00 00  00 00 00 00 00 00 00 00   ................

Copy Protection: F:\00000001.TMP: SafeDisc v1 or greater
F:\00000409.016: SafeDisc 1
F:\00000409.256: SafeDisc 1
F:\clcd16.dll: SafeDisc
F:\clcd32.dll: SafeDisc
F:\clokspl.exe: SafeDisc
F:\dplayerx.dll: SafeDisc 1.30.010
F:\drvmgt.dll: SafeDisc 1.1x-1.3x
F:\secdrv.sys: SafeDisc v2 or greater
F:\EXE\LegoRR.exe: SafeDisc 1.30.010
F:\EXE\LegoRR.icd: SafeDisc 1.30.010

DAT:

<rom name="ROCKRAIDERS (Track 1).bin" size="644057568" crc="b242792f" md5="685253138cebfaf77fa4470372a97092" sha1="33195219e688c03ea2fb584c6ba709709ef17c43" />
<rom name="ROCKRAIDERS (Track 2).bin" size="32624592" crc="5bda117c" md5="0a94ccf43ca3363ced3a248ade942dee" sha1="647b0196e5043b64f9fb4d7e2544a6ac158c0d38" />
<rom name="ROCKRAIDERS (Track 3).bin" size="37335648" crc="8608a254" md5="b4ba3066260d2a105e7aab9f841727a5" sha1="3f066968e0cf74a276b0db576977db13681ab417" />
<rom name="ROCKRAIDERS (Track 4).bin" size="32923296" crc="da150735" md5="cd8105674605aec08a262079f7a61033" sha1="6bedc5b7c414ad184b2c007272510eca69d89551" />

Cuesheet:

FILE "ROCKRAIDERS (Track 1).bin" BINARY
  TRACK 01 MODE1/2352
    INDEX 01 00:00:00
FILE "ROCKRAIDERS (Track 2).bin" BINARY
  TRACK 02 AUDIO
    INDEX 00 00:00:00
    INDEX 01 00:02:00
FILE "ROCKRAIDERS (Track 3).bin" BINARY
  TRACK 03 AUDIO
    INDEX 01 00:00:00
FILE "ROCKRAIDERS (Track 4).bin" BINARY
  TRACK 04 AUDIO
    INDEX 01 00:00:00

Write Offset: -12

http://redump.org/disc/59656/
Output: https://drive.google.com/open?id=1JXvpM … IrGNgaGvDJ
Images: https://drive.google.com/open?id=1tyCem … d09p7YrpNt


Mastering Code (laser branded/etched is slightly different. And there is no Serial #.

Title: Aesop's Fable: The Tortoise and the Hare
Disc Number / Letter:
Disc Title:
System: IBM PC Compatible
Media Type: CD-ROM
Category: Educational
Region: USA
Languages: English
Disc Serial:
Ringcode Information:                                       
    Mastering Code (laser branded/etched): C1    100752-01    4919920    Technicolor
    Mastering SID Code:                
    Data-Side Mould SID Code:
    Label-Side Mould SID Code:
    Additional Mould:
    Toolstamp or Mastering Code (engraved/stamped):
Barcode:
ISBN:
Error Count: 0
Comments: PC/Mac Hybrid
Contents:

Playable Demos:
Arthur's Teacher Trouble
Just Grandma and Me
The New Kid on the Block

Version:
Edition/Release: Original
Primary Volume Descriptor (PVD):

0320 : 20 20 20 20 20 20 20 20  20 20 20 20 20 31 39 39                199
0330 : 34 30 32 30 33 31 36 31  33 33 32 30 30 00 31 39   4020316133200.19
0340 : 39 34 30 32 30 33 31 36  31 33 33 32 30 30 00 30   94020316133200.0
0350 : 30 30 30 30 30 30 30 30  30 30 30 30 30 30 30 00   000000000000000.
0360 : 30 30 30 30 30 30 30 30  30 30 30 30 30 30 30 30   0000000000000000
0370 : 00 01 00 00 00 00 00 00  00 00 00 00 00 00 00 00   ................

Copy Protection: None found

DAT:

<rom name="TORTOISE (Track 1).bin" size="283129056" crc="ea417d67" md5="e6c588c2fca240a46bdf4092d7422785" sha1="129133ec042dd05832ab94b833c3fd55acdadeb7" />
<rom name="TORTOISE (Track 2).bin" size="8801184" crc="d46b9922" md5="229d88781bb43ed3a4499eaad4e0f29a" sha1="2ad09706aed0fc3811c36e4990f18fe84a1ba6f2" />
<rom name="TORTOISE (Track 3).bin" size="11957568" crc="6fa52ccd" md5="c5aca0f8e8a5f8a28c609ca311886e25" sha1="a17a9be34b9d24c16d237749dffe82a0cefa13f2" />
<rom name="TORTOISE (Track 4).bin" size="12729024" crc="0bbe56ae" md5="fa11c9aa3ba05a7b20a03b90986c1770" sha1="2d1ffaeecef5d8dd9d27a6dc324c5022c26a0869" />
<rom name="TORTOISE (Track 5).bin" size="18053952" crc="77a6b05c" md5="f084938ab9b6ba10457469ef736d35d1" sha1="462db7000629f2bca300143a9360b2a55472d126" />
<rom name="TORTOISE (Track 6).bin" size="8326080" crc="6a957bf7" md5="99ce0ffe88eeb7daed30559f4229a21e" sha1="54fdf648936687780acb6eaca31a625968b70a83" />
<rom name="TORTOISE (Track 7).bin" size="26732832" crc="665cc800" md5="5dce9f9215aeaf745ac49d5bfe91fbe6" sha1="a216593edeb1f35af383e72d2add7fd325be9f65" />

Cuesheet:

FILE "TORTOISE (Track 1).bin" BINARY
  TRACK 01 MODE1/2352
    INDEX 01 00:00:00
FILE "TORTOISE (Track 2).bin" BINARY
  TRACK 02 AUDIO
    INDEX 00 00:00:00
    INDEX 01 00:02:00
FILE "TORTOISE (Track 3).bin" BINARY
  TRACK 03 AUDIO
    INDEX 01 00:00:00
FILE "TORTOISE (Track 4).bin" BINARY
  TRACK 04 AUDIO
    INDEX 01 00:00:00
FILE "TORTOISE (Track 5).bin" BINARY
  TRACK 05 AUDIO
    INDEX 01 00:00:00
FILE "TORTOISE (Track 6).bin" BINARY
  TRACK 06 AUDIO
    INDEX 01 00:00:00
FILE "TORTOISE (Track 7).bin" BINARY
  TRACK 07 AUDIO
    INDEX 01 00:00:00

Write Offset: -22

Verify: http://redump.org/disc/43389/
Images: https://drive.google.com/open?id=1a3cw4 … O32xwk15a0
Output: https://drive.google.com/open?id=1C_PsK … Xaz6hJiTYI

Mould SID Code is different. Everything else matches.

Title: Battleship: Surface Thunder
Disc Number / Letter:
Disc Title:
System: IBM PC Compatible
Media Type: CD-ROM
Category: Games
Region: USA
Languages: English
Disc Serial: Product # 99198
Ringcode Information:
    Mastering Code (laser branded/etched): 99198    + +    A1868-01
    Mastering SID Code: IFPI LB48
    Data-Side Mould SID Code: IFPI 1073
    Label-Side Mould SID Code:
    Additional Mould:
    Toolstamp or Mastering Code (engraved/stamped):
Barcode:
ISBN:
Error Count: 0
Comments:
Contents:
Version: 1.0
Edition/Release: Original
Primary Volume Descriptor (PVD):

0320 : 20 20 20 20 20 20 20 20  20 20 20 20 20 32 30 30                200
0330 : 30 30 38 33 31 31 39 35  32 31 34 30 30 00 32 30   0083119521400.20
0340 : 30 30 30 38 33 31 31 39  35 32 31 34 30 30 00 30   00083119521400.0
0350 : 30 30 30 30 30 30 30 30  30 30 30 30 30 30 30 00   000000000000000.
0360 : 30 30 30 30 30 30 30 30  30 30 30 30 30 30 30 30   0000000000000000
0370 : 00 01 00 00 00 00 00 00  00 00 00 00 00 00 00 00   ................

Copy Protection: None found

DAT:

<rom name="SURFACETHUNDER.bin" size="235235280" crc="fb5a8cb9" md5="0677f7bdd507fca5d8719f8679e1d4b4" sha1="55c196f823e84c82ec6e4883cabcadaedd354ae9" />

Cuesheet:

FILE "SURFACETHUNDER.bin" BINARY
  TRACK 01 MODE1/2352
    INDEX 01 00:00:00

Write Offset: -12

8

(1 replies, posted in Verifications)

Sorry if double posting, but I can't remember if I already posted this once.

Verify: http://redump.org/disc/61688/
Pics: https://drive.google.com/open?id=1Pw1aT … fK-fcC-TM-
Output Files: https://drive.google.com/open?id=1I3U4- … SzUKclz1fc

Please add ISBN # , Rerelease?

Title: Mario Teaches Typing 2
Disc Number / Letter:
Disc Title
System: IBM PC Compatible
Media Type: CD-ROM
Category: Educational
Region: USA
Languages: English
Disc Serial: DP7
Ringcode Information:
    Mastering Code (laser branded/etched): *1R8 57629018    B
    Mastering SID Code: IFPI L433
    Data-Side Mould SID Code: IFPI 7494
    Label-Side Mould SID Code:
    Additional Mould:
    Toolstamp or Mastering Code (engraved/stamped): A10
Barcode:
ISBN: 57629018
Error Count: 0
Comments:PC/Mac Hybrid
Contents:

Playable Demos:
Chess Mates
Drawing Discoveries
Mario's Fundamentals v1.1

Version: 2.0
Edition/Release: Rerelease, Scholastic Clubs and Fairs
Primary Volume Descriptor (PVD):

0320 : 20 20 20 20 20 20 20 20  20 20 20 20 20 31 39 39                199
0330 : 37 30 33 31 32 31 30 34  36 33 31 30 30 00 31 39   7031210463100.19
0340 : 39 37 30 33 31 32 31 30  34 36 33 31 30 30 00 30   97031210463100.0
0350 : 30 30 30 30 30 30 30 30  30 30 30 30 30 30 30 00   000000000000000.
0360 : 30 30 30 30 30 30 30 30  30 30 30 30 30 30 30 30   0000000000000000
0370 : 00 01 00 00 00 00 00 00  00 00 00 00 00 00 00 00   ................

Copy Protection: None found

DAT:

<rom name="MARIO2.bin" size="764877456" crc="1e1f928b" md5="018b984588be20e8afd4afc4433a2d9d" sha1="1236866fd38567e09ef9ff4dad3157cce20d2879" />

Cuesheet:

CATALOG 0000000000000
FILE "MARIO2.bin" BINARY
  TRACK 01 MODE1/2352
    INDEX 01 00:00:00

Write Offset: 0

9

(0 replies, posted in Verifications)

Verify: http://redump.org/disc/8841/

Everything matches except for Data-Side Mould SID Code: IFPI 1025

Pics: https://drive.google.com/open?id=1mfNid … 2JAHHQGBMr
Output: https://drive.google.com/open?id=1ut6iZ … bSJG0cyzV1

Title: World of Goo
Disc Number / Letter:
Disc Title:
System: IBM PC Compatible
Media Type: CD-ROM
Category: Games
Region: USA
Languages: English, French, German
Disc Serial: P/N 61276-CD
Ringcode Information:
    Mastering Code (laser branded/etched): BRM61276-1    arvato digital services BERTELSMANN + + HT96001
    Mastering SID Code: IFPI L028
    Data-Side Mould SID Code: IFPI 1025
    Label-Side Mould SID Code:
    Additional Mould:
    Toolstamp or Mastering Code (engraved/stamped):
Barcode: 6 12761 61276 9
ISBN:
Error Count: 0
Comments: PC/Mac Hybrid
Contents:
Version: 1.2
Edition/Release: Original
Primary Volume Descriptor (PVD):

0320 : 20 20 20 20 20 20 20 20  20 20 20 20 20 32 30 30                200
0330 : 38 31 31 30 34 31 35 34  32 32 37 30 30 00 32 30   8110415422700.20
0340 : 30 38 31 31 30 34 31 35  34 38 32 32 30 30 00 30   08110415482200.0
0350 : 30 30 30 30 30 30 30 30  30 30 30 30 30 30 30 00   000000000000000.
0360 : 30 30 30 30 30 30 30 30  30 30 30 30 30 30 30 30   0000000000000000
0370 : 00 01 00 00 00 00 00 00  00 00 00 00 00 00 00 00   ................

Copy Protection: None found

DAT:

<rom name="World of Goo.bin" size="150440976" crc="37dbdb18" md5="500211bd1fd695378b268de580b4cf57" sha1="15ce428baf9c8df5f09d55f5bbbd993d6cbd44ea" />

Cuesheet:

FILE "World of Goo.bin" BINARY
  TRACK 01 MODE1/2352
    INDEX 01 00:00:00

Write Offset: -12

10

(0 replies, posted in Verifications)

Another copy of Sim Theme Park I got.

Matches: http://redump.org/disc/30195/
The only thing different is Data-Side Mould SID Code: IFPI 1000

Images: https://drive.google.com/open?id=162Uje … 12tGVfb3Np
Output: https://drive.google.com/open?id=1vBYHJ … dTPk5S7FUq

Title: Sim Theme Park
Disc Number / Letter:
Disc Title:
System: IBM PC Compatible
Media Type: CD-ROM
Category: Games
Region: USA
Languages: English
Disc Serial: 1403337
Ringcode Information:
    Mastering Code (laser branded/etched): 1403337    + +    A0246-01
    Mastering SID Code: IFPI LB48
    Data-Side Mould SID Code: IFPI 1000
    Label-Side Mould SID Code:
    Additional Mould:
    Toolstamp or Mastering Code (engraved/stamped):
Barcode:
ISBN:
Error Count: 831
Comments:
Contents:
Version:
Edition/Release: Original
Primary Volume Descriptor (PVD):

0320 : 20 20 20 20 20 20 20 20  20 20 20 20 20 32 30 30                200
0330 : 30 30 36 32 30 31 36 30  38 32 34 30 30 00 32 30   0062016082400.20
0340 : 30 30 30 36 32 30 31 36  30 38 32 34 30 30 00 30   00062016082400.0
0350 : 30 30 30 30 30 30 30 30  30 30 30 30 30 30 30 00   000000000000000.
0360 : 30 30 30 30 30 30 30 30  30 30 30 30 30 30 30 30   0000000000000000
0370 : 00 01 00 00 00 00 00 00  00 00 00 00 00 00 00 00   ................

Copy Protection: F:\00000001.TMP: SafeDisc v1 or greater
F:\00000409.016: SafeDisc 1
F:\00000409.256: SafeDisc 1
F:\clcd16.dll: SafeDisc
F:\clcd32.dll: SafeDisc
F:\clokspl.exe: SafeDisc
F:\dplayerx.dll: SafeDisc 1.41.000
F:\drvmgt.dll: SafeDisc 1.4x
F:\secdrv.sys: SafeDisc v2 or greater
F:\TP.exe: SafeDisc 1.41.000
F:\TP.ICD: SafeDisc 1.41.000

DAT:

<rom name="TPWORLD.bin" size="621341952" crc="bd0a9df9" md5="e00fee0f94603f47dc961401bbbd5265" sha1="d656b7913b5728b741913a221810a27ec148660e" />

Cuesheet:

FILE "TPWORLD.bin" BINARY
  TRACK 01 MODE1/2352
    INDEX 01 00:00:00

Write Offset: -12

11

(2 replies, posted in Guests & account requests)

Hi. Thanks for the dump. You are missing some information required. The submissionInfo.txt needs to have as much of the following fields as appropriate. Fields that don't apply you can leave blank.

Are you on the discord channel? You can ask for help there for questions regarding the Ringcode information or anything else.   This game that you have submitted matches another one on Redump, which is perfect because you can see what kinds of information have been submitted, look at it here http://redump.org/disc/57721/.


Title: NBA Live 07
Disc Number / Letter:
Disc Title:
System: IBM PC Compatible
Media Type: DVD-ROM-5
Category: Games
Region: World (CHANGE THIS)
Languages: Klingon (CHANGE THIS)
Disc Serial: (REQUIRED, IF EXISTS)
Ringcode Information:
    Mastering Code (laser branded/etched): (REQUIRED, IF EXISTS)
    Mastering SID Code: (REQUIRED, IF EXISTS)
    Label-Side Mould SID Code: (REQUIRED, IF EXISTS)
    Data-Side Mould SID Code: (REQUIRED, IF EXISTS)
    Additional Mould: (REQUIRED, IF EXISTS)
    Toolstamp or Mastering Code (engraved/stamped): (REQUIRED, IF EXISTS)
Barcode: (OPTIONAL)
ISBN: (OPTIONAL)
Comments: (OPTIONAL)
Contents: (OPTIONAL)
Version: (REQUIRED, IF EXISTS)
Edition/Release: Original (VERIFY THIS)
Primary Volume Descriptor (PVD):

0320 : 20 20 20 20 20 20 20 20  20 20 20 20 20 32 30 30                200
0330 : 36 30 38 32 35 31 36 33  36 30 33 30 30 E4 32 30   6082516360300.20
0340 : 30 36 30 38 32 35 31 36  33 36 30 33 30 30 E4 31   06082516360300.1
0350 : 39 38 32 30 38 32 35 31  36 33 36 30 32 30 30 E4   982082516360200.
0360 : 32 30 30 36 30 38 32 35  31 36 33 36 30 32 30 30   2006082516360200
0370 : E4 01 00 00 00 00 00 00  00 00 00 00 00 00 00 00   ................

Copy Protection: E:\00000000.256: SafeDisc 1
E:\00000001.TMP: SafeDisc v1 or greater
E:\00000002.TMP: SafeDisc v2 or greater
E:\DrvMgt.dll: SafeDisc 2.90-3.10
E:\SECDRV.SYS: SafeDisc 2.90

DAT:

<rom name="NBALIVE07.iso" size="3536060416" crc="efb8d8e0" md5="35e6b803ab72bc9e20d03d0fb79f6ee9" sha1="eb06c0159580a0f3e066f44137dee32b02599475" />

Output Files: https://drive.google.com/open?id=1kk5UD … A-xJxeySPD
Pics of CD: https://drive.google.com/open?id=1JS1Iu … THk_Eha1Xu

Title: Air Warrior - Flight Simulator
Disc Number / Letter: NULL
Disc Title: NULL
System: IBM PC Compatible
Media Type: CD-ROM
Category: Games
Region: USA
Languages: English
Disc Serial: 7135A
Ringcode Information:
    Mastering Ring: *7135A    X6416C
    Mastering SID Code: IFPI L531
    Mould SID Code: IFPI 92S5
    Additional Mould: NULL
    Toolstamp or Mastering Code: A1
Barcode: 7 22242 61026 6
ISBN: NULL
Error Count: 21705
Comments: NULL
Contents: NULL
Version: 1.50E
Edition/Release: Original
Primary Volume Descriptor (PVD):

0320 : 20 20 20 20 20 20 20 20  20 20 20 20 20 30 30 30                000
0330 : 30 30 30 30 30 30 30 30  30 30 30 30 30 00 30 30   0000000000000.00
0340 : 30 30 30 30 30 30 30 30  30 30 30 30 30 30 00 30   00000000000000.0
0350 : 30 30 30 30 30 30 30 30  30 30 30 30 30 30 30 00   000000000000000.
0360 : 30 30 30 30 30 30 30 30  30 30 30 30 30 30 30 30   0000000000000000
0370 : 00 01 00 00 00 00 00 00  00 00 00 00 00 00 00 00   ................

Copy Protection: None found

Cuesheet:

FILE "Air Warrior - Flight Simulator.bin" BINARY
  TRACK 01 MODE2/2352
    INDEX 01 00:00:00

Write Offset: 1764

DAT:

<rom name="Air Warrior - Flight Simulator.bin" size="51666384" crc="cc67bb78" md5="4a5d8379c4fa14909745ddccee7ec3ca" sha1="1c5123cf76586c665d08dd9181bab919cd83455b" />