Title: Starship Titanic
Disc Number / Letter: 1
Disc Title: 980203_1521
System: IBM PC Compatible
Media Type: CD-ROM
Category: Games
Region: United Kingdom
Languages: English
Disc Serial: N/A
Ringcode Information:
    Mastering Ring: HGCD564[TAB]CD Systems UK[TAB]13945
    Mastering SID Code: N/A
    Mould SID Code: N/A
    Additional Mould: N/A
    Toolstamp or Mastering Code: N/A
Barcode: N/A
ISBN: N/A
Error Count: 0
Comments: Beta Release, Build 397
Contents: N/A
Version: 1.0.0.1
Edition/Release: Original
Primary Volume Descriptor (PVD):

0320 : 20 20 20 20 20 20 20 20  20 20 20 20 20 31 39 39                199
0330 : 38 30 32 30 33 31 35 32  31 32 30 30 30 00 31 39   8020315212000.19
0340 : 39 38 30 32 30 33 31 35  32 31 32 30 30 30 00 32   98020315212000.2
0350 : 30 30 38 30 32 30 31 31  35 32 31 32 30 30 30 00   008020115212000.
0360 : 31 39 39 38 30 32 30 33  31 35 32 31 32 30 30 30   1998020315212000
0370 : 00 01 00 00 00 00 00 00  00 00 00 00 00 00 00 00   ................

Copy Protection: None found

Cuesheet:

FILE "980203_1521.bin" BINARY
  TRACK 01 MODE1/2352
    INDEX 01 00:00:00

Write Offset: -22

DAT:

<rom name="980203_1521.bin" size="706564320" crc="83f5671e" md5="1ae36ba9a114cb74ff9ecf40b856202f" sha1="3fabf10cc3cb3d4d28f585620887c7b5ca049a99" />

Logs: https://drive.google.com/open?id=1n4Fpe … FuxzG5LVaX

---------------------------------------

Title: Starship Titanic
Disc Number / Letter: 2
Disc Title: 980202_2248
System: IBM PC Compatible
Media Type: CD-ROM
Category: Games
Region: United Kingdom
Languages: English
Disc Serial: N/A
Ringcode Information:
    Mastering Ring: HGCD565[TAB]CD Systems UK[TAB]13943
    Mastering SID Code: N/A
    Mould SID Code: N/A
    Additional Mould: N/A
    Toolstamp or Mastering Code: N/A
Barcode: N/A
ISBN: N/A
Error Count: 0
Comments: Beta Release, Build 397
Contents: N/A
Version: 1.0.0.1
Edition/Release: Original
Primary Volume Descriptor (PVD):

0320 : 20 20 20 20 20 20 20 20  20 20 20 20 20 31 39 39                199
0330 : 38 30 32 30 32 32 32 34  38 35 33 30 30 00 31 39   8020222485300.19
0340 : 39 38 30 32 30 32 32 32  34 38 35 33 30 30 00 32   98020222485300.2
0350 : 30 30 38 30 31 33 31 32  32 34 38 35 33 30 30 00   008013122485300.
0360 : 31 39 39 38 30 32 30 32  32 32 34 38 35 33 30 30   1998020222485300
0370 : 00 01 00 00 00 00 00 00  00 00 00 00 00 00 00 00   ................

Copy Protection: None found

Cuesheet:

FILE "980202_2248.bin" BINARY
  TRACK 01 MODE1/2352
    INDEX 01 00:00:00

Write Offset: -22

DAT:

<rom name="980202_2248.bin" size="729759744" crc="51c2f969" md5="3a7070c14c2ec993322b18e3155e021e" sha1="727f6416dfaef384257ad51bcb34f34942d065e0" />


Logs: https://drive.google.com/open?id=1DuLP7 … DDWBNNr0dp

---------------------------------------

Title: Starship Titanic
Disc Number / Letter: 3
Disc Title: 980202_2256
System: IBM PC Compatible
Media Type: CD-ROM
Category: Games
Region: United Kingdom
Languages: English
Disc Serial: N/A
Ringcode Information:
    Mastering Ring: HGCD566[TAB]CD Systems UK[TAB]13944
    Mastering SID Code: N/A
    Mould SID Code: N/A
    Additional Mould: N/A
    Toolstamp or Mastering Code: N/A
Barcode: N/A
ISBN: N/A
Error Count: 0
Comments: Beta Release, Build 397
Contents: N/A
Version: 1.0.0.1
Edition/Release: Original
Primary Volume Descriptor (PVD):

0320 : 20 20 20 20 20 20 20 20  20 20 20 20 20 31 39 39                199
0330 : 38 30 32 30 32 32 32 35  36 31 35 30 30 00 31 39   8020222561500.19
0340 : 39 38 30 32 30 32 32 32  35 36 31 35 30 30 00 32   98020222561500.2
0350 : 30 30 38 30 31 33 31 32  32 35 36 31 35 30 30 00   008013122561500.
0360 : 31 39 39 38 30 32 30 32  32 32 35 36 31 35 30 30   1998020222561500
0370 : 00 01 00 00 00 00 00 00  00 00 00 00 00 00 00 00   ................

Copy Protection: None found

Cuesheet:

FILE "980202_2256.bin" BINARY
  TRACK 01 MODE1/2352
    INDEX 01 00:00:00

Write Offset: -22

DAT:

<rom name="980202_2256.bin" size="717790416" crc="2bff6a3c" md5="921a0baa00a017755b837ee1877f3e6d" sha1="0b238b8e5982f9e08fcddf16ea46e33636f1da2d" />

Logs: https://drive.google.com/open?id=1T_spS … PpeBDIiJyo

Title: Scissors N Stones
Disc Number / Letter: 1
Disc Title: SNS_PC
System: IBM PC Compatible
Media Type: CD-ROM
Category: Games
Region: USA
Languages: English
Disc Serial: N/A
Ringcode Information:
    Mastering Code (laser branded/etched): DISC MFG., INC.[TAB](A6)[TAB]W.O. # 44425-2[TAB]44425
    Mastering SID Code: N/A
    Data-Side Mould SID Code: N/A
    Label-Side Mould SID Code: N/A
    Additional Mould: N/A
    Toolstamp or Mastering Code (engraved/stamped): N/A
Barcode: 7 56519 90010 1
ISBN: N/A
Error Count: 0
Comments: N/A
Contents: N/A
Version: N/A
Edition/Release: Original
Primary Volume Descriptor (PVD):

0320 : 20 20 20 20 20 20 20 20  20 20 20 20 20 31 39 39                199
0330 : 34 30 31 30 34 32 31 31  34 31 37 30 30 00 31 39   4010421141700.19
0340 : 39 34 30 31 30 34 32 31  31 34 31 37 30 30 00 30   94010421141700.0
0350 : 30 30 30 30 30 30 30 30  30 30 30 30 30 30 30 00   000000000000000.
0360 : 30 30 30 30 30 30 30 30  30 30 30 30 30 30 30 30   0000000000000000
0370 : 00 01 00 00 00 00 00 00  00 00 00 00 00 00 00 00   ................

Copy Protection: None found

DAT:

<rom name="SNS_PC (Track 1).bin" size="490140336" crc="df94e877" md5="7c6ea3eff6b20832776f298513a5fc1a" sha1="848371fe26de68945fa498617f61f43737e499f8" />
<rom name="SNS_PC (Track 2).bin" size="7521696" crc="38b6f816" md5="33e2b6580deea8d7eeb27f7d500bea90" sha1="ab999eb2a46f70d016fd0be1e6f2669b14f08b06" />
<rom name="SNS_PC (Track 3).bin" size="16797984" crc="eeb6ac46" md5="0314b125a61bc045442551126d67a9a3" sha1="9e8d762087822d6fc17706d648867d16951ffd60" />
<rom name="SNS_PC (Track 4).bin" size="13531056" crc="db8478a0" md5="4908c00c06cc1a130a219547e191edfb" sha1="feb25d4b06177de2fff5777059803bb839e9461f" />
<rom name="SNS_PC (Track 5).bin" size="13940304" crc="907291ef" md5="ff29a45ad4773b1f680d123279d96be4" sha1="48fc9025ea899b3fadb77cc3089d01a22aa23310" />
<rom name="SNS_PC (Track 6).bin" size="15706656" crc="b912b322" md5="22e5a170782fbe153932c231b6ff1bf8" sha1="3c70ff8986b8e72d2baa7c0a176b99d15a91bd38" />
<rom name="SNS_PC (Track 7).bin" size="17197824" crc="820fafa7" md5="706964cf680bd66c5d8a38f18b9a3ac9" sha1="2dd791fd3e3c9cf51be8544eb9e5abab4ed0784d" />
<rom name="SNS_PC (Track 8).bin" size="20540016" crc="bd0b6b83" md5="0198b104ad94fdbdd2fdb7436922ce75" sha1="c8610e0e448b5f3b1a2209f4ba539bc25a63db75" />
<rom name="SNS_PC (Track 9).bin" size="11964624" crc="825931fe" md5="f9a89f40c79ad62b98fa4e322a4fc3fa" sha1="2b07d79e053f5f18fce7e7cdfcc51ad0a7f8c81b" />

Cuesheet:

CATALOG 0000000000000
FILE "SNS_PC (Track 1).bin" BINARY
  TRACK 01 MODE1/2352
    INDEX 01 00:00:00
FILE "SNS_PC (Track 2).bin" BINARY
  TRACK 02 AUDIO
    INDEX 00 00:00:00
    INDEX 01 00:02:00
FILE "SNS_PC (Track 3).bin" BINARY
  TRACK 03 AUDIO
    INDEX 01 00:00:00
FILE "SNS_PC (Track 4).bin" BINARY
  TRACK 04 AUDIO
    INDEX 01 00:00:00
FILE "SNS_PC (Track 5).bin" BINARY
  TRACK 05 AUDIO
    INDEX 01 00:00:00
FILE "SNS_PC (Track 6).bin" BINARY
  TRACK 06 AUDIO
    INDEX 01 00:00:00
FILE "SNS_PC (Track 7).bin" BINARY
  TRACK 07 AUDIO
    INDEX 01 00:00:00
FILE "SNS_PC (Track 8).bin" BINARY
  TRACK 08 AUDIO
    INDEX 01 00:00:00
FILE "SNS_PC (Track 9).bin" BINARY
  TRACK 09 AUDIO
    INDEX 01 00:00:00

Write Offset: 0

Logs: https://drive.google.com/open?id=1S3lCH … rkaeLbafFt

3

(0 replies, posted in New Dumps)

Title: Riana Rouge (Disc 1)
Disc Number / Letter: 1
Disc Title: DISC1
System: IBM PC Compatible
Media Type: CD-ROM
Category: Games
Region: USA
Languages: English
Disc Serial: N/A
Ringcode Information:
    Mastering Code (laser branded/etched): CMC 373083-6
    Mastering SID Code: N/A
    Data-Side Mould SID Code: N/A
    Label-Side Mould SID Code: N/A
    Additional Mould: N/A
    Toolstamp or Mastering Code (engraved/stamped): N/A
Barcode: 7 88687 10281 0
ISBN: N/A
Error Count: 0
Comments: N/A
Contents: N/A
Version: 1.0
Edition/Release: Original
Primary Volume Descriptor (PVD):

0320 : 20 20 20 20 20 20 20 20  20 20 20 20 20 31 39 39                199
0330 : 37 31 31 32 36 30 33 35  33 31 33 30 30 00 31 39   7112603531300.19
0340 : 39 37 31 32 31 31 31 31  33 38 33 33 30 30 00 00   97121111383300..
0350 : 00 00 00 00 00 00 00 00  00 00 00 00 00 00 00 00   ................
0360 : 00 00 00 00 00 00 00 00  00 00 00 00 00 00 00 00   ................
0370 : 00 01 00 00 00 00 00 00  00 00 00 00 00 00 00 00   ................

Copy Protection: None found

DAT:

<rom name="DISC1.bin" size="677637072" crc="1d7a665b" md5="13b1889a389b54d54d7800d7c27431f7" sha1="95bcf985fe9c36735ff19bac3b2dc75b08855e33" />

Cuesheet:

CATALOG 0000000000000
FILE "DISC1.bin" BINARY
  TRACK 01 MODE1/2352
    INDEX 01 00:00:00

Write Offset: 0

Logs: https://drive.google.com/open?id=12w5J- … p60t4ATE4R

--------------------------------------

Title: Riana Rouge (Disc 2)
Disc Number / Letter: 2
Disc Title: Disc2
System: IBM PC Compatible
Media Type: CD-ROM
Category: Games
Region: USA
Languages: English
Disc Serial: N/A
Ringcode Information:
    Mastering Code (laser branded/etched): CMC 373088-6
    Mastering SID Code: N/A
    Data-Side Mould SID Code: N/A
    Label-Side Mould SID Code: N/A
    Additional Mould: N/A
    Toolstamp or Mastering Code (engraved/stamped): N/A
Barcode: 7 88687 10281 0
ISBN: N/A
Error Count: 0
Comments: N/A
Contents: N/A
Version: 1.0
Edition/Release: Original
Primary Volume Descriptor (PVD):

0320 : 20 20 20 20 20 20 20 20  20 20 20 20 20 31 39 39                199
0330 : 37 31 31 32 37 31 36 35  34 35 30 30 30 00 31 39   7112716545000.19
0340 : 39 37 31 31 32 37 31 36  35 34 35 30 30 30 00 32   97112716545000.2
0350 : 30 30 37 31 31 32 35 31  36 35 34 35 30 30 30 00   007112516545000.
0360 : 31 39 39 37 31 31 32 37  31 36 35 34 35 30 30 30   1997112716545000
0370 : 00 01 00 00 00 00 00 00  00 00 00 00 00 00 00 00   ................

Copy Protection: None found

DAT:

<rom name="Disc2.bin" size="546959952" crc="23d180c4" md5="d1c2c59aecaca3d84a2b653bef23ca94" sha1="e5cc8e12a282b8db8b73c6ae86a44abd2f7200a9" />

Cuesheet:

CATALOG 0000000000000
FILE "Disc2.bin" BINARY
  TRACK 01 MODE1/2352
    INDEX 01 00:00:00

Write Offset: 0

Logs: https://drive.google.com/open?id=1KrSp4 … 6UTmMIIt4b

--------------------------------------

Title: Riana Rouge (Disc 3)
Disc Number / Letter: 3
Disc Title: DISC3
System: IBM PC Compatible
Media Type: CD-ROM
Category: Games
Region: USA
Languages: English
Disc Serial: N/A
Ringcode Information:
    Mastering Code (laser branded/etched): CMC 373089-6
    Mastering SID Code: N/A
    Data-Side Mould SID Code: N/A
    Label-Side Mould SID Code: N/A
    Additional Mould: N/A
    Toolstamp or Mastering Code (engraved/stamped): N/A
Barcode: 7 88687 10281 0
ISBN: N/A
Error Count: 0
Comments: N/A
Contents: N/A
Version: 1.0
Edition/Release: Original
Primary Volume Descriptor (PVD):

0320 : 20 20 20 20 20 20 20 20  20 20 20 20 20 31 39 39                199
0330 : 37 31 31 32 36 30 35 33  31 32 36 30 30 00 31 39   7112605312600.19
0340 : 39 37 31 32 31 31 31 31  33 39 31 31 30 30 00 00   97121111391100..
0350 : 00 00 00 00 00 00 00 00  00 00 00 00 00 00 00 00   ................
0360 : 00 00 00 00 00 00 00 00  00 00 00 00 00 00 00 00   ................
0370 : 00 01 00 00 00 00 00 00  00 00 00 00 00 00 00 00   ................

Copy Protection: None found

DAT:

<rom name="DISC3.bin" size="738262224" crc="a6563095" md5="06f3cde2c1d8534d9709fa8536d0ed66" sha1="2f3e93d94ec82a0241d4e036a59c62f65f52957f" />

Cuesheet:

CATALOG 0000000000000
FILE "DISC3.bin" BINARY
  TRACK 01 MODE1/2352
    INDEX 01 00:00:00

Write Offset: 0

Logs: https://drive.google.com/open?id=1W1rzu … Kc9WMm79eZ

--------------------------------------

Title: Santa Fe Mysteries - Sacred Ground (Disc 1)
Disc Number / Letter: 1
Disc Title: SACRED_1
System: IBM PC Compatible
Media Type: CD-ROM
Category: Games
Region: USA
Languages: English
Disc Serial: N/A
Ringcode Information:
    Mastering Ring: IFPI L238[TAB]CDD31471 R1H
    Mastering SID Code: N/A
    Mould SID Code: IFPI 4111
    Additional Mould: N/A
    Toolstamp or Mastering Code: 11
Barcode: N/A
ISBN: N/A
Error Count: 0
Comments: N/A
Contents: N/A
Version: 1.0
Edition/Release: Original
Primary Volume Descriptor (PVD):

0320 : 20 20 20 20 20 20 20 20  20 20 20 20 20 31 39 39                199
0330 : 36 31 30 33 30 31 36 34  34 34 30 30 30 00 31 39   6103016444000.19
0340 : 39 36 31 30 33 30 31 36  34 34 34 30 30 30 00 30   96103016444000.0
0350 : 30 30 30 30 30 30 30 30  30 30 30 30 30 30 30 00   000000000000000.
0360 : 30 30 30 30 30 30 30 30  30 30 30 30 30 30 30 30   0000000000000000
0370 : 00 01 00 00 00 00 00 00  00 00 00 00 00 00 00 00   ................

Copy Protection: None found

Cuesheet:

CATALOG 0000000000000
FILE "SACRED_1.bin" BINARY
  TRACK 01 MODE1/2352
    INDEX 01 00:00:00

Write Offset: 222

DAT:

<rom name="SACRED_1.bin" size="723343488" crc="3c6539a9" md5="0c593ab5e2863c477a4abcd279060532" sha1="92fff5e3f9580438b0242b9de0fb7552644f88ea" />

Logs: https://drive.google.com/open?id=1M2z4l … TewVoJBaab

--------------------------------------

Title: Santa Fe Mysteries - Sacred Ground (Disc 2)
Disc Number / Letter: 2
Disc Title: SACRED_2
System: IBM PC Compatible
Media Type: CD-ROM
Category: Games
Region: USA
Languages: English
Disc Serial: N/A
Ringcode Information:
    Mastering Ring: IFPI L239[TAB]CDD31472 R1J
    Mastering SID Code: N/A
    Mould SID Code: IFPI 4111
    Additional Mould: N/A
    Toolstamp or Mastering Code: 16
Barcode: N/A
ISBN: N/A
Error Count: 0
Comments: N/A
Contents: N/A
Version: 1.0
Edition/Release: Original
Primary Volume Descriptor (PVD):

0320 : 20 20 20 20 20 20 20 20  20 20 20 20 20 30 30 30                000
0330 : 30 30 30 30 30 30 30 30  30 30 30 30 30 00 30 30   0000000000000.00
0340 : 30 30 30 30 30 30 30 30  30 30 30 30 30 30 00 30   00000000000000.0
0350 : 30 30 30 30 30 30 30 30  30 30 30 30 30 30 30 00   000000000000000.
0360 : 30 30 30 30 30 30 30 30  30 30 30 30 30 30 30 30   0000000000000000
0370 : 00 01 00 00 00 00 00 00  00 00 00 00 00 00 00 00   ................

Copy Protection: None found

Cuesheet:

CATALOG 0000000000000
FILE "SACRED_2.bin" BINARY
  TRACK 01 MODE1/2352
    INDEX 01 00:00:00

Write Offset: 222

DAT:

<rom name="SACRED_2.bin" size="755100192" crc="9723d356" md5="2d160efdd7038ace48edbfa335c7585a" sha1="68b8a06c3678a7307877381510d9858965498a60" />

Logs: https://drive.google.com/open?id=16BJs1 … K1Jc7PyUuj

--------------------------------------

Compatible with MS-DOS/Windows 95 and Macintosh CD-ROM.

Title: Santa Fe Mysteries - The Elk Moon Murder (Disc 1)
Disc Number / Letter: 1
Disc Title: ELKMOON_1
System: IBM PC Compatible
Media Type: CD-ROM
Category: Games
Region: USA
Languages: English
Disc Serial: N/A
Ringcode Information:
    Mastering Ring: L383 1112 CDD31061 A60623-15 
    Mastering SID Code: N/A
    Mould SID Code: IFPI 6100
    Additional Mould: N/A
    Toolstamp or Mastering Code: M1S7
Barcode: N/A
ISBN: N/A
Error Count: 0
Comments: N/A
Contents: N/A
Version: N/A
Edition/Release: Original
Primary Volume Descriptor (PVD):

0320 : 20 20 20 20 20 20 20 20  20 20 20 20 20 31 39 39                199
0330 : 36 30 36 32 31 32 33 34  32 30 38 30 30 00 31 39   6062123420800.19
0340 : 39 36 30 36 32 31 32 33  34 32 30 38 30 30 00 30   96062123420800.0
0350 : 30 30 30 30 30 30 30 30  30 30 30 30 30 30 30 00   000000000000000.
0360 : 30 30 30 30 30 30 30 30  30 30 30 30 30 30 30 30   0000000000000000
0370 : 00 01 00 00 00 00 00 00  00 00 00 00 00 00 00 00   ................

Copy Protection: None found

Cuesheet:

CATALOG 0000000000000
FILE "ELKMOON_1.bin" BINARY
  TRACK 01 MODE1/2352
    INDEX 01 00:00:00

Write Offset: 0

DAT:

<rom name="ELKMOON_1.bin" size="719088720" crc="4dc68fe0" md5="2343ec02ee510b56ddd3b9a965438a70" sha1="4c99cc2e1455d829f106dc4cc20e72dd45f74c07" />

Logs: https://drive.google.com/open?id=1mWcAU … n2kfSTw1d0

--------------------------------------

Title: Santa Fe Mysteries - The Elk Moon Murder (Disc 2)
Disc Number / Letter: 2
Disc Title: ELKMOON_2
System: IBM PC Compatible
Media Type: CD-ROM
Category: Games
Region: USA
Languages: English
Disc Serial: N/A
Ringcode Information:
    Mastering Ring: L384 1112 CDD31062 B60622-24
    Mastering SID Code: N/A
    Mould SID Code: IFPI 6100
    Additional Mould: N/A
    Toolstamp or Mastering Code: M1S2
Barcode: N/A
ISBN: N/A
Error Count: 0
Comments: N/A
Contents: N/A
Version: N/A
Edition/Release: Original
Primary Volume Descriptor (PVD):

0320 : 20 20 20 20 20 20 20 20  20 20 20 20 20 30 30 30                000
0330 : 30 30 30 30 30 30 30 30  30 30 30 30 30 00 30 30   0000000000000.00
0340 : 30 30 30 30 30 30 30 30  30 30 30 30 30 30 00 30   00000000000000.0
0350 : 30 30 30 30 30 30 30 30  30 30 30 30 30 30 30 00   000000000000000.
0360 : 30 30 30 30 30 30 30 30  30 30 30 30 30 30 30 30   0000000000000000
0370 : 00 01 00 00 00 00 00 00  00 00 00 00 00 00 00 00   ................

Copy Protection: None found

Cuesheet:

CATALOG 0000000000000
FILE "ELKMOON_2.bin" BINARY
  TRACK 01 MODE1/2352
    INDEX 01 00:00:00

Write Offset: 0

DAT:

<rom name="ELKMOON_2.bin" size="739195968" crc="8ab2d6ac" md5="853ce93c27f8901305402f62c96dff87" sha1="42159a4bb7a029a7b559fff85d922cbf66ad8cb9" />

Logs: https://drive.google.com/open?id=1p5f9Y … mEBRwN_ckf

--------------------------------------

Compatible with MS-DOS/Windows 95 and Macintosh CD-ROM.

6

(0 replies, posted in New Dumps)

Title: Man Enough (Disc 1)
Disc Number / Letter: 1
Disc Title: N/A
System: IBM PC Compatible
Media Type: CD-ROM
Category: Games
Region: USA
Languages: English
Disc Serial: N/A
Ringcode Information:
    Mastering Ring: DISC MFG, INC. (H)  W.O. 57271-1M  57271
    Mastering SID Code: N/A
    Mould SID Code: N/A
    Additional Mould: N/A
    Toolstamp or Mastering Code: N/A
Barcode: N/A
ISBN: N/A
Error Count: 0
Comments: Bundled with a floppy disk that's required for installation.
Contents: N/A
Version: 1.0.4
Edition/Release: Original
Primary Volume Descriptor (PVD):

0320 : 20 20 20 20 20 20 20 20  20 20 20 20 20 31 39 39                199
0330 : 33 31 31 31 30 31 31 34  30 34 38 30 30 30 31 39   3111011404800019
0340 : 39 33 31 31 31 30 31 31  34 30 34 38 30 30 30 31   9311101140480001
0350 : 39 39 33 31 31 31 30 31  31 34 30 34 38 30 30 30   9931110114048000
0360 : 31 39 39 33 31 31 31 30  31 31 34 30 34 38 30 30   1993111011404800
0370 : 30 01 00 00 00 00 00 00  00 00 00 00 00 00 00 00   0...............

Copy Protection: None found

Cuesheet:

CATALOG 0000000000000
FILE "mancd1.bin" BINARY
  TRACK 01 MODE1/2352
    INDEX 01 00:00:00

Write Offset: 0

DAT:

<rom name="mancd1.bin" size="568405488" crc="9ce0eeb2" md5="c7a68b7466261ef472bb6464e64cffd2" sha1="49dee00940b76efa2ffcd15ce8f84e6addcdbf8b" />

Logs: https://drive.google.com/open?id=15Ti1f … MMao8nVBF_

--------------------------------------

Title: Man Enough (Disc 2)
Disc Number / Letter: 2
Disc Title: N/A
System: IBM PC Compatible
Media Type: CD-ROM
Category: Games
Region: USA
Languages: English
Disc Serial: N/A
Ringcode Information:
    Mastering Ring: DISC MFG, INC. (H)  W.O. 57472-1M  57472
    Mastering SID Code: N/A
    Mould SID Code: N/A
    Additional Mould: N/A
    Toolstamp or Mastering Code: N/A
Barcode: N/A
ISBN: N/A
Error Count: 0
Comments: N/A
Contents: N/A
Version: 1.0.4
Edition/Release: Original
Primary Volume Descriptor (PVD):

0320 : 20 20 20 20 20 20 20 20  20 20 20 20 20 31 39 39                199
0330 : 33 31 31 31 30 31 31 34  36 30 36 30 30 30 31 39   3111011460600019
0340 : 39 33 31 31 31 30 31 31  34 36 30 36 30 30 30 31   9311101146060001
0350 : 39 39 33 31 31 31 30 31  31 34 36 30 36 30 30 30   9931110114606000
0360 : 31 39 39 33 31 31 31 30  31 31 34 36 30 36 30 30   1993111011460600
0370 : 30 01 00 00 00 00 00 00  00 00 00 00 00 00 00 00   0...............

Copy Protection: None found

Cuesheet:

CATALOG 0000000000000
FILE "mancd2.bin" BINARY
  TRACK 01 MODE1/2352
    INDEX 01 00:00:00

Write Offset: 0

DAT:

<rom name="mancd2.bin" size="595561680" crc="7539ad52" md5="5ab246fe6fc02060e4ef66840bfa9d3e" sha1="b7bac21710c64f8eb2554947182b4fd328e44d78" />

Logs: https://drive.google.com/open?id=1EitNr … nEsq-T2wS3

Title: Ian Livingstone's Deathtrap Dungeon
Disc Number / Letter: N/A
Disc Title: N/A
System: IBM PC Compatible
Media Type: CD-ROM
Category: Demos
Region: Europe
Languages: English
Disc Serial: N/A
Ringcode Information:
    Mastering Ring: N/A
    Mastering SID Code: N/A
    Mould SID Code: N/A
    Additional Mould: N/A
    Toolstamp or Mastering Code: CDRO4031 8022401
Barcode: N/A
ISBN: N/A
Error Count: 0
Comments: N/A
Contents: Interactive Interview with Ian Livingstone
Version: N/A
Edition/Release: Rolling Demo
Primary Volume Descriptor (PVD):

0320 : 20 20 20 20 20 20 20 20  20 20 20 20 20 31 39 39                199
0330 : 38 30 32 30 34 31 38 32  31 34 33 30 35 AA 31 39   8020418214305.19
0340 : 39 38 30 32 30 34 31 38  32 32 34 30 33 39 02 00   98020418224039..
0350 : 00 00 00 00 00 00 00 00  00 00 00 00 00 00 00 00   ................
0360 : 00 00 00 00 00 00 00 00  00 00 00 00 00 00 00 00   ................
0370 : 00 01 00 00 00 00 00 00  00 00 00 00 00 00 00 00   ................

Copy Protection: None found

Cuesheet:

FILE "death.bin" BINARY
  TRACK 01 MODE1/2352
    INDEX 01 00:00:00

Write Offset: -22

DAT:

<rom name="death.bin" size="175146384" crc="be322e89" md5="515e9a50b1e489a866209afa0a770179" sha1="b912baee9bb0f276a1c0cfa96497732404c8ded7" />

Logs: https://drive.google.com/open?id=13Y6Pg … lKVJ5vMFIl

Title: Painkiller: Heaven's Got a Hitman
Disc Number / Letter: N/A
Disc Title: PK Retail Demo
System: IBM PC Compatible
Media Type: CD-ROM
Category: Demos
Region: USA
Languages: English
Disc Serial: PKRD2004
Ringcode Information:
    Mastering Ring: ST3037082A
    Mastering SID Code: N/A
    Mould SID Code: IFPI LG06
    Additional Mould: N/A
    Toolstamp or Mastering Code: N/A
Barcode: N/A
ISBN: N/A
Error Count: 0
Comments: 2003-11-12 preview build
Contents: Demo and trailer
Version: SSV 1.0
Edition/Release: Exclusive Retail Demo
Primary Volume Descriptor (PVD):

0320 : 20 20 20 20 20 20 20 20  20 20 20 20 20 32 30 30                200
0330 : 34 30 31 32 39 31 30 32  30 30 30 30 30 EC 32 30   4012910200000.20
0340 : 30 34 30 31 32 39 31 30  32 30 30 30 30 30 EC 30   04012910200000.0
0350 : 30 30 30 30 30 30 30 30  30 30 30 30 30 30 30 00   000000000000000.
0360 : 30 30 30 30 30 30 30 30  30 30 30 30 30 30 30 30   0000000000000000
0370 : 00 01 00 00 00 00 00 00  00 00 00 00 00 00 00 00   ................

Copy Protection: None found

Cuesheet:

FILE "PK Retail Demo.bin" BINARY
  TRACK 01 MODE1/2352
    INDEX 01 00:00:00

Write Offset: 0

DAT:

<rom name="PK Retail Demo.bin" size="657553344" crc="a63e27f4" md5="6df10881a6bdbe94a279eb38327bc703" sha1="1f638f733213ce9f0d0199e3cc04ad08502b5026" />

Logs: https://drive.google.com/open?id=15mU_V … eVu2Q2q-q1