1

(8 replies, posted in General discussion)

Thank you shutendoji. I wrote you a private message. Please, read it.

2

(7 replies, posted in General discussion)

Yes, please.
I myself dumped a DVD Video and it's taking quite a long time to be submitted.
I fully agree with user7.

3

(1 replies, posted in Fixes & additions)

Thank you Zamochu for checking Alias. I knew that the Italian release was standalone and not in that version. Keep up the good work!

4

(0 replies, posted in Fixes & additions)

http://redump.org/disc/28020/

Edition: Best of Infogrames: Adventure

-----------------------------------------------------------------------------------------------------------------------------------------------------------------

http://redump.org/disc/9980/ and http://redump.org/disc/9981/

Barcode: 5 029988 005437 >

All these additions are from my dumps of this link http://forum.redump.org/topic/19648/add … yaddition/

5

(4 replies, posted in Dumps)

ack2121 wrote:

For the dumps with just Mastering Ring DADC, is there a Sony emblem before the DADC in the ring? If so, the the Mastering Ring is Sony DADC xxxxxxxxxx. Please let me know.

Thanks!

I confirm that there is no "Sony" emblem before DADC on the Oddworld/Heart of Darkness dumps.

6

(4 replies, posted in Dumps)

Since it's still pending, I'm adding missing info to already existing PS1 dumps.

http://redump.org/disc/1152/

Ringcode Information:
    Mastering Ring: DADC Austria   A0100245771-0101  15
    Mastering SID Code: IFPI L555
    Mould SID Code: 947Q
    Toolstamp or Mastering Code: B8

Primary Volume Descriptor (PVD):

0320 : 20 20 20 20 20 20 20 20  20 20 20 20 20 31 39 39                199
0330 : 38 30 38 32 38 32 31 32  32 31 38 30 30 24 30 30   8082821221800$00
0340 : 30 30 30 30 30 30 30 30  30 30 30 30 30 30 00 30   00000000000000.0
0350 : 30 30 30 30 30 30 30 30  30 30 30 30 30 30 30 00   000000000000000.
0360 : 30 30 30 30 30 30 30 30  30 30 30 30 30 30 30 30   0000000000000000
0370 : 00 01 00 00 00 00 00 00  00 00 00 00 00 00 00 00   ................

-------------------------------------------------------------------------------------------------------------------------------------------------------------

http://redump.org/disc/9980/

Ringcode Information:
    Mastering Ring: DADC    A0100262649-0102  15
    Mastering SID Code: IFPI L555
    Mould SID Code: 946R
    Toolstamp or Mastering Code: B2

Comments: GT Interactive ID: PS1G-OAEI5

Primary Volume Descriptor (PVD):

0320 : 20 20 20 20 20 20 20 20  20 20 20 20 20 31 39 39                199
0330 : 38 31 31 30 33 31 32 30  30 30 30 30 30 00 30 30   8110312000000.00
0340 : 30 30 30 30 30 30 30 30  30 30 30 30 30 30 00 30   00000000000000.0
0350 : 30 30 30 30 30 30 30 30  30 30 30 30 30 30 30 00   000000000000000.
0360 : 30 30 30 30 30 30 30 30  30 30 30 30 30 30 30 30   0000000000000000
0370 : 00 01 00 00 00 00 00 00  00 00 00 00 00 00 00 00   ................

-------------------------------------------------------------------------------------------------------------------------------------------------------------

http://redump.org/disc/9981/

Ringcode Information:
    Mastering Ring: DADC    A0100262649-0202  15
    Mastering SID Code: IFPI L555
    Mould SID Code: 944P
    Toolstamp or Mastering Code: A1

Comments: GT Interactive ID: PS1G-OAEI5

Primary Volume Descriptor (PVD):

0320 : 20 20 20 20 20 20 20 20  20 20 20 20 20 31 39 39                199
0330 : 38 31 31 30 33 31 32 30  30 30 30 30 30 00 30 30   8110312000000.00
0340 : 30 30 30 30 30 30 30 30  30 30 30 30 30 30 00 30   00000000000000.0
0350 : 30 30 30 30 30 30 30 30  30 30 30 30 30 30 30 00   000000000000000.
0360 : 30 30 30 30 30 30 30 30  30 30 30 30 30 30 30 30   0000000000000000
0370 : 00 01 00 00 00 00 00 00  00 00 00 00 00 00 00 00   ................

7

(0 replies, posted in Fixes & additions)

http://redump.org/disc/56880/

Serial: SCES-01070

8

(8 replies, posted in General discussion)

shutendoji wrote:

I have a problem with the correct Plextor. If i manage to resolve i'll soon post the dump, otherwise i'll dump with another drive meanwhile.

If the game is a single data track, then dumping with Isobuster is fine.

9

(8 replies, posted in General discussion)

What happened to him?

10

(4 replies, posted in Dumps)

http://redump.org/disc/28019/ matches

Title: Heart of Darkness
Disc number: 1
Category: Games

Region: Italy
Languages: Italian

Disc Serial: SLES-00464#2
EXE Date: 1998-07-10

Ringcode Information:
    Mastering Ring: DADC    A0100251996-0102  35
    Mastering SID Code: IFPI L555
    Mould SID Code: 943C
    Additional Mould: *
    Toolstamp or Mastering Code: A5

Error Count: 0

Edition: Best of Infogrames: Adventure

EDC: Yes
Anti-modchip: No
LibCrypt: No

Primary Volume Descriptor (PVD):

0320 : 20 20 20 20 20 20 20 20  20 20 20 20 20 31 39 39                199
0330 : 38 30 37 31 31 31 32 30  30 30 30 30 30 00 30 30   8071112000000.00
0340 : 30 30 30 30 30 30 30 30  30 30 30 30 30 30 00 30   00000000000000.0
0350 : 30 30 30 30 30 30 30 30  30 30 30 30 30 30 30 00   000000000000000.
0360 : 30 30 30 30 30 30 30 30  30 30 30 30 30 30 30 30   0000000000000000
0370 : 00 01 00 00 00 00 00 00  00 00 00 00 00 00 00 00   ................

Cuesheet:

FILE "HOD1.bin" BINARY
  TRACK 01 MODE2/2352
    INDEX 01 00:00:00

Write Offset: -647

DAT:

<rom name="HOD1.bin" size="577599456" crc="d2179fd9" md5="f6308993286e8b7ebfad651f6fc1fb46" sha1="77ec8a2528054b52a1793d378847a8b443daff39" />
-------------------------------------------------------------------------------------------------------------------------------------------------------------

http://redump.org/disc/28020/ matches

Title: Heart of Darkness
Disc number: 2
Category: Games

Region: Italy
Languages: Italian

Disc Serial: SLES-10464#2
EXE Date: 1998-07-10

Ringcode Information:
    Mastering Ring: DADC    A0100251996-0202  25
    Mastering SID Code: IFPI L555
    Mould SID Code: 943C
    Additional Mould: *
    Toolstamp or Mastering Code: A2

Error Count: 0

Edition: Best of Infogrames: Adventure

EDC: No
Anti-modchip: No
LibCrypt: No

Primary Volume Descriptor (PVD):

0320 : 20 20 20 20 20 20 20 20  20 20 20 20 20 31 39 39                199
0330 : 38 30 37 31 31 31 32 30  30 30 30 30 30 00 30 30   8071112000000.00
0340 : 30 30 30 30 30 30 30 30  30 30 30 30 30 30 00 30   00000000000000.0
0350 : 30 30 30 30 30 30 30 30  30 30 30 30 30 30 30 00   000000000000000.
0360 : 30 30 30 30 30 30 30 30  30 30 30 30 30 30 30 30   0000000000000000
0370 : 00 01 00 00 00 00 00 00  00 00 00 00 00 00 00 00   ................

Cuesheet:

FILE "HOD2.bin" BINARY
  TRACK 01 MODE2/2352
    INDEX 01 00:00:00

Write Offset: -647

DAT:

<rom name="HOD2.bin" size="693943488" crc="4cbf7c6d" md5="e22f2ed3a2a899f8f929e4caa3b48715" sha1="ccbff48537c245232dc05e7f226e67a6977bd1a6" />

11

(0 replies, posted in Dumps)

http://redump.org/disc/12642/ matches

Title: Worms Armageddon
Category: Games

Region: Europe
Languages: Danish, Dutch, French, Norwegian, Swedish

Disc Serial: SLES-02332#
EXE Date: 1999-09-15

Ringcode Information:
    Mastering Ring: DADC    A0100297059-0101  15
    Mastering SID Code: IFPI L555
    Mould SID Code: 942C
    Additional Mould: *
    Toolstamp or Mastering Code: A6

Error Count:
0

Edition: Best of Infogrames

EDC: No
Anti-modchip: No
LibCrypt: No

Primary Volume Descriptor (PVD):

0320 : 20 20 20 20 20 20 20 20  20 20 20 20 20 31 39 39                199
0330 : 39 30 39 31 36 30 39 34  32 30 37 30 30 24 30 30   9091609420700$00
0340 : 30 30 30 30 30 30 30 30  30 30 30 30 30 30 00 30   00000000000000.0
0350 : 30 30 30 30 30 30 30 30  30 30 30 30 30 30 30 00   000000000000000.
0360 : 30 30 30 30 30 30 30 30  30 30 30 30 30 30 30 30   0000000000000000
0370 : 00 01 00 00 00 00 00 00  00 00 00 00 00 00 00 00   ................

Cuesheet:

FILE "Worms.bin" BINARY
  TRACK 01 MODE2/2352
    INDEX 01 00:00:00

Write Offset: -647

DAT:

<rom name="Worms.bin" size="552863472" crc="83c01cd7" md5="bde112cbd2d551f8f812f06202a68a1b" sha1="fc0b94124b880ecfa6991ba72717fe832a593e33" />

12

(0 replies, posted in Dumps)

http://redump.org/disc/15464/ matches

Title: Wacky Races
Category: Games

Region: Europe
Languages: Dutch, English, French, German, Italian, Spanish

Disc Serial: SLES-02468 #
EXE Date: 2000-08-30

Ringcode Information:
    Mastering Ring: Sony DADC    A0100333219-0101  23
    Mastering SID Code: IFPI L553
    Mould SID Code: IFPI 943C
    Additional Mould: *
    Toolstamp or Mastering Code: A3

Error Count:
0

Comments:
French title: Les Fous du Volant
German title: Wacky Race: Autorennen Total, also called "Das Völlig Verrückte Autorennen" on the title screen
Italian title: Wacky Race: Corri con Dastardly e Muttley (there's a typo on the disc, Dastardly written without the "r"), also called "Le Corse Pazze" on the title screen
Spanish title: Los Autos Locos: Corridas Malucas

Edition titles
Dutch: De Reeks met je Striphelden
French: La Collection de tes Héros Favoris
German: Die Comic-Star Collection
Italian: La Collezione dei tuoi Eroi Preferiti  *this is actually wrote on the Italian cover

Edition: All Your Cartoon Favourites

EDC: Yes
Anti-modchip: No
LibCrypt: No

Primary Volume Descriptor (PVD):

0320 : 20 20 20 20 20 20 20 20  20 20 20 20 20 30 30 30                000
0330 : 30 30 38 33 31 31 30 31  39 31 37 30 30 24 30 30   0083110191700$00
0340 : 30 30 30 30 30 30 30 30  30 30 30 30 30 30 00 30   00000000000000.0
0350 : 30 30 30 30 30 30 30 30  30 30 30 30 30 30 30 00   000000000000000.
0360 : 30 30 30 30 30 30 30 30  30 30 30 30 30 30 30 30   0000000000000000
0370 : 00 01 00 00 00 00 00 00  00 00 00 00 00 00 00 00   ................

Cuesheet:

FILE "WACKY.bin" BINARY
  TRACK 01 MODE2/2352
    INDEX 01 00:00:00

Write Offset: -647

DAT:

<rom name="WACKY.bin" size="445130112" crc="07742dbe" md5="2d4ca391365516432fd61064c088452e" sha1="12655f35f089692cebf0292afcbf3eb4dc7fca6b" />

13

(5 replies, posted in Dumps)

Here's the log file just in case.

14

(5 replies, posted in Dumps)

ack2121 wrote:

Thanks for the submission! Last piece of info needed is the error count. Please run edccchk on the image to get the error count.

I have checked his dump myself with cdimage and cccdheck whatever, 0 errors wink

15

(5 replies, posted in Dumps)

Great work, mate!

16

(2 replies, posted in Fixes & additions)

http://redump.org/disc/55969

Title should be "Snipers: Invisible, Silent, Deadly"

17

(49 replies, posted in General discussion)

sarami wrote:

@iR0b0t, LoStraniero91
Please tell me the disc title, region and barcode if possible.

Title: Colin McRae Rally 04
Region: I guess Italy but I should investigate more, it's labeled "FX Interactive"
Barcode: 8 436010 151135

https://www.webster.it/videogame-colin_ … 151135.htm Found something with the same barcode.

18

(49 replies, posted in General discussion)

I have a DVD IBM PC game with what could be Ring Protech. Any advice how to dump it?

19

(2 replies, posted in Guests & account requests)

Hi, I'm doing a lot of PS3 PAL dumping, and I would love a wiki account. Thank you.

20

(0 replies, posted in Dumps)

Game title: Mafia
Disc title: N/A
Media: DVD-5
Category: Games
Region: Italy
Languages: Italian
Serial: SLES-52281
Version: 1.00
Edition: Original
Mastering Ring: Sony DADC    A0100507327-A511    27
Mastering SID Code: IFPI L557
Toolstamp or Mastering Code: A07
Mould Sid Code: IFPI 948Z
Barcode: 5 026555 301978
Error Counts: 0
Comments: N/A
Contents: N/A
Primary Volume Descriptor:

0320 : 20 20 20 20 20 20 20 20  20 20 20 20 20 32 30 30                200
0330 : 34 30 31 32 32 32 30 30  34 33 37 30 30 24 30 30   4012220043700$00
0340 : 30 30 30 30 30 30 30 30  30 30 30 30 30 30 00 30   00000000000000.0
0350 : 30 30 30 30 30 30 30 30  30 30 30 30 30 30 30 00   000000000000000.
0360 : 30 30 30 30 30 30 30 30  30 30 30 30 30 30 30 30   0000000000000000
0370 : 00 01 00 00 00 00 00 00  00 00 00 00 00 00 00 00   ................

Dat:   
    <rom name="Mafia 2.iso" size="4194467840" crc="9dfbd094" md5="77543f90daab447456b259af03fd271b" sha1="d8570431a6ea3a119c829715b86013f6fe4c0ec8" />

Title: Colin McRae Rally 2005
Disc Number/Letter: N/A
Disc Title: N/A
Category: Games
Region: Italy
Languages: English, French, German, Italian, Spanish
Serial: MRL5CDEU00 (Different serials are printed, one on the back case: PRL5CDIT03; and another on the back of the manual: PRL5CDIT01)
Mastering Ring: manifactured by kdg         629.369        #1
Mastering SID Code: IFPI L173
Mould Sid Code: IFPI 3085
Toolstamp or Mastering Code:
Barcode: 9 771120 506734 600001>
Errors Count: 0
Comments: Game released with an Italian newspaper called "La Gazzetta dello Sport", issue branded as "Serie Maxima"
Contents: N/A
Version: 1.00.000
Edition/Release: Serie Maxima
Primary Volume Descriptor:
0320 : 20 20 20 20 20 20 20 20  20 20 20 20 20 32 30 30                200
0330 : 34 30 38 32 36 32 33 30  39 30 30 30 30 04 32 30   4082623090000.20
0340 : 30 34 30 38 32 36 32 33  30 39 30 30 30 30 04 30   04082623090000.0
0350 : 30 30 30 30 30 30 30 30  30 30 30 30 30 30 30 00   000000000000000.
0360 : 30 30 30 30 30 30 30 30  30 30 30 30 30 30 30 30   0000000000000000
0370 : 00 01 00 00 00 00 00 00  00 00 00 00 00 00 00 00   ................

Copy Protection: Starforce 3.5

Dat:
<rom name="CMR5_01.iso" size="3721979904" crc="3bab8d6f" md5="564223a54d98789958ea0e62fcc77eb3" sha1="fdc73371a4a3754b4e9d066c5cbbbc33bd7ee3d2" />

____________________________________________________________

Thank you for accepting me in your community.

It's a pleasure to help you guys.

Greetings from Italy.