1

(1 replies, posted in Dumps)

I wanted to note that I ran this through DICUI on my LG BD-RE drive and also the Plextor PX-755SA I now have and got the exact same CRC/SHA1/MD5 so this is a valid dump.

Title: NBA Live 2001
System: IBM PC Compatible
Media Type: CD-ROM
Category: Games
Region: USA
Languages: English
Disc Serial: 1420307
Ringcode Information:
    Mastering Ring: 1420307 R1J  15  E
    Mastering SID Code: IFPI L239
    Mould SID Code: IFPI 4154
Error Count: 591
Version: N/A
Edition/Release: Original
Primary Volume Descriptor (PVD):

0320 : 20 20 20 20 20 20 20 20  20 20 20 20 20 32 30 30                200
0330 : 31 30 31 32 38 31 33 34  37 32 33 30 30 00 32 30   1012813472300.20
0340 : 30 31 30 31 32 38 31 33  34 37 32 33 30 30 00 30   01012813472300.0
0350 : 30 30 30 30 30 30 30 30  30 30 30 30 30 30 30 00   000000000000000.
0360 : 30 30 30 30 30 30 30 30  30 30 30 30 30 30 30 30   0000000000000000
0370 : 00 01 00 00 00 00 00 00  00 00 00 00 00 00 00 00   ................

Copy Protection: K:\00000001.TMP: SafeDisc v1 or greater
K:\00000002.TMP: SafeDisc v2 or greater
K:\00000409.016: SafeDisc 1
K:\00000409.256: SafeDisc 1
K:\00001009.016: SafeDisc 1
K:\00001009.256: SafeDisc 1
K:\drvmgt.dll: SafeDisc 1.5x-2.40
K:\nbawin.exe: SafeDisc 2.05.030
K:\secdrv.sys: SafeDisc 2.50
K:\Support\go_ez.exe: EA CdKey Registration Module
K:\Support\NBA Live 2001_EZ.exe: EA CdKey Registration Module
K:\Support\NBA Live 2001_eReg.exe: EA CdKey Registration Module
K:\Support\NBA Live 2001_Code.exe: EA CdKey Registration Module
K:\Support\NBA Live 2001_uninst.exe: EA CdKey Registration Module

Cuesheet:

FILE "NBA Live 2001 (USA).bin" BINARY
  TRACK 01 MODE1/2352
    INDEX 01 00:00:00

Write Offset: -12

DAT:

<rom name="NBA Live 2001 (USA).bin" size="742140672" crc="1e88c618" md5="1acc6ab985fcf927cb1cb80ac5320ef8" sha1="152b3e4497c4003ef7fee5f958f6437a1f28ba6b" />

LOGS:
NBA LIVE 2001.zip
https://www42.zippyshare.com/v/j2fyVaHP/file.html

3

(0 replies, posted in Dumps)

Matches http://redump.org/disc/2950/

Title: Medal of Honor: Allied Assault
Disc Number / Letter: Disc 1
System: IBM PC Compatible
Media Type: CD-ROM
Category: Games
Region: USA
Languages: English
Disc Serial: 1432407
Ringcode Information:
    Mastering Ring: (H0890) EA-1432407 03 Technicolor
    Mastering SID Code: IFPI L127
    Mould SID Code: IFPI 242A
Error Count: 576
Version: 1.0
Edition/Release: Original
Primary Volume Descriptor (PVD):

0320 : 20 20 20 20 20 20 20 20  20 20 20 20 20 32 30 30                200
0330 : 31 31 32 32 31 30 30 31  31 32 36 30 30 00 32 30   1122100112600.20
0340 : 30 31 31 32 32 31 30 30  31 31 32 36 30 30 00 30   01122100112600.0
0350 : 30 30 30 30 30 30 30 30  30 30 30 30 30 30 30 00   000000000000000.
0360 : 30 30 30 30 30 30 30 30  30 30 30 30 30 30 30 30   0000000000000000
0370 : 00 01 00 00 00 00 00 00  00 00 00 00 00 00 00 00   ................

Copy Protection: K:\00000001.TMP: SafeDisc v1 or greater
K:\00000002.TMP: SafeDisc v2 or greater
K:\00000409.016: SafeDisc 1
K:\00000409.256: SafeDisc 1
K:\drvmgt.dll: SafeDisc 2.51-2.60
K:\secdrv.sys: SafeDisc 2.51
K:\eReg\Medal of Honor Allied Assault_Code.exe: EA CdKey Registration Module
K:\eReg\Medal of Honor Allied Assault_EZ.exe: EA CdKey Registration Module
K:\eReg\Medal of Honor Allied Assault_eReg.exe: EA CdKey Registration Module
K:\eReg\Medal of Honor Allied Assault_uninst.exe: EA CdKey Registration Module
K:\eReg\go_EZ.exe: EA CdKey Registration Module

Cuesheet:

FILE "MOHAA_DISK1.bin" BINARY
  TRACK 01 MODE1/2352
    INDEX 01 00:00:00

Write Offset: -12

DAT:

<rom name="MOHAA_DISK1.bin" size="754232304" crc="18791de2" md5="d475f19f119ca096869e81e72cd6aa60" sha1="48d4e7b686284bdbd7587c4f6e8e0bc996b3ef53" />

----------------------------------------------------------------------

Matches http://redump.org/disc/2951/

Title: Medal of Honor: Allied Assault
Disc Number / Letter: Disc 2
System: IBM PC Compatible
Media Type: CD-ROM
Category: Games
Region: USA
Languages: English
Disc Serial: 1432417
Ringcode Information:
    Mastering Ring: (H0891) EA-1432417 01 Technicolor
    Mastering SID Code: IFPI L127
    Mould SID Code: IFPI 242B
Error Count: 576
Version: 1.0
Edition/Release: Original
Primary Volume Descriptor (PVD):

0320 : 20 20 20 20 20 20 20 20  20 20 20 20 20 32 30 30                200
0330 : 31 31 32 32 31 30 30 31  37 31 32 30 30 00 32 30   1122100171200.20
0340 : 30 31 31 32 32 31 30 30  31 37 31 32 30 30 00 30   01122100171200.0
0350 : 30 30 30 30 30 30 30 30  30 30 30 30 30 30 30 00   000000000000000.
0360 : 30 30 30 30 30 30 30 30  30 30 30 30 30 30 30 30   0000000000000000
0370 : 00 01 00 00 00 00 00 00  00 00 00 00 00 00 00 00   ................

Copy Protection: K:\00000001.TMP: SafeDisc v1 or greater
K:\00000002.TMP: SafeDisc v2 or greater
K:\00000409.016: SafeDisc 1
K:\00000409.256: SafeDisc 1
K:\drvmgt.dll: SafeDisc 2.51-2.60
K:\secdrv.sys: SafeDisc 2.51

Cuesheet:

FILE "MOHAA_DISK2.bin" BINARY
  TRACK 01 MODE1/2352
    INDEX 01 00:00:00

Write Offset: -12

DAT:

<rom name="MOHAA_DISK2.bin" size="771016176" crc="52c1e289" md5="c3d7e2ae74b4a0657b1ba269593a5f6a" sha1="11e5cd240d8cea57b50689ff234233f44c8c1d5d" />

Logs:
MOHAA_DISK1.zip
https://www5.zippyshare.com/v/gubpDVyi/file.html
MOHAA_DISK2.zip
https://www5.zippyshare.com/v/ZVNNHnd9/file.html

user7, he can't see Wii links yet. He needs dumper status wink

5

(6 replies, posted in News)

Amazing!

6

(5 replies, posted in General discussion)

Nice to know. So the zero is much slimmer. I also had a Q in one of my dumps for sure so all letters are used it seems.

Yes. When you get dumper status you will see them.