1

(0 replies, posted in Verifications)

Matches: http://redump.org/disc/53088/
Logs: https://www.dropbox.com/scl/fi/r43mqa4q … b&dl=0

Users who wish to submit this information to Redump must ensure that all of the fields below are accurate for the exact media they have.
Please double-check to ensure that there are no fields that need verification, such as the version or copy protection.
If there are no fields in need of verification or all fields are accurate, this preamble can be removed before submission.

Common Disc Info:
    Title: Culdcept
    Foreign Title (Non-latin): 
    Disc Number / Letter: 
    Disc Title: 
    System: Sega Saturn
    Media Type: CD-ROM
    Category: Games
    Region: Japan
    Languages: Japanese
    Disc Serial: T-31401G

    Ringcode Information:

Data Side Mastering Code (laser branded/etched): T-31401GP-01889A    10MM1    C    7X    Y
Data Side Mastering SID Code: IFPI L223
Data Side Toolstamp or Mastering Code (engraved/stamped): 
Data Side Mould SID Code: IFPI 3905
Data Side Additional Mould: 
Label Side Mould SID Code: 

    Barcode: 4 534801 000014
    EXE/Build Date: 1997-10-04
    Error Count: 0
    Comments:

[T:ISN] T-31401G
[T:VOL] CULDCEPT
(OPTIONAL)

    Contents: (OPTIONAL)

Version and Editions:
    Version: 1.004
    Edition/Release: Original

Extras:
    Primary Volume Descriptor (PVD):

0320 : 20 20 20 20 20 20 20 20  20 20 20 20 20 31 39 39                199
0330 : 37 31 30 30 34 30 30 30  30 30 30 30 30 24 31 39   7100400000000$19
0340 : 39 37 31 30 30 34 30 30  30 30 30 30 30 30 24 30   97100400000000$0
0350 : 30 30 30 30 30 30 30 30  30 30 30 30 30 30 30 00   000000000000000.
0360 : 30 30 30 30 30 30 30 30  30 30 30 30 30 30 30 30   0000000000000000
0370 : 00 01 00 00 00 00 00 00  00 00 00 00 00 00 00 00   ................

    Header:

0000 : 53 45 47 41 20 53 45 47  41 53 41 54 55 52 4E 20   SEGA SEGASATURN 
0010 : 53 45 47 41 20 54 50 20  54 2D 33 31 34 20 20 20   SEGA TP T-314
0020 : 54 2D 33 31 34 30 31 47  20 20 56 31 2E 30 30 34   T-31401G  V1.004
0030 : 31 39 39 37 31 30 30 34  43 44 2D 31 2F 31 20 20   19971004CD-1/1
0040 : 4A 54 20 20 20 20 20 20  20 20 20 20 20 20 20 20   JT
0050 : 4A 54 46 20 20 20 20 20  20 20 20 20 20 20 20 20   JTF
0060 : 43 55 4C 44 43 45 50 54  20 20 20 20 20 20 20 20   CULDCEPT
0070 : 20 20 20 20 20 20 20 20  20 20 20 20 20 20 20 20
0080 : 20 20 20 20 20 20 20 20  20 20 20 20 20 20 20 20
0090 : 20 20 20 20 20 20 20 20  20 20 20 20 20 20 20 20
00A0 : 20 20 20 20 20 20 20 20  20 20 20 20 20 20 20 20
00B0 : 20 20 20 20 20 20 20 20  20 20 20 20 20 20 20 20
00C0 : 20 20 20 20 20 20 20 20  20 20 20 20 20 20 20 20
00D0 : 00 00 00 00 00 00 00 00  00 00 00 00 00 00 00 00   ................
00E0 : 00 00 14 00 00 00 00 00  00 00 00 00 00 00 00 00   ................
00F0 : 06 00 40 00 00 00 00 00  00 00 00 00 00 00 00 00   ..@.............

Tracks and Write Offsets:
    DAT:

<rom name="CULDCEPT (Track 1).bin" size="273264768" crc="fa061f26" md5="46572a3f86329c0b58fbfad0a5d12ae7" sha1="82003c2bf26d23f8824f8934ce5ca9ae403f0043" />
<rom name="CULDCEPT (Track 2).bin" size="11056752" crc="719f8e85" md5="f1659a073fc64a10d88bc1fc28c10494" sha1="732df9c4c4a182e50ddc48cb4d17f8dfab7768f1" />
<rom name="CULDCEPT (Track 3).bin" size="15697248" crc="cbd52dea" md5="b5b116f8cacafccf8446a4599ebd9f9d" sha1="4a6f192f5dd1e994cfb74f3d8e18eda22ce7d57c" />
<rom name="CULDCEPT (Track 4).bin" size="11388384" crc="9afa0fc3" md5="566de4584e2c90889c7a741d6e850f58" sha1="355ac1c8aeb2927a74122103ebe908cc277ce69d" />

    Cuesheet:

CATALOG 0000000000000
FILE "CULDCEPT (Track 1).bin" BINARY
  TRACK 01 MODE1/2352
    INDEX 01 00:00:00
FILE "CULDCEPT (Track 2).bin" BINARY
  TRACK 02 AUDIO
    INDEX 00 00:00:00
    INDEX 01 00:02:00
FILE "CULDCEPT (Track 3).bin" BINARY
  TRACK 03 AUDIO
    INDEX 00 00:00:00
    INDEX 01 00:02:00
FILE "CULDCEPT (Track 4).bin" BINARY
  TRACK 04 AUDIO
    INDEX 00 00:00:00
    INDEX 01 00:02:00

    Write Offset: 0

Dumping Info:
    Dumping Program: Redumper v2024.01.08 build_311
    Date: 2024-03-03 15:23:31
    Manufacturer: PLEXTOR
    Model: DVDR PX-708A
    Firmware: 1.12 (03/13/06 21:00)
    Reported Disc Type: CD-ROM

2

(0 replies, posted in Verifications)

Matches: http://redump.org/disc/25367/
Logs: https://www.dropbox.com/scl/fi/butf3bpm … l&dl=0

Users who wish to submit this information to Redump must ensure that all of the fields below are accurate for the exact media they have.
Please double-check to ensure that there are no fields that need verification, such as the version or copy protection.
If there are no fields in need of verification or all fields are accurate, this preamble can be removed before submission.

Common Disc Info:
    Title: Söldnerschild
    Foreign Title (Non-latin): 
    Disc Number / Letter: 
    Disc Title: 
    System: Sega Saturn
    Media Type: CD-ROM
    Category: Games
    Region: Japan
    Languages: Japanese
    Disc Serial: GS-9155

    Ringcode Information:

Data Side Mastering Code (laser branded/etched): GS-9155P-01825    A
Data Side Mastering SID Code: 
Data Side Toolstamp or Mastering Code (engraved/stamped): 
Data Side Mould SID Code: IFPI 3005
Data Side Additional Mould: 
Label Side Mould SID Code: 

    Barcode: 4 974365 091552
    EXE/Build Date: 1997-08-08
    Error Count: 0
    Comments:

[T:ISN] GS-9155
[T:VOL] SOLDNER
(OPTIONAL)

    Contents: (OPTIONAL)

Version and Editions:
    Version: 1.001
    Edition/Release: Original

Extras:
    Primary Volume Descriptor (PVD):

0320 : 20 20 20 20 20 20 20 20  20 20 20 20 20 31 39 39                199
0330 : 37 30 38 30 38 30 30 30  30 30 30 30 30 00 31 39   7080800000000.19
0340 : 39 37 30 38 30 38 30 30  30 30 30 30 30 30 00 30   97080800000000.0
0350 : 30 30 30 30 30 30 30 30  30 30 30 30 30 30 30 00   000000000000000.
0360 : 30 30 30 30 30 30 30 30  30 30 30 30 30 30 30 30   0000000000000000
0370 : 00 01 00 00 00 00 00 00  00 00 00 00 00 00 00 00   ................

    Header:

0000 : 53 45 47 41 20 53 45 47  41 53 41 54 55 52 4E 20   SEGA SEGASATURN 
0010 : 53 45 47 41 20 45 4E 54  45 52 50 52 49 53 45 53   SEGA ENTERPRISES
0020 : 47 53 2D 39 31 35 35 20  20 20 56 31 2E 30 30 31   GS-9155   V1.001
0030 : 31 39 39 37 30 38 30 38  43 44 2D 31 2F 31 20 20   19970808CD-1/1
0040 : 4A 20 20 20 20 20 20 20  20 20 20 20 20 20 20 20   J
0050 : 4A 20 20 20 20 20 20 20  20 20 20 20 20 20 20 20   J
0060 : 53 4F 4C 44 4E 45 52 20  20 20 20 20 20 20 20 20   SOLDNER
0070 : 20 20 20 20 20 20 20 20  20 20 20 20 20 20 20 20
0080 : 20 20 20 20 20 20 20 20  20 20 20 20 20 20 20 20
0090 : 20 20 20 20 20 20 20 20  20 20 20 20 20 20 20 20
00A0 : 20 20 20 20 20 20 20 20  20 20 20 20 20 20 20 20
00B0 : 20 20 20 20 20 20 20 20  20 20 20 20 20 20 20 20
00C0 : 20 20 20 20 20 20 20 20  20 20 20 20 20 20 20 20
00D0 : 00 00 00 00 00 00 00 00  00 00 00 00 00 00 00 00   ................
00E0 : 00 00 10 00 00 00 00 00  00 00 00 00 00 00 00 00   ................
00F0 : 00 20 20 00 00 00 00 00  00 00 00 00 00 00 00 00   .  .............

Tracks and Write Offsets:
    DAT:

<rom name="SOLDNER (Track 1).bin" size="153738480" crc="55d6817a" md5="957bc8ad98d247d8281b9a9f2651b698" sha1="d8d261f08bbb2f3ab1aceee36709471a3888dad7" />
<rom name="SOLDNER (Track 2).bin" size="3880800" crc="9f0c72a9" md5="a0504ac125aabae3312a9f61d0becd00" sha1="eb8a96c9bd1358cc8606e099bad61762df07790a" />

    Cuesheet:

FILE "SOLDNER (Track 1).bin" BINARY
  TRACK 01 MODE1/2352
    INDEX 01 00:00:00
FILE "SOLDNER (Track 2).bin" BINARY
  TRACK 02 AUDIO
    INDEX 00 00:00:00
    INDEX 01 00:02:00

    Write Offset: +18

Dumping Info:
    Dumping Program: Redumper v2024.01.08 build_311
    Date: 2024-03-03 15:33:49
    Manufacturer: PLEXTOR
    Model: DVDR PX-708A
    Firmware: 1.12 (03/13/06 21:00)
    Reported Disc Type: CD-ROM

3

(0 replies, posted in Verifications)

Matches: http://redump.org/disc/49011/
Logs: https://www.dropbox.com/scl/fi/9i5qmauf … 2&dl=0

Users who wish to submit this information to Redump must ensure that all of the fields below are accurate for the exact media they have.
Please double-check to ensure that there are no fields that need verification, such as the version or copy protection.
If there are no fields in need of verification or all fields are accurate, this preamble can be removed before submission.

Common Disc Info:
    Title: euro demo france 55
    Foreign Title (Non-latin): 
    Disc Number / Letter: 
    Disc Title: 
    System: Sony PlayStation
    Media Type: CD-ROM
    Category: Games
    Region: France
    Languages: French
    Disc Serial: SCED-03461

    Ringcode Information:

Data Side Mastering Code (laser branded/etched): 
Data Side Mastering SID Code: 
Data Side Toolstamp or Mastering Code (engraved/stamped): 
Data Side Mould SID Code: IFPI 942S
Data Side Additional Mould: 
Label Side Mould SID Code: 

    Barcode: 
    EXE/Build Date: 2001-05-22
    Error Count: 0
    Comments:

[T:ISN] SCED-03461
[T:VOL] SCED-03461
(OPTIONAL)

    Contents: (OPTIONAL)

Version and Editions:
    Version: 
    Edition/Release: Original

EDC:
    EDC: Yes

Extras:
    Primary Volume Descriptor (PVD):

0320 : 20 20 20 20 20 20 20 20  20 20 20 20 20 32 30 30                200
0330 : 31 30 35 32 33 30 38 32  30 32 30 30 30 24 30 30   1052308202000$00
0340 : 30 30 30 30 30 30 30 30  30 30 30 30 30 30 00 30   00000000000000.0
0350 : 30 30 30 30 30 30 30 30  30 30 30 30 30 30 30 00   000000000000000.
0360 : 30 30 30 30 30 30 30 30  30 30 30 30 30 30 30 30   0000000000000000
0370 : 00 01 00 00 00 00 00 00  00 00 00 00 00 00 00 00   ................

Copy Protection:
    Anti-modchip: No
    LibCrypt: No

Tracks and Write Offsets:
    DAT:

<rom name="SCED-03461.bin" size="519535632" crc="6cb76cb5" md5="a8720e75f7497a0687b2eefc335102a3" sha1="e0dc8f994d1bb2c7f7692fc10977dafce3abdc61" />

    Cuesheet:

FILE "SCED-03461.bin" BINARY
  TRACK 01 MODE2/2352
    INDEX 01 00:00:00

    Write Offset: -647

Dumping Info:
    Dumping Program: DiscImageCreator 20230606
    Date: 2023-12-18 11:13:21
    Manufacturer: PLEXTOR
    Model: DVDR    PX-708A
    Firmware: 1.12
    Reported Disc Type: CD-ROM XA Disc

4

(0 replies, posted in Verifications)

Matches: http://redump.org/disc/47317/
Logs: https://www.dropbox.com/scl/fi/ym8gabwu … 0&dl=0

Users who wish to submit this information to Redump must ensure that all of the fields below are accurate for the exact media they have.
Please double-check to ensure that there are no fields that need verification, such as the version or copy protection.
If there are no fields in need of verification or all fields are accurate, this preamble can be removed before submission.

Common Disc Info:
    Title: euro demo (france) 53
    Foreign Title (Non-latin): 
    Disc Number / Letter: 
    Disc Title: 
    System: Sony PlayStation
    Media Type: CD-ROM
    Category: Games
    Region: France
    Languages: French
    Disc Serial: SCED-02657

    Ringcode Information:

Data Side Mastering Code (laser branded/etched): 
Data Side Mastering SID Code: 
Data Side Toolstamp or Mastering Code (engraved/stamped): 
Data Side Mould SID Code: IFPI 947S
Data Side Additional Mould: 
Label Side Mould SID Code: 

    Barcode: 
    EXE/Build Date: 2001-04-05
    Error Count: 0
    Comments:

[T:ISN] SCED-02657
[T:VOL] SCED-02657
(OPTIONAL)

    Contents: (OPTIONAL)

Version and Editions:
    Version: 
    Edition/Release: Original

EDC:
    EDC: Yes

Extras:
    Primary Volume Descriptor (PVD):

0320 : 20 20 20 20 20 20 20 20  20 20 20 20 20 32 30 30                200
0330 : 31 30 34 30 35 31 34 32  30 32 30 30 30 24 30 30   1040514202000$00
0340 : 30 30 30 30 30 30 30 30  30 30 30 30 30 30 00 30   00000000000000.0
0350 : 30 30 30 30 30 30 30 30  30 30 30 30 30 30 30 00   000000000000000.
0360 : 30 30 30 30 30 30 30 30  30 30 30 30 30 30 30 30   0000000000000000
0370 : 00 01 00 00 00 00 00 00  00 00 00 00 00 00 00 00   ................

Copy Protection:
    Anti-modchip: No
    LibCrypt: No

Tracks and Write Offsets:
    DAT:

<rom name="SCED-02657 (Track 1).bin" size="443382576" crc="a62f52a8" md5="9279e93e0db17f6bd9d550f505d628ae" sha1="14652c81c36dc95bc84fb431d8c59fe79917394b" />
<rom name="SCED-02657 (Track 2).bin" size="49963536" crc="73c45a04" md5="e95f8517ce601d7cc0e44c176ee1df54" sha1="a8ceb4ce3d1219d671cc4941f227bc6e038a6502" />
<rom name="SCED-02657 (Track 3).bin" size="39179616" crc="2e0c69eb" md5="fd9ae9180c56506b0d902bb47d6a4991" sha1="883f47577c58fc6a7ce3534ec711941ef442b76c" />
<rom name="SCED-02657 (Track 4).bin" size="32356464" crc="f6f33c3b" md5="f69392e9568b55dc52d1aebb900c2a61" sha1="0fd16cbb03e546647dee93fdd2a62a916efbcac6" />

    Cuesheet:

FILE "SCED-02657 (Track 1).bin" BINARY
  TRACK 01 MODE2/2352
    INDEX 01 00:00:00
FILE "SCED-02657 (Track 2).bin" BINARY
  TRACK 02 AUDIO
    INDEX 00 00:00:00
    INDEX 01 00:02:00
FILE "SCED-02657 (Track 3).bin" BINARY
  TRACK 03 AUDIO
    INDEX 00 00:00:00
    INDEX 01 00:02:00
FILE "SCED-02657 (Track 4).bin" BINARY
  TRACK 04 AUDIO
    INDEX 00 00:00:00
    INDEX 01 00:02:00

    Write Offset: -647

Dumping Info:
    Dumping Program: DiscImageCreator 20230606
    Date: 2023-12-17 18:54:58
    Manufacturer: PLEXTOR
    Model: DVDR    PX-708A
    Firmware: 1.12
    Reported Disc Type: CD-ROM XA Disc

5

(0 replies, posted in Verifications)

Matches: http://redump.org/disc/47287/
Logs: https://www.dropbox.com/scl/fi/76j4zjqd … f&dl=0

Users who wish to submit this information to Redump must ensure that all of the fields below are accurate for the exact media they have.
Please double-check to ensure that there are no fields that need verification, such as the version or copy protection.
If there are no fields in need of verification or all fields are accurate, this preamble can be removed before submission.

Common Disc Info:
    Title: euro demo (france) 52
    Foreign Title (Non-latin): 
    Disc Number / Letter: 
    Disc Title: 
    System: Sony PlayStation
    Media Type: CD-ROM
    Category: Games
    Region: France
    Languages: French
    Disc Serial: SCED-02656

    Ringcode Information:

Data Side Mastering Code (laser branded/etched): 
Data Side Mastering SID Code: 
Data Side Toolstamp or Mastering Code (engraved/stamped): 
Data Side Mould SID Code: IFPI 941L
Data Side Additional Mould: 
Label Side Mould SID Code: 

    Barcode: 
    EXE/Build Date: 2001-03-15
    Error Count: 0
    Comments:

[T:ISN] SCED-02656
[T:VOL] SCED-02656
(OPTIONAL)

    Contents: (OPTIONAL)

Version and Editions:
    Version: 
    Edition/Release: Original

EDC:
    EDC: Yes

Extras:
    Primary Volume Descriptor (PVD):

0320 : 20 20 20 20 20 20 20 20  20 20 20 20 20 32 30 30                200
0330 : 31 30 33 31 35 31 31 34  39 35 33 30 30 24 30 30   1031511495300$00
0340 : 30 30 30 30 30 30 30 30  30 30 30 30 30 30 00 30   00000000000000.0
0350 : 30 30 30 30 30 30 30 30  30 30 30 30 30 30 30 00   000000000000000.
0360 : 30 30 30 30 30 30 30 30  30 30 30 30 30 30 30 30   0000000000000000
0370 : 00 01 00 00 00 00 00 00  00 00 00 00 00 00 00 00   ................

Copy Protection:
    Anti-modchip: No
    LibCrypt: No

Tracks and Write Offsets:
    DAT:

<rom name="SCED-02656.bin" size="590683632" crc="2bcd9b84" md5="58d9f7854e2c3c594c6d7962ebff6ea3" sha1="85314e1e35f75dd58891999c707996115f9ab29c" />

    Cuesheet:

FILE "SCED-02656.bin" BINARY
  TRACK 01 MODE2/2352
    INDEX 01 00:00:00

    Write Offset: -647

Dumping Info:
    Dumping Program: DiscImageCreator 20230606
    Date: 2023-12-17 17:25:06
    Manufacturer: PLEXTOR
    Model: DVDR    PX-708A
    Firmware: 1.12
    Reported Disc Type: CD-ROM XA Disc

6

(0 replies, posted in Verifications)

Matches: http://redump.org/disc/44917/
Logs: https://www.dropbox.com/scl/fi/m0o6d0vg … z&dl=0

Users who wish to submit this information to Redump must ensure that all of the fields below are accurate for the exact media they have.
Please double-check to ensure that there are no fields that need verification, such as the version or copy protection.
If there are no fields in need of verification or all fields are accurate, this preamble can be removed before submission.

Common Disc Info:
    Title: euro demo (france) 51
    Foreign Title (Non-latin): 
    Disc Number / Letter: 
    Disc Title: 
    System: Sony PlayStation
    Media Type: CD-ROM
    Category: Games
    Region: France
    Languages: French
    Disc Serial: SCED-02655

    Ringcode Information:

Data Side Mastering Code (laser branded/etched): 
Data Side Mastering SID Code: 
Data Side Toolstamp or Mastering Code (engraved/stamped): 
Data Side Mould SID Code: IFPI 947S
Data Side Additional Mould: 
Label Side Mould SID Code: 

    Barcode: 
    EXE/Build Date: 2001-02-06
    Error Count: 0
    Comments:

[T:ISN] SCED-02655
[T:VOL] SCED-02655
(OPTIONAL)

    Contents: (OPTIONAL)

Version and Editions:
    Version: 
    Edition/Release: Original

EDC:
    EDC: Yes

Extras:
    Primary Volume Descriptor (PVD):

0320 : 20 20 20 20 20 20 20 20  20 20 20 20 20 32 30 30                200
0330 : 31 30 32 30 36 31 35 32  34 32 32 30 30 24 30 30   1020615242200$00
0340 : 30 30 30 30 30 30 30 30  30 30 30 30 30 30 00 30   00000000000000.0
0350 : 30 30 30 30 30 30 30 30  30 30 30 30 30 30 30 00   000000000000000.
0360 : 30 30 30 30 30 30 30 30  30 30 30 30 30 30 30 30   0000000000000000
0370 : 00 01 00 00 00 00 00 00  00 00 00 00 00 00 00 00   ................

Copy Protection:
    Anti-modchip: No
    LibCrypt: No

Tracks and Write Offsets:
    DAT:

<rom name="SCED-02655.bin" size="364449456" crc="709f2efe" md5="866e376074119ef96ef21d7d83de83a4" sha1="ea2b2902a742fb62e3b649cce7205f2bd417d6e1" />

    Cuesheet:

FILE "SCED-02655.bin" BINARY
  TRACK 01 MODE2/2352
    INDEX 01 00:00:00

    Write Offset: -647

Dumping Info:
    Dumping Program: DiscImageCreator 20230606
    Date: 2023-12-17 16:59:21
    Manufacturer: PLEXTOR
    Model: DVDR    PX-708A
    Firmware: 1.12
    Reported Disc Type: CD-ROM XA Disc

7

(0 replies, posted in Verifications)

Matches: http://redump.org/disc/4959/
Logs: https://www.dropbox.com/scl/fi/ux8sr3vf … n&dl=0

Users who wish to submit this information to Redump must ensure that all of the fields below are accurate for the exact media they have.
Please double-check to ensure that there are no fields that need verification, such as the version or copy protection.
If there are no fields in need of verification or all fields are accurate, this preamble can be removed before submission.

Common Disc Info:
    Title: euro demo (france) 48
    Foreign Title (Non-latin): 
    Disc Number / Letter: 
    Disc Title: 
    System: Sony PlayStation
    Media Type: CD-ROM
    Category: Games
    Region: France
    Languages: French
    Disc Serial: SCED-02652

    Ringcode Information:

Data Side Mastering Code (laser branded/etched): 
Data Side Mastering SID Code: 
Data Side Toolstamp or Mastering Code (engraved/stamped): 
Data Side Mould SID Code: IFPI 94F3
Data Side Additional Mould: 
Label Side Mould SID Code: 

    Barcode: 
    EXE/Build Date: 2000-11-15
    Error Count: 0
    Comments:

[T:ISN] SCED-02652
[T:VOL] SCED-02652
(OPTIONAL)

    Contents: (OPTIONAL)

Version and Editions:
    Version: 
    Edition/Release: Original

EDC:
    EDC: Yes

Extras:
    Primary Volume Descriptor (PVD):

0320 : 20 20 20 20 20 20 20 20  20 20 20 20 20 30 30 30                000
0330 : 30 31 31 31 35 31 33 32  34 35 33 30 30 24 30 30   0111513245300$00
0340 : 30 30 30 30 30 30 30 30  30 30 30 30 30 30 00 30   00000000000000.0
0350 : 30 30 30 30 30 30 30 30  30 30 30 30 30 30 30 00   000000000000000.
0360 : 30 30 30 30 30 30 30 30  30 30 30 30 30 30 30 30   0000000000000000
0370 : 00 01 00 00 00 00 00 00  00 00 00 00 00 00 00 00   ................

Copy Protection:
    Anti-modchip: No
    LibCrypt: No

Tracks and Write Offsets:
    DAT:

<rom name="SCED-02652.bin" size="479274096" crc="fc770922" md5="1b4a5ca696cf26df96a7358883ebbc22" sha1="8cf4fb7848ae8569841cd2baf0fa134a1559b388" />

    Cuesheet:

FILE "SCED-02652.bin" BINARY
  TRACK 01 MODE2/2352
    INDEX 01 00:00:00

    Write Offset: -647

Dumping Info:
    Dumping Program: DiscImageCreator 20230606
    Date: 2023-12-17 16:05:35
    Manufacturer: PLEXTOR
    Model: DVDR    PX-708A
    Firmware: 1.12
    Reported Disc Type: CD-ROM XA Disc

8

(0 replies, posted in Verifications)

Matches: http://redump.org/disc/29424/
Logs: https://www.dropbox.com/scl/fi/wf2k9x00 … e&dl=0

Users who wish to submit this information to Redump must ensure that all of the fields below are accurate for the exact media they have.
Please double-check to ensure that there are no fields that need verification, such as the version or copy protection.
If there are no fields in need of verification or all fields are accurate, this preamble can be removed before submission.

Common Disc Info:
    Title: euro demo (france) 46
    Foreign Title (Non-latin): 
    Disc Number / Letter: 
    Disc Title: 
    System: Sony PlayStation
    Media Type: CD-ROM
    Category: Games
    Region: France
    Languages: French
    Disc Serial: SCED-02650

    Ringcode Information:

Data Side Mastering Code (laser branded/etched): 
Data Side Mastering SID Code: 
Data Side Toolstamp or Mastering Code (engraved/stamped): 
Data Side Mould SID Code: IFPI 947P
Data Side Additional Mould: 
Label Side Mould SID Code: 

    Barcode: 
    EXE/Build Date: 2000-09-01
    Error Count: 0
    Comments:

[T:ISN] SCED-02650
[T:VOL] SCED_02650
(OPTIONAL)

    Contents: (OPTIONAL)

Version and Editions:
    Version: 
    Edition/Release: Original

EDC:
    EDC: Yes

Extras:
    Primary Volume Descriptor (PVD):

0320 : 20 20 20 20 20 20 20 20  20 20 20 20 20 30 30 30                000
0330 : 30 30 39 30 31 31 33 34  33 33 31 30 30 24 30 30   0090113433100$00
0340 : 30 30 30 30 30 30 30 30  30 30 30 30 30 30 00 30   00000000000000.0
0350 : 30 30 30 30 30 30 30 30  30 30 30 30 30 30 30 00   000000000000000.
0360 : 30 30 30 30 30 30 30 30  30 30 30 30 30 30 30 30   0000000000000000
0370 : 00 01 00 00 00 00 00 00  00 00 00 00 00 00 00 00   ................

Copy Protection:
    Anti-modchip: No
    LibCrypt: No

Tracks and Write Offsets:
    DAT:

<rom name="SCED_02650 (Track 1).bin" size="290130960" crc="80bedb52" md5="82e57c45ef5170f21741d2ec8f3e9170" sha1="734a23a46c861cb73fa63eeb6380ed88491a7631" />
<rom name="SCED_02650 (Track 2).bin" size="18510240" crc="37dc136c" md5="4c35f0796c3c0040aeb2a32c91229ff8" sha1="810fe92526d67d866dd679f4628706095aeba43b" />
<rom name="SCED_02650 (Track 3).bin" size="14288400" crc="55eef896" md5="9cad2f4733705af831f6d684d0b5d992" sha1="c58978e940c0ea51c6521fb4af14b850ac55ad84" />
<rom name="SCED_02650 (Track 4).bin" size="20452992" crc="e84e2f77" md5="1520f3f3c341b6203b926da7d70cbdc2" sha1="9be669229edf36925b4d533ef99714e3e4c6d7f8" />
<rom name="SCED_02650 (Track 5).bin" size="18404400" crc="acc23f6b" md5="790e2325daea2ff3db9035d85c68dfe1" sha1="3ee11643044883bed9e36db11d754462b4f54053" />
<rom name="SCED_02650 (Track 6).bin" size="32358816" crc="f950e78e" md5="2cd52690e295db3d664acbf8bc12ed36" sha1="bfd65a36657368a613b176cb952c3f73340c2698" />

    Cuesheet:

FILE "SCED_02650 (Track 1).bin" BINARY
  TRACK 01 MODE2/2352
    INDEX 01 00:00:00
FILE "SCED_02650 (Track 2).bin" BINARY
  TRACK 02 AUDIO
    INDEX 00 00:00:00
    INDEX 01 00:02:00
FILE "SCED_02650 (Track 3).bin" BINARY
  TRACK 03 AUDIO
    INDEX 00 00:00:00
    INDEX 01 00:02:00
FILE "SCED_02650 (Track 4).bin" BINARY
  TRACK 04 AUDIO
    INDEX 00 00:00:00
    INDEX 01 00:02:00
FILE "SCED_02650 (Track 5).bin" BINARY
  TRACK 05 AUDIO
    INDEX 00 00:00:00
    INDEX 01 00:02:00
FILE "SCED_02650 (Track 6).bin" BINARY
  TRACK 06 AUDIO
    INDEX 00 00:00:00
    INDEX 01 00:02:00

    Write Offset: -647

Dumping Info:
    Dumping Program: DiscImageCreator 20230606
    Date: 2023-12-17 13:07:17
    Manufacturer: PLEXTOR
    Model: DVDR    PX-708A
    Firmware: 1.12
    Reported Disc Type: CD-ROM XA Disc

9

(0 replies, posted in Verifications)

Matches: http://redump.org/disc/29423/
Logs: https://www.dropbox.com/scl/fi/7l2iam60 … 1&dl=0

Users who wish to submit this information to Redump must ensure that all of the fields below are accurate for the exact media they have.
Please double-check to ensure that there are no fields that need verification, such as the version or copy protection.
If there are no fields in need of verification or all fields are accurate, this preamble can be removed before submission.

Common Disc Info:
    Title: euro demo (france) 45
    Foreign Title (Non-latin): 
    Disc Number / Letter: 
    Disc Title: 
    System: Sony PlayStation
    Media Type: CD-ROM
    Category: Games
    Region: France
    Languages: French
    Disc Serial: SCED-02649

    Ringcode Information:

Data Side Mastering Code (laser branded/etched): 
Data Side Mastering SID Code: 
Data Side Toolstamp or Mastering Code (engraved/stamped): 
Data Side Mould SID Code: IFPI 941R
Data Side Additional Mould: 
Label Side Mould SID Code: 

    Barcode: 
    EXE/Build Date: 2000-07-31
    Error Count: 1
    Comments:

[T:ISN] SCED-02649
[T:VOL] SCED_02649
(OPTIONAL)

    Contents: (OPTIONAL)

Version and Editions:
    Version: 
    Edition/Release: Original

EDC:
    EDC: Yes

Extras:
    Primary Volume Descriptor (PVD):

0320 : 20 20 20 20 20 20 20 20  20 20 20 20 20 30 30 30                000
0330 : 30 30 37 33 31 31 34 31  38 35 36 30 30 24 30 30   0073114185600$00
0340 : 30 30 30 30 30 30 30 30  30 30 30 30 30 30 00 30   00000000000000.0
0350 : 30 30 30 30 30 30 30 30  30 30 30 30 30 30 30 00   000000000000000.
0360 : 30 30 30 30 30 30 30 30  30 30 30 30 30 30 30 30   0000000000000000
0370 : 00 01 00 00 00 00 00 00  00 00 00 00 00 00 00 00   ................

Copy Protection:
    Anti-modchip: No
    LibCrypt: No

Tracks and Write Offsets:
    DAT:

<rom name="SCED_02649 (Track 1).bin" size="508262496" crc="1f45d205" md5="6cf6d3d2e5196481415413dd0d67bf7b" sha1="7eca7918901c98abc136e1f6608c8c7064d8ec74" />
<rom name="SCED_02649 (Track 2).bin" size="32356464" crc="f6f33c3b" md5="f69392e9568b55dc52d1aebb900c2a61" sha1="0fd16cbb03e546647dee93fdd2a62a916efbcac6" />

    Cuesheet:

FILE "SCED_02649 (Track 1).bin" BINARY
  TRACK 01 MODE2/2352
    INDEX 01 00:00:00
FILE "SCED_02649 (Track 2).bin" BINARY
  TRACK 02 AUDIO
    INDEX 00 00:00:00
    INDEX 01 00:02:00

    Write Offset: -647

Dumping Info:
    Dumping Program: DiscImageCreator 20230606
    Date: 2023-12-14 09:54:40
    Manufacturer: PLEXTOR
    Model: DVDR    PX-708A
    Firmware: 1.12
    Reported Disc Type: CD-ROM XA Disc

10

(0 replies, posted in Verifications)

Matches: http://redump.org/disc/29422/
Logs: https://www.dropbox.com/scl/fi/gbusyunm … 7&dl=0

Users who wish to submit this information to Redump must ensure that all of the fields below are accurate for the exact media they have.
Please double-check to ensure that there are no fields that need verification, such as the version or copy protection.
If there are no fields in need of verification or all fields are accurate, this preamble can be removed before submission.

Common Disc Info:
    Title: euro demo (france) 44
    Foreign Title (Non-latin): 
    Disc Number / Letter: 
    Disc Title: 
    System: Sony PlayStation
    Media Type: CD-ROM
    Category: Games
    Region: France
    Languages: French
    Disc Serial: SCED-02648

    Ringcode Information:

Data Side Mastering Code (laser branded/etched): 
Data Side Mastering SID Code: 
Data Side Toolstamp or Mastering Code (engraved/stamped): 
Data Side Mould SID Code: IFPI 94Z8
Data Side Additional Mould: 
Label Side Mould SID Code: 

    Barcode: 
    EXE/Build Date: 2000-05-19
    Error Count: 1
    Comments:

[T:ISN] SCED-02648
[T:VOL] SCED_02648
(OPTIONAL)

    Contents: (OPTIONAL)

Version and Editions:
    Version: 
    Edition/Release: Original

EDC:
    EDC: No

Extras:
    Primary Volume Descriptor (PVD):

0320 : 20 20 20 20 20 20 20 20  20 20 20 20 20 30 30 30                000
0330 : 30 30 35 31 39 31 33 31  37 33 32 30 30 24 30 30   0051913173200$00
0340 : 30 30 30 30 30 30 30 30  30 30 30 30 30 30 00 30   00000000000000.0
0350 : 30 30 30 30 30 30 30 30  30 30 30 30 30 30 30 00   000000000000000.
0360 : 30 30 30 30 30 30 30 30  30 30 30 30 30 30 30 30   0000000000000000
0370 : 00 01 00 00 00 00 00 00  00 00 00 00 00 00 00 00   ................

Copy Protection:
    Anti-modchip: No
    LibCrypt: No

Tracks and Write Offsets:
    DAT:

<rom name="SCED_02648 (Track 1).bin" size="385584528" crc="f43a2028" md5="5985b232a52d51770606f0a5745830c2" sha1="73d9bed511f3db915b8cc9934e1e17662dd0bb97" />
<rom name="SCED_02648 (Track 2).bin" size="78345120" crc="22e5d6a6" md5="cfedd36d7de487549f1074c845a4caa6" sha1="d6d27fbc087a1e517e0cf94eaa9a28d03092b761" />

    Cuesheet:

FILE "SCED_02648 (Track 1).bin" BINARY
  TRACK 01 MODE2/2352
    INDEX 01 00:00:00
FILE "SCED_02648 (Track 2).bin" BINARY
  TRACK 02 AUDIO
    INDEX 00 00:00:00
    INDEX 01 00:02:00

    Write Offset: -647

Dumping Info:
    Dumping Program: DiscImageCreator 20230606
    Date: 2023-12-14 09:19:38
    Manufacturer: PLEXTOR
    Model: DVDR    PX-708A
    Firmware: 1.12
    Reported Disc Type: CD-ROM XA Disc

11

(0 replies, posted in Verifications)

Matches: http://redump.org/disc/29421/
Logs: https://www.dropbox.com/scl/fi/foo7ar3u … l&dl=0

Users who wish to submit this information to Redump must ensure that all of the fields below are accurate for the exact media they have.
Please double-check to ensure that there are no fields that need verification, such as the version or copy protection.
If there are no fields in need of verification or all fields are accurate, this preamble can be removed before submission.

Common Disc Info:
    Title: euro demo (france) 43
    Foreign Title (Non-latin): 
    Disc Number / Letter: 
    Disc Title: 
    System: Sony PlayStation
    Media Type: CD-ROM
    Category: Games
    Region: France
    Languages: French
    Disc Serial: SCED-02647

    Ringcode Information:

Data Side Mastering Code (laser branded/etched): 
Data Side Mastering SID Code: 
Data Side Toolstamp or Mastering Code (engraved/stamped): 
Data Side Mould SID Code: IFPI 941P
Data Side Additional Mould: 
Label Side Mould SID Code: 

    Barcode: 
    EXE/Build Date: 2000-04-18
    Error Count: 1
    Comments:

[T:ISN] SCED-02647
[T:VOL] SCED_02647
(OPTIONAL)

    Contents: (OPTIONAL)

Version and Editions:
    Version: 
    Edition/Release: Original

EDC:
    EDC: No

Extras:
    Primary Volume Descriptor (PVD):

0320 : 20 20 20 20 20 20 20 20  20 20 20 20 20 30 30 30                000
0330 : 30 30 34 31 38 31 31 31  37 33 38 30 30 24 30 30   0041811173800$00
0340 : 30 30 30 30 30 30 30 30  30 30 30 30 30 30 00 30   00000000000000.0
0350 : 30 30 30 30 30 30 30 30  30 30 30 30 30 30 30 00   000000000000000.
0360 : 30 30 30 30 30 30 30 30  30 30 30 30 30 30 30 30   0000000000000000
0370 : 00 01 00 00 00 00 00 00  00 00 00 00 00 00 00 00   ................

Copy Protection:
    Anti-modchip: No
    LibCrypt: No

Tracks and Write Offsets:
    DAT:

<rom name="SCED_02647 (Track 1).bin" size="429602208" crc="7c4db31a" md5="d8cdc3fe2d9b7113b388d5a6836c3ff6" sha1="1ae5f9f33a572dbf5921564cecd08e272be9432e" />
<rom name="SCED_02647 (Track 2).bin" size="32356464" crc="f6f33c3b" md5="f69392e9568b55dc52d1aebb900c2a61" sha1="0fd16cbb03e546647dee93fdd2a62a916efbcac6" />

    Cuesheet:

FILE "SCED_02647 (Track 1).bin" BINARY
  TRACK 01 MODE2/2352
    INDEX 01 00:00:00
FILE "SCED_02647 (Track 2).bin" BINARY
  TRACK 02 AUDIO
    INDEX 00 00:00:00
    INDEX 01 00:02:00

    Write Offset: -647

Dumping Info:
    Dumping Program: DiscImageCreator 20230606
    Date: 2023-12-14 08:19:14
    Manufacturer: PLEXTOR
    Model: DVDR    PX-708A
    Firmware: 1.12
    Reported Disc Type: CD-ROM XA Disc

12

(0 replies, posted in Verifications)

Matches: http://redump.org/disc/29420/
Logs: https://www.dropbox.com/scl/fi/sy6uszn4 … u&dl=0

Users who wish to submit this information to Redump must ensure that all of the fields below are accurate for the exact media they have.
Please double-check to ensure that there are no fields that need verification, such as the version or copy protection.
If there are no fields in need of verification or all fields are accurate, this preamble can be removed before submission.

Common Disc Info:
    Title: euro demo 42
    Foreign Title (Non-latin): 
    Disc Number / Letter: 
    Disc Title: 
    System: Sony PlayStation
    Media Type: CD-ROM
    Category: Games
    Region: France
    Languages: French
    Disc Serial: SCED-01862

    Ringcode Information:

Data Side Mastering Code (laser branded/etched): 
Data Side Mastering SID Code: 
Data Side Toolstamp or Mastering Code (engraved/stamped): 
Data Side Mould SID Code: IFPI 94Y7
Data Side Additional Mould: 
Label Side Mould SID Code: 

    Barcode: 
    EXE/Build Date: 2000-04-07
    Error Count: 0
    Comments:

[T:ISN] SCED-01862
[T:VOL] SCED_01862
(OPTIONAL)

    Contents: (OPTIONAL)

Version and Editions:
    Version: 
    Edition/Release: Original

EDC:
    EDC: Yes

Extras:
    Primary Volume Descriptor (PVD):

0320 : 20 20 20 20 20 20 20 20  20 20 20 20 20 30 30 30                000
0330 : 30 30 34 30 37 31 35 33  30 33 38 30 30 24 30 30   0040715303800$00
0340 : 30 30 30 30 30 30 30 30  30 30 30 30 30 30 00 30   00000000000000.0
0350 : 30 30 30 30 30 30 30 30  30 30 30 30 30 30 30 00   000000000000000.
0360 : 30 30 30 30 30 30 30 30  30 30 30 30 30 30 30 30   0000000000000000
0370 : 00 01 00 00 00 00 00 00  00 00 00 00 00 00 00 00   ................

Copy Protection:
    Anti-modchip: No
    LibCrypt: No

Tracks and Write Offsets:
    DAT:

<rom name="SCED_01862 (Track 1).bin" size="453068112" crc="8e52586b" md5="633a0d5f52f3cf668df1ab314aa762a4" sha1="c02553f2f61b27cee6e34b633be514b64be6f5dc" />
<rom name="SCED_01862 (Track 2).bin" size="32356464" crc="f6f33c3b" md5="f69392e9568b55dc52d1aebb900c2a61" sha1="0fd16cbb03e546647dee93fdd2a62a916efbcac6" />

    Cuesheet:

FILE "SCED_01862 (Track 1).bin" BINARY
  TRACK 01 MODE2/2352
    INDEX 01 00:00:00
FILE "SCED_01862 (Track 2).bin" BINARY
  TRACK 02 AUDIO
    INDEX 00 00:00:00
    INDEX 01 00:02:00

    Write Offset: -647

Dumping Info:
    Dumping Program: DiscImageCreator 20230606
    Date: 2023-12-13 22:01:52
    Manufacturer: PLEXTOR
    Model: DVDR    PX-708A
    Firmware: 1.12
    Reported Disc Type: CD-ROM XA Disc

13

(0 replies, posted in Verifications)

Matches: http://redump.org/disc/29419/
Logs: https://www.dropbox.com/scl/fi/870vqx90 … p&dl=0

Users who wish to submit this information to Redump must ensure that all of the fields below are accurate for the exact media they have.
Please double-check to ensure that there are no fields that need verification, such as the version or copy protection.
If there are no fields in need of verification or all fields are accurate, this preamble can be removed before submission.

Common Disc Info:
    Title: euro demo 41
    Foreign Title (Non-latin): 
    Disc Number / Letter: 
    Disc Title: 
    System: Sony PlayStation
    Media Type: CD-ROM
    Category: Games
    Region: France
    Languages: French
    Disc Serial: SCED-01861

    Ringcode Information:

Data Side Mastering Code (laser branded/etched): 
Data Side Mastering SID Code: 
Data Side Toolstamp or Mastering Code (engraved/stamped): 
Data Side Mould SID Code: IFPI 942R
Data Side Additional Mould: 
Label Side Mould SID Code: 

    Barcode: 
    EXE/Build Date: 2000-02-25
    Error Count: 1
    Comments:

[T:ISN] SCED-01861
[T:VOL] SCED_01861
(OPTIONAL)

    Contents: (OPTIONAL)

Version and Editions:
    Version: 
    Edition/Release: Original

EDC:
    EDC: No

Extras:
    Primary Volume Descriptor (PVD):

0320 : 20 20 20 20 20 20 20 20  20 20 20 20 20 30 30 30                000
0330 : 30 30 32 32 35 31 35 31  30 32 31 30 30 24 30 30   0022515102100$00
0340 : 30 30 30 30 30 30 30 30  30 30 30 30 30 30 00 30   00000000000000.0
0350 : 30 30 30 30 30 30 30 30  30 30 30 30 30 30 30 00   000000000000000.
0360 : 30 30 30 30 30 30 30 30  30 30 30 30 30 30 30 30   0000000000000000
0370 : 00 01 00 00 00 00 00 00  00 00 00 00 00 00 00 00   ................

Copy Protection:
    Anti-modchip: No
    LibCrypt: No

Tracks and Write Offsets:
    DAT:

<rom name="SCED_01861 (Track 1).bin" size="417515280" crc="ac61562a" md5="e1395d50a2a81ee7b8aa259a4e98ed40" sha1="b93ae5067d7f85ec9c12797631f772b358fce4f0" />
<rom name="SCED_01861 (Track 2).bin" size="32356464" crc="f6f33c3b" md5="f69392e9568b55dc52d1aebb900c2a61" sha1="0fd16cbb03e546647dee93fdd2a62a916efbcac6" />

    Cuesheet:

FILE "SCED_01861 (Track 1).bin" BINARY
  TRACK 01 MODE2/2352
    INDEX 01 00:00:00
FILE "SCED_01861 (Track 2).bin" BINARY
  TRACK 02 AUDIO
    INDEX 00 00:00:00
    INDEX 01 00:02:00

    Write Offset: -647

Dumping Info:
    Dumping Program: DiscImageCreator 20230606
    Date: 2023-12-13 21:30:44
    Manufacturer: PLEXTOR
    Model: DVDR    PX-708A
    Firmware: 1.12
    Reported Disc Type: CD-ROM XA Disc

14

(0 replies, posted in Verifications)

Matches: http://redump.org/disc/29402/
Logs: https://www.dropbox.com/scl/fi/hp1z3u4f … t&dl=0

Users who wish to submit this information to Redump must ensure that all of the fields below are accurate for the exact media they have.
Please double-check to ensure that there are no fields that need verification, such as the version or copy protection.
If there are no fields in need of verification or all fields are accurate, this preamble can be removed before submission.

Common Disc Info:
    Title: euro demo 40
    Foreign Title (Non-latin): 
    Disc Number / Letter: 
    Disc Title: 
    System: Sony PlayStation
    Media Type: CD-ROM
    Category: Games
    Region: France
    Languages: French
    Disc Serial: SCED-01860

    Ringcode Information:

Data Side Mastering Code (laser branded/etched): 
Data Side Mastering SID Code: 
Data Side Toolstamp or Mastering Code (engraved/stamped): 
Data Side Mould SID Code: IFPI 946S
Data Side Additional Mould: 
Label Side Mould SID Code: 

    Barcode: 
    EXE/Build Date: 2000-01-19
    Error Count: 1
    Comments:

[T:ISN] SCED-01860
[T:VOL] SCED_01860
(OPTIONAL)

    Contents: (OPTIONAL)

Version and Editions:
    Version: 
    Edition/Release: Original

EDC:
    EDC: No

Extras:
    Primary Volume Descriptor (PVD):

0320 : 20 20 20 20 20 20 20 20  20 20 20 20 20 30 30 30                000
0330 : 30 30 31 31 39 31 33 31  39 30 33 30 30 24 30 30   0011913190300$00
0340 : 30 30 30 30 30 30 30 30  30 30 30 30 30 30 00 30   00000000000000.0
0350 : 30 30 30 30 30 30 30 30  30 30 30 30 30 30 30 00   000000000000000.
0360 : 30 30 30 30 30 30 30 30  30 30 30 30 30 30 30 30   0000000000000000
0370 : 00 01 00 00 00 00 00 00  00 00 00 00 00 00 00 00   ................

Copy Protection:
    Anti-modchip: No
    LibCrypt: No

Tracks and Write Offsets:
    DAT:

<rom name="SCED_01860 (Track 1).bin" size="386969856" crc="5a11bfa9" md5="2c32c402e80384efb12907b6c041215a" sha1="34bcdc0f91d33d2acea25d88a0d0b0bf48b64dfd" />
<rom name="SCED_01860 (Track 2).bin" size="29844528" crc="0a6ae950" md5="4867bfcd999c7c55b4057b4a4adc4dc5" sha1="3298f7526566ea0d2c5b5c312fdffa727c272245" />
<rom name="SCED_01860 (Track 3).bin" size="32356464" crc="f6f33c3b" md5="f69392e9568b55dc52d1aebb900c2a61" sha1="0fd16cbb03e546647dee93fdd2a62a916efbcac6" />

    Cuesheet:

FILE "SCED_01860 (Track 1).bin" BINARY
  TRACK 01 MODE2/2352
    INDEX 01 00:00:00
FILE "SCED_01860 (Track 2).bin" BINARY
  TRACK 02 AUDIO
    INDEX 00 00:00:00
    INDEX 01 00:02:00
FILE "SCED_01860 (Track 3).bin" BINARY
  TRACK 03 AUDIO
    INDEX 00 00:00:00
    INDEX 01 00:02:00

    Write Offset: -647

Dumping Info:
    Dumping Program: DiscImageCreator 20230606
    Date: 2023-12-13 19:11:49
    Manufacturer: PLEXTOR
    Model: DVDR    PX-708A
    Firmware: 1.12
    Reported Disc Type: CD-ROM XA Disc

15

(0 replies, posted in Verifications)

Matches: http://redump.org/disc/29397/
Logs: https://www.dropbox.com/scl/fi/vtqk0g2k … r&dl=0

Users who wish to submit this information to Redump must ensure that all of the fields below are accurate for the exact media they have.
Please double-check to ensure that there are no fields that need verification, such as the version or copy protection.
If there are no fields in need of verification or all fields are accurate, this preamble can be removed before submission.

Common Disc Info:
    Title: euro demo 36
    Foreign Title (Non-latin): 
    Disc Number / Letter: 
    Disc Title: 
    System: Sony PlayStation
    Media Type: CD-ROM
    Category: Games
    Region: France
    Languages: French
    Disc Serial: SCED-01856

    Ringcode Information:

Data Side Mastering Code (laser branded/etched): 
Data Side Mastering SID Code: 
Data Side Toolstamp or Mastering Code (engraved/stamped): 
Data Side Mould SID Code: IFPI 943Q
Data Side Additional Mould: 
Label Side Mould SID Code: 

    Barcode: 
    EXE/Build Date: 1999-09-21
    Error Count: 1
    Comments:

[T:ISN] SCED-01856
[T:VOL] SCED_01856
(OPTIONAL)

    Contents: (OPTIONAL)

Version and Editions:
    Version: 
    Edition/Release: Original

EDC:
    EDC: No

Extras:
    Primary Volume Descriptor (PVD):

0320 : 20 20 20 20 20 20 20 20  20 20 20 20 20 31 39 39                199
0330 : 39 30 39 32 31 31 31 33  30 35 31 30 30 24 30 30   9092111305100$00
0340 : 30 30 30 30 30 30 30 30  30 30 30 30 30 30 00 30   00000000000000.0
0350 : 30 30 30 30 30 30 30 30  30 30 30 30 30 30 30 00   000000000000000.
0360 : 30 30 30 30 30 30 30 30  30 30 30 30 30 30 30 30   0000000000000000
0370 : 00 01 00 00 00 00 00 00  00 00 00 00 00 00 00 00   ................

Copy Protection:
    Anti-modchip: Yes
    LibCrypt: No

Tracks and Write Offsets:
    DAT:

<rom name="SCED_01856 (Track 1).bin" size="475783728" crc="72f82fd9" md5="db1a785fda1c8d22916bead66abddc7a" sha1="bc450bb32603a5c3ee62ad2d167175ad8a68c881" />
<rom name="SCED_01856 (Track 2).bin" size="32356464" crc="f6f33c3b" md5="f69392e9568b55dc52d1aebb900c2a61" sha1="0fd16cbb03e546647dee93fdd2a62a916efbcac6" />

    Cuesheet:

FILE "SCED_01856 (Track 1).bin" BINARY
  TRACK 01 MODE2/2352
    INDEX 01 00:00:00
FILE "SCED_01856 (Track 2).bin" BINARY
  TRACK 02 AUDIO
    INDEX 00 00:00:00
    INDEX 01 00:02:00

    Write Offset: -647

Dumping Info:
    Dumping Program: DiscImageCreator 20230606
    Date: 2023-12-13 17:44:19
    Manufacturer: PLEXTOR
    Model: DVDR    PX-708A
    Firmware: 1.12
    Reported Disc Type: CD-ROM XA Disc

16

(0 replies, posted in Verifications)

Matches: http://redump.org/disc/27843/
Logs: https://www.dropbox.com/scl/fi/jewjmgzz … y&dl=0

Users who wish to submit this information to Redump must ensure that all of the fields below are accurate for the exact media they have.
Please double-check to ensure that there are no fields that need verification, such as the version or copy protection.
If there are no fields in need of verification or all fields are accurate, this preamble can be removed before submission.

Common Disc Info:
    Title: euro demo 20
    Foreign Title (Non-latin): 
    Disc Number / Letter: 
    Disc Title: 
    System: Sony PlayStation
    Media Type: CD-ROM
    Category: Games
    Region: France
    Languages: French
    Disc Serial: SCED-00782

    Ringcode Information:

Data Side Mastering Code (laser branded/etched): 
Data Side Mastering SID Code: 
Data Side Toolstamp or Mastering Code (engraved/stamped): 
Data Side Mould SID Code: IFPI 94S3
Data Side Additional Mould: 
Label Side Mould SID Code: 

    Barcode: 
    EXE/Build Date: 1997-10-15
    Error Count: 1
    Comments:

[T:ISN] SCED-00782
[T:VOL] FRENCH_19_DEMO
(OPTIONAL)

    Contents: (OPTIONAL)

Version and Editions:
    Version: 
    Edition/Release: Original

EDC:
    EDC: No

Extras:
    Primary Volume Descriptor (PVD):

0320 : 20 20 20 20 20 20 20 20  20 20 20 20 20 31 39 39                199
0330 : 38 30 33 32 34 31 37 31  36 35 36 30 30 24 30 30   8032417165600$00
0340 : 30 30 30 30 30 30 30 30  30 30 30 30 30 30 00 30   00000000000000.0
0350 : 30 30 30 30 30 30 30 30  30 30 30 30 30 30 30 00   000000000000000.
0360 : 30 30 30 30 30 30 30 30  30 30 30 30 30 30 30 30   0000000000000000
0370 : 00 01 00 00 00 00 00 00  00 00 00 00 00 00 00 00   ................

Copy Protection:
    Anti-modchip: No
    LibCrypt: No

Tracks and Write Offsets:
    DAT:

<rom name="FRENCH_20_DEMO (Track 1).bin" size="189510048" crc="c46412bf" md5="06a65a3bb10be4715b77f58be5652c89" sha1="e942d55834d62236d6c4ca2ff63f8b453bd7503b" />
<rom name="FRENCH_20_DEMO (Track 2).bin" size="32046000" crc="db5c35e7" md5="681cefde3776ede56642e5f6115c62f0" sha1="1cf0dc0032c56206d3b16e10c48bfbb8fbb1b1b3" />
<rom name="FRENCH_20_DEMO (Track 3).bin" size="38111808" crc="e50788e0" md5="ee23c1e805be69bfcb5cac776d4bd22b" sha1="3b5d1560c131bfc517f20cfbcaebba71fe1ad67f" />
<rom name="FRENCH_20_DEMO (Track 4).bin" size="32354112" crc="e49b3127" md5="ee83e17e16bca73cd5438462de6883d2" sha1="01de730b1e7a8f18f9effe9341266681c2145db8" />

    Cuesheet:

FILE "FRENCH_20_DEMO (Track 1).bin" BINARY
  TRACK 01 MODE2/2352
    INDEX 01 00:00:00
FILE "FRENCH_20_DEMO (Track 2).bin" BINARY
  TRACK 02 AUDIO
    INDEX 00 00:00:00
    INDEX 01 00:02:00
FILE "FRENCH_20_DEMO (Track 3).bin" BINARY
  TRACK 03 AUDIO
    INDEX 00 00:00:00
    INDEX 01 00:02:00
FILE "FRENCH_20_DEMO (Track 4).bin" BINARY
  TRACK 04 AUDIO
    INDEX 00 00:00:00
    INDEX 01 00:02:00

    Write Offset: +2

Dumping Info:
    Dumping Program: DiscImageCreator 20230606
    Date: 2023-12-10 18:19:56
    Manufacturer: PLEXTOR
    Model: DVDR    PX-708A
    Firmware: 1.12
    Reported Disc Type: CD-ROM XA Disc

17

(0 replies, posted in Verifications)

Matches: http://redump.org/disc/44720/
Logs: https://www.dropbox.com/scl/fi/ab3rw83w … b&dl=0

Users who wish to submit this information to Redump must ensure that all of the fields below are accurate for the exact media they have.
Please double-check to ensure that there are no fields that need verification, such as the version or copy protection.
If there are no fields in need of verification or all fields are accurate, this preamble can be removed before submission.

Common Disc Info:
    Title: euro demo 17
    Foreign Title (Non-latin): 
    Disc Number / Letter: 
    Disc Title: 
    System: Sony PlayStation
    Media Type: CD-ROM
    Category: Games
    Region: France
    Languages: French
    Disc Serial: SCED-00780

    Ringcode Information:

Data Side Mastering Code (laser branded/etched): 
Data Side Mastering SID Code: 
Data Side Toolstamp or Mastering Code (engraved/stamped): 
Data Side Mould SID Code: IFPI 94I5
Data Side Additional Mould: 
Label Side Mould SID Code: 

    Barcode: 
    EXE/Build Date: 1997-10-15
    Error Count: 1
    Comments:

[T:ISN] SCED-00780
[T:VOL] FRENCH_17_DEMO
(OPTIONAL)

    Contents: (OPTIONAL)

Version and Editions:
    Version: 
    Edition/Release: Original

EDC:
    EDC: No

Extras:
    Primary Volume Descriptor (PVD):

0320 : 20 20 20 20 20 20 20 20  20 20 20 20 20 31 39 39                199
0330 : 38 30 32 30 34 30 39 32  33 34 31 30 30 24 30 30   8020409234100$00
0340 : 30 30 30 30 30 30 30 30  30 30 30 30 30 30 00 30   00000000000000.0
0350 : 30 30 30 30 30 30 30 30  30 30 30 30 30 30 30 00   000000000000000.
0360 : 30 30 30 30 30 30 30 30  30 30 30 30 30 30 30 30   0000000000000000
0370 : 00 01 00 00 00 00 00 00  00 00 00 00 00 00 00 00   ................

Copy Protection:
    Anti-modchip: No
    LibCrypt: No

Tracks and Write Offsets:
    DAT:

<rom name="FRENCH_17_DEMO (Track 1).bin" size="216840288" crc="068d2a0b" md5="a69909e26fb885aa99afca1e2df121a4" sha1="99dc34cbae04ea6d4685a24ed0b0c761671e6b25" />
<rom name="FRENCH_17_DEMO (Track 2).bin" size="21207984" crc="72f846e1" md5="2f9791b7f92a858312b2c4ddd0c059d4" sha1="1d0e781a30d27a5b386be1b4e955863e133a62bd" />
<rom name="FRENCH_17_DEMO (Track 3).bin" size="32354112" crc="e49b3127" md5="ee83e17e16bca73cd5438462de6883d2" sha1="01de730b1e7a8f18f9effe9341266681c2145db8" />

    Cuesheet:

FILE "FRENCH_17_DEMO (Track 1).bin" BINARY
  TRACK 01 MODE2/2352
    INDEX 01 00:00:00
FILE "FRENCH_17_DEMO (Track 2).bin" BINARY
  TRACK 02 AUDIO
    INDEX 00 00:00:00
    INDEX 01 00:02:00
FILE "FRENCH_17_DEMO (Track 3).bin" BINARY
  TRACK 03 AUDIO
    INDEX 00 00:00:00
    INDEX 01 00:02:00

    Write Offset: +2

Dumping Info:
    Dumping Program: DiscImageCreator 20230606
    Date: 2023-12-10 17:19:46
    Manufacturer: PLEXTOR
    Model: DVDR    PX-708A
    Firmware: 1.12
    Reported Disc Type: CD-ROM XA Disc

18

(0 replies, posted in Verifications)

Matches: http://redump.org/disc/8982/
Logs: https://www.dropbox.com/scl/fi/f2n3uclk … c&dl=0

Users who wish to submit this information to Redump must ensure that all of the fields below are accurate for the exact media they have.
Please double-check to ensure that there are no fields that need verification, such as the version or copy protection.
If there are no fields in need of verification or all fields are accurate, this preamble can be removed before submission.

Common Disc Info:
    Title: euro demo 23
    Foreign Title (Non-latin): 
    Disc Number / Letter: 
    Disc Title: 
    System: Sony PlayStation
    Media Type: CD-ROM
    Category: Games
    Region: France
    Languages: French
    Disc Serial: SCED-01116

    Ringcode Information:

Data Side Mastering Code (laser branded/etched): 
Data Side Mastering SID Code: 
Data Side Toolstamp or Mastering Code (engraved/stamped): 
Data Side Mould SID Code: IFPI 945P
Data Side Additional Mould: 
Label Side Mould SID Code: 

    Barcode: 
    EXE/Build Date: 1997-10-15
    Error Count: 1
    Comments:

[T:ISN] SCED-01116
[T:VOL] FRANCE_DEMO_23
(OPTIONAL)

    Contents: (OPTIONAL)

Version and Editions:
    Version: 
    Edition/Release: Original

EDC:
    EDC: No

Extras:
    Primary Volume Descriptor (PVD):

0320 : 20 20 20 20 20 20 20 20  20 20 20 20 20 31 39 39                199
0330 : 38 30 37 31 36 32 30 34  32 32 36 30 30 24 30 30   8071620422600$00
0340 : 30 30 30 30 30 30 30 30  30 30 30 30 30 30 00 30   00000000000000.0
0350 : 30 30 30 30 30 30 30 30  30 30 30 30 30 30 30 00   000000000000000.
0360 : 30 30 30 30 30 30 30 30  30 30 30 30 30 30 30 30   0000000000000000
0370 : 00 01 00 00 00 00 00 00  00 00 00 00 00 00 00 00   ................

Copy Protection:
    Anti-modchip: No
    LibCrypt: No

Tracks and Write Offsets:
    DAT:

<rom name="FRANCE_DEMO_23 (Track 1).bin" size="495253584" crc="156b0043" md5="23a207c3c92697a97ffb0bd197f8fe27" sha1="ffc63a4b3bb26e0a652d426c8fc407c3b353e72b" />
<rom name="FRANCE_DEMO_23 (Track 2).bin" size="19189968" crc="2ed908e7" md5="3543e2f246efe2880128e0079b62952f" sha1="42ead3f2cddc386ea60f1778d75b18a6d0ca1b8c" />
<rom name="FRANCE_DEMO_23 (Track 3).bin" size="36827616" crc="3e1d753e" md5="039e26727ba4665c9eafb6906915b077" sha1="76e93e91531416aa34333e28aa8181a8ffcfb044" />
<rom name="FRANCE_DEMO_23 (Track 4).bin" size="19189968" crc="2ed908e7" md5="3543e2f246efe2880128e0079b62952f" sha1="42ead3f2cddc386ea60f1778d75b18a6d0ca1b8c" />
<rom name="FRANCE_DEMO_23 (Track 5).bin" size="20794032" crc="cac70485" md5="437019bc22b56298aeae9230c73688ed" sha1="e53df92d137f460fbedc2f26e91217ab5c122d59" />
<rom name="FRANCE_DEMO_23 (Track 6).bin" size="32354112" crc="e49b3127" md5="ee83e17e16bca73cd5438462de6883d2" sha1="01de730b1e7a8f18f9effe9341266681c2145db8" />

    Cuesheet:

FILE "FRANCE_DEMO_23 (Track 1).bin" BINARY
  TRACK 01 MODE2/2352
    INDEX 01 00:00:00
FILE "FRANCE_DEMO_23 (Track 2).bin" BINARY
  TRACK 02 AUDIO
    INDEX 00 00:00:00
    INDEX 01 00:02:00
FILE "FRANCE_DEMO_23 (Track 3).bin" BINARY
  TRACK 03 AUDIO
    INDEX 00 00:00:00
    INDEX 01 00:02:00
FILE "FRANCE_DEMO_23 (Track 4).bin" BINARY
  TRACK 04 AUDIO
    INDEX 00 00:00:00
    INDEX 01 00:02:00
FILE "FRANCE_DEMO_23 (Track 5).bin" BINARY
  TRACK 05 AUDIO
    INDEX 00 00:00:00
    INDEX 01 00:02:00
FILE "FRANCE_DEMO_23 (Track 6).bin" BINARY
  TRACK 06 AUDIO
    INDEX 00 00:00:00
    INDEX 01 00:02:00

    Write Offset: +2

Dumping Info:
    Dumping Program: DiscImageCreator 20230606
    Date: 2023-12-11 18:57:05
    Manufacturer: PLEXTOR
    Model: DVDR    PX-708A
    Firmware: 1.12
    Reported Disc Type: CD-ROM XA Disc

19

(0 replies, posted in Verifications)

Matches: http://redump.org/disc/44721/
Logs: https://www.dropbox.com/scl/fi/wumdmb9p … 7&dl=0

Users who wish to submit this information to Redump must ensure that all of the fields below are accurate for the exact media they have.
Please double-check to ensure that there are no fields that need verification, such as the version or copy protection.
If there are no fields in need of verification or all fields are accurate, this preamble can be removed before submission.

Common Disc Info:
    Title: euro demo 22
    Foreign Title (Non-latin): 
    Disc Number / Letter: 
    Disc Title: 
    System: Sony PlayStation
    Media Type: CD-ROM
    Category: Games
    Region: France
    Languages: French
    Disc Serial: SCED-01115

    Ringcode Information:

Data Side Mastering Code (laser branded/etched): 
Data Side Mastering SID Code: 
Data Side Toolstamp or Mastering Code (engraved/stamped): 
Data Side Mould SID Code: IFPI 94F3
Data Side Additional Mould: 
Label Side Mould SID Code: 

    Barcode: 
    EXE/Build Date: 1997-10-15
    Error Count: 1
    Comments:

[T:ISN] SCED-01115
[T:VOL] FRANCE_DEMO_22
(OPTIONAL)

    Contents: (OPTIONAL)

Version and Editions:
    Version: 
    Edition/Release: Original

EDC:
    EDC: No

Extras:
    Primary Volume Descriptor (PVD):

0320 : 20 20 20 20 20 20 20 20  20 20 20 20 20 31 39 39                199
0330 : 38 30 35 32 31 31 33 35  34 35 32 30 30 24 30 30   8052113545200$00
0340 : 30 30 30 30 30 30 30 30  30 30 30 30 30 30 00 30   00000000000000.0
0350 : 30 30 30 30 30 30 30 30  30 30 30 30 30 30 30 00   000000000000000.
0360 : 30 30 30 30 30 30 30 30  30 30 30 30 30 30 30 30   0000000000000000
0370 : 00 01 00 00 00 00 00 00  00 00 00 00 00 00 00 00   ................

Copy Protection:
    Anti-modchip: No
    LibCrypt: No

Tracks and Write Offsets:
    DAT:

<rom name="FRANCE_DEMO_22 (Track 1).bin" size="485497488" crc="e7e8efb6" md5="9b6af0275f26da2057a8003cbd9937fe" sha1="fc2fec349727ee0c8f0611a3eea77bc17345d16b" />
<rom name="FRANCE_DEMO_22 (Track 2).bin" size="39167856" crc="494daebe" md5="d23940e150c0b07b2801b64ae9a336c3" sha1="772dfee9112e01870eed7a2b2e095078a20429c5" />
<rom name="FRANCE_DEMO_22 (Track 3).bin" size="32097744" crc="86efe9bc" md5="9da4ce641a1a877a44413cdec532b6bf" sha1="0cfcf4030b29abdd45d4d8c172228ba8a3d3287d" />
<rom name="FRANCE_DEMO_22 (Track 4).bin" size="27118560" crc="430df303" md5="db49061ad2aae6acda9245657d24b65d" sha1="1c374632413634a0d7f5a18e05ca2b498983c5c7" />
<rom name="FRANCE_DEMO_22 (Track 5).bin" size="32354112" crc="e49b3127" md5="ee83e17e16bca73cd5438462de6883d2" sha1="01de730b1e7a8f18f9effe9341266681c2145db8" />

    Cuesheet:

FILE "FRANCE_DEMO_22 (Track 1).bin" BINARY
  TRACK 01 MODE2/2352
    INDEX 01 00:00:00
FILE "FRANCE_DEMO_22 (Track 2).bin" BINARY
  TRACK 02 AUDIO
    INDEX 00 00:00:00
    INDEX 01 00:02:00
FILE "FRANCE_DEMO_22 (Track 3).bin" BINARY
  TRACK 03 AUDIO
    INDEX 00 00:00:00
    INDEX 01 00:02:00
FILE "FRANCE_DEMO_22 (Track 4).bin" BINARY
  TRACK 04 AUDIO
    INDEX 00 00:00:00
    INDEX 01 00:02:00
FILE "FRANCE_DEMO_22 (Track 5).bin" BINARY
  TRACK 05 AUDIO
    INDEX 00 00:00:00
    INDEX 01 00:02:00

    Write Offset: +2

Dumping Info:
    Dumping Program: DiscImageCreator 20230606
    Date: 2023-12-10 21:14:43
    Manufacturer: PLEXTOR
    Model: DVDR    PX-708A
    Firmware: 1.12
    Reported Disc Type: CD-ROM XA Disc

20

(0 replies, posted in Verifications)

Matches: http://redump.org/disc/8974/
Logs: https://www.dropbox.com/scl/fi/n2smv3d0 … v&dl=0

Users who wish to submit this information to Redump must ensure that all of the fields below are accurate for the exact media they have.
Please double-check to ensure that there are no fields that need verification, such as the version or copy protection.
If there are no fields in need of verification or all fields are accurate, this preamble can be removed before submission.

Common Disc Info:
    Title: euro demo 21
    Foreign Title (Non-latin): 
    Disc Number / Letter: 
    Disc Title: 
    System: Sony PlayStation
    Media Type: CD-ROM
    Category: Games
    Region: France
    Languages: French
    Disc Serial: SCED-01114

    Ringcode Information:

Data Side Mastering Code (laser branded/etched): 
Data Side Mastering SID Code: 
Data Side Toolstamp or Mastering Code (engraved/stamped): 
Data Side Mould SID Code: IFPI 94I1
Data Side Additional Mould: 
Label Side Mould SID Code: 

    Barcode: 
    EXE/Build Date: 1997-10-15
    Error Count: 1
    Comments:

[T:ISN] SCED-01114
[T:VOL] FRANCE_DEMO_21
(OPTIONAL)

    Contents: (OPTIONAL)

Version and Editions:
    Version: 
    Edition/Release: Original

EDC:
    EDC: No

Extras:
    Primary Volume Descriptor (PVD):

0320 : 20 20 20 20 20 20 20 20  20 20 20 20 20 31 39 39                199
0330 : 38 30 34 31 37 31 37 33  30 31 32 30 30 24 30 30   8041717301200$00
0340 : 30 30 30 30 30 30 30 30  30 30 30 30 30 30 00 30   00000000000000.0
0350 : 30 30 30 30 30 30 30 30  30 30 30 30 30 30 30 00   000000000000000.
0360 : 30 30 30 30 30 30 30 30  30 30 30 30 30 30 30 30   0000000000000000
0370 : 00 01 00 00 00 00 00 00  00 00 00 00 00 00 00 00   ................

Copy Protection:
    Anti-modchip: No
    LibCrypt: No

Tracks and Write Offsets:
    DAT:

<rom name="FRANCE_DEMO_21 (Track 1).bin" size="379953840" crc="93aad2ff" md5="98208afb5cf748e743f2e29f0ed380b0" sha1="ee3ce77e133bbf1f5f22d44cc93a3d20e897c16d" />
<rom name="FRANCE_DEMO_21 (Track 2).bin" size="1237152" crc="1469c27f" md5="3baa78d0933dabfbb7f2a5a4952bb8ee" sha1="17a0ebe7f4c4770275e660dbde59048a0244abc9" />
<rom name="FRANCE_DEMO_21 (Track 3).bin" size="1237152" crc="ba97911a" md5="09c3ba82e23bc1cf36a133e71af7704c" sha1="14fc73f00397809738a0d11cd0cc408dade1386d" />
<rom name="FRANCE_DEMO_21 (Track 4).bin" size="1237152" crc="3920e8ef" md5="73de23dcaae61b065e2edf310040fd93" sha1="55668cde8fadbcb0ab60b68f5ca87a98c37cdf60" />
<rom name="FRANCE_DEMO_21 (Track 5).bin" size="9466800" crc="eece87f1" md5="629ec8d58e0ee95748a307fbf2dc52e5" sha1="615ee31779cf2902d24034f9f29fb79f87ec054f" />
<rom name="FRANCE_DEMO_21 (Track 6).bin" size="1239504" crc="c1094b3d" md5="97cf5a55da820ff064bde615f142ac0e" sha1="8618e11fb651ff1d223cb9f1d617875cb9ca208c" />
<rom name="FRANCE_DEMO_21 (Track 7).bin" size="29743392" crc="4f64b28d" md5="9db4d1a78bf627c3049309ba4a9f7137" sha1="eae7e7732799438efb2ddb299729232136f1e6ae" />
<rom name="FRANCE_DEMO_21 (Track 8).bin" size="24750096" crc="04033a1c" md5="a7b980d2701b2e88fc0b6debc7a2d924" sha1="4e3cb3faff18c81685ed97ec97d9a44f23bafbbd" />
<rom name="FRANCE_DEMO_21 (Track 9).bin" size="32354112" crc="e49b3127" md5="ee83e17e16bca73cd5438462de6883d2" sha1="01de730b1e7a8f18f9effe9341266681c2145db8" />

    Cuesheet:

FILE "FRANCE_DEMO_21 (Track 1).bin" BINARY
  TRACK 01 MODE2/2352
    INDEX 01 00:00:00
FILE "FRANCE_DEMO_21 (Track 2).bin" BINARY
  TRACK 02 AUDIO
    INDEX 00 00:00:00
    INDEX 01 00:02:00
FILE "FRANCE_DEMO_21 (Track 3).bin" BINARY
  TRACK 03 AUDIO
    INDEX 00 00:00:00
    INDEX 01 00:02:00
FILE "FRANCE_DEMO_21 (Track 4).bin" BINARY
  TRACK 04 AUDIO
    INDEX 00 00:00:00
    INDEX 01 00:02:00
FILE "FRANCE_DEMO_21 (Track 5).bin" BINARY
  TRACK 05 AUDIO
    INDEX 00 00:00:00
    INDEX 01 00:02:00
FILE "FRANCE_DEMO_21 (Track 6).bin" BINARY
  TRACK 06 AUDIO
    INDEX 00 00:00:00
    INDEX 01 00:02:00
FILE "FRANCE_DEMO_21 (Track 7).bin" BINARY
  TRACK 07 AUDIO
    INDEX 00 00:00:00
    INDEX 01 00:02:00
FILE "FRANCE_DEMO_21 (Track 8).bin" BINARY
  TRACK 08 AUDIO
    INDEX 00 00:00:00
    INDEX 01 00:02:00
FILE "FRANCE_DEMO_21 (Track 9).bin" BINARY
  TRACK 09 AUDIO
    INDEX 00 00:00:00
    INDEX 01 00:02:00

    Write Offset: +2

Dumping Info:
    Dumping Program: DiscImageCreator 20230606
    Date: 2023-12-10 19:41:52
    Manufacturer: PLEXTOR
    Model: DVDR    PX-708A
    Firmware: 1.12
    Reported Disc Type: CD-ROM XA Disc

21

(0 replies, posted in Verifications)

Matches: http://redump.org/disc/44621/
Logs: https://www.dropbox.com/scl/fi/q78k1z2d … 0&dl=0

Users who wish to submit this information to Redump must ensure that all of the fields below are accurate for the exact media they have.
Please double-check to ensure that there are no fields that need verification, such as the version or copy protection.
If there are no fields in need of verification or all fields are accurate, this preamble can be removed before submission.

Common Disc Info:
    Title: euro demo 34
    Foreign Title (Non-latin): 
    Disc Number / Letter: 
    Disc Title: 
    System: Sony PlayStation
    Media Type: CD-ROM
    Category: Games
    Region: France
    Languages: French
    Disc Serial: SCED-01854

    Ringcode Information:

Data Side Mastering Code (laser branded/etched): 
Data Side Mastering SID Code: 
Data Side Toolstamp or Mastering Code (engraved/stamped): 
Data Side Mould SID Code: IFPI 945T
Data Side Additional Mould: 
Label Side Mould SID Code: 

    Barcode: 
    EXE/Build Date: 1999-07-21
    Error Count: 1
    Comments:

[T:ISN] SCED-01854
[T:VOL] FRANCE_34
(OPTIONAL)

    Contents: (OPTIONAL)

Version and Editions:
    Version: 
    Edition/Release: Original

EDC:
    EDC: No

Extras:
    Primary Volume Descriptor (PVD):

0320 : 20 20 20 20 20 20 20 20  20 20 20 20 20 31 39 39                199
0330 : 39 30 37 32 31 31 38 30  30 30 30 30 30 24 30 30   9072118000000$00
0340 : 30 30 30 30 30 30 30 30  30 30 30 30 30 30 00 30   00000000000000.0
0350 : 30 30 30 30 30 30 30 30  30 30 30 30 30 30 30 00   000000000000000.
0360 : 30 30 30 30 30 30 30 30  30 30 30 30 30 30 30 30   0000000000000000
0370 : 00 01 00 00 00 00 00 00  00 00 00 00 00 00 00 00   ................

Copy Protection:
    Anti-modchip: Yes
    LibCrypt: No

Tracks and Write Offsets:
    DAT:

<rom name="FRANCE_34 (Track 1).bin" size="353759616" crc="c19d8147" md5="32361a76cab3864513d18f3af415b409" sha1="c93b47d93019bd3ed1210474cf932f56d89a98f7" />
<rom name="FRANCE_34 (Track 2).bin" size="3194016" crc="94d9c0a2" md5="f5dca5cc7d5d72c6d2ac998a27e08cd3" sha1="e9f3355c3a6fb028efd2fe1f09a700b755b6df1d" />
<rom name="FRANCE_34 (Track 3).bin" size="3410400" crc="cca1811e" md5="20e6c88787f8088ce7fca902e7a7295d" sha1="772bcf2b53c9b7f77ebdbab5eebba6f8b6e2759f" />
<rom name="FRANCE_34 (Track 4).bin" size="6319824" crc="8a3b66a0" md5="fa57ceb898fca108c50bf4c6f2c65e77" sha1="7a3d0e2e64be08676515ad3ff4ca9e6f122bdfd8" />
<rom name="FRANCE_34 (Track 5).bin" size="5484864" crc="e4b1569f" md5="e457c43283e9596f60c20408eae84eab" sha1="97feca1bdf8dbcb699f3e840aaa694e196b61966" />
<rom name="FRANCE_34 (Track 6).bin" size="32356464" crc="f6f33c3b" md5="f69392e9568b55dc52d1aebb900c2a61" sha1="0fd16cbb03e546647dee93fdd2a62a916efbcac6" />

    Cuesheet:

FILE "FRANCE_34 (Track 1).bin" BINARY
  TRACK 01 MODE2/2352
    INDEX 01 00:00:00
FILE "FRANCE_34 (Track 2).bin" BINARY
  TRACK 02 AUDIO
    INDEX 00 00:00:00
    INDEX 01 00:02:00
FILE "FRANCE_34 (Track 3).bin" BINARY
  TRACK 03 AUDIO
    INDEX 00 00:00:00
    INDEX 01 00:02:00
FILE "FRANCE_34 (Track 4).bin" BINARY
  TRACK 04 AUDIO
    INDEX 00 00:00:00
    INDEX 01 00:02:00
FILE "FRANCE_34 (Track 5).bin" BINARY
  TRACK 05 AUDIO
    INDEX 00 00:00:00
    INDEX 01 00:02:00
FILE "FRANCE_34 (Track 6).bin" BINARY
  TRACK 06 AUDIO
    INDEX 00 00:00:00
    INDEX 01 00:02:00

    Write Offset: -647

Dumping Info:
    Dumping Program: DiscImageCreator 20230606
    Date: 2023-12-12 22:02:25
    Manufacturer: PLEXTOR
    Model: DVDR    PX-708A
    Firmware: 1.12
    Reported Disc Type: CD-ROM XA Disc

22

(0 replies, posted in Verifications)

Matches: http://redump.org/disc/29394/
Logs: https://www.dropbox.com/scl/fi/kpp2q2cy … q&dl=0

Users who wish to submit this information to Redump must ensure that all of the fields below are accurate for the exact media they have.
Please double-check to ensure that there are no fields that need verification, such as the version or copy protection.
If there are no fields in need of verification or all fields are accurate, this preamble can be removed before submission.

Common Disc Info:
    Title: euro demo 31
    Foreign Title (Non-latin): 
    Disc Number / Letter: 
    Disc Title: 
    System: Sony PlayStation
    Media Type: CD-ROM
    Category: Games
    Region: France
    Languages: French
    Disc Serial: SCED-01851

    Ringcode Information:

Data Side Mastering Code (laser branded/etched): 
Data Side Mastering SID Code: 
Data Side Toolstamp or Mastering Code (engraved/stamped): 
Data Side Mould SID Code: IFPI 943S
Data Side Additional Mould: 
Label Side Mould SID Code: 

    Barcode: 
    EXE/Build Date: 1999-03-23
    Error Count: 27862
    Comments:

[T:ISN] SCED-01851
[T:VOL] FRANCE_31
(OPTIONAL)

    Contents: (OPTIONAL)

Version and Editions:
    Version: 
    Edition/Release: Original

EDC:
    EDC: No

Extras:
    Primary Volume Descriptor (PVD):

0320 : 20 20 20 20 20 20 20 20  20 20 20 20 20 31 39 39                199
0330 : 39 30 33 32 33 31 36 35  39 32 37 30 30 24 30 30   9032316592700$00
0340 : 30 30 30 30 30 30 30 30  30 30 30 30 30 30 00 30   00000000000000.0
0350 : 30 30 30 30 30 30 30 30  30 30 30 30 30 30 30 00   000000000000000.
0360 : 30 30 30 30 30 30 30 30  30 30 30 30 30 30 30 30   0000000000000000
0370 : 00 01 00 00 00 00 00 00  00 00 00 00 00 00 00 00   ................

Copy Protection:
    Anti-modchip: No
    LibCrypt: No

Tracks and Write Offsets:
    DAT:

<rom name="FRANCE_31 (Track 1).bin" size="311124912" crc="99990aaf" md5="7e27be0c29f20fd748b61337133841c7" sha1="28762d39447d380bf6db4375875e4b73f6ed304b" />
<rom name="FRANCE_31 (Track 2).bin" size="10360560" crc="a6c853b9" md5="cf079e644f051fec70dfc2e3563da176" sha1="c8a305bdc355d2fb92e742ebd307163af34b750c" />
<rom name="FRANCE_31 (Track 3).bin" size="16765056" crc="6a5bcfd3" md5="5cd540dc93ba54755bab845247b11528" sha1="0cb5ae07ebb609c46ad5a499499ce2cdc1277b5c" />
<rom name="FRANCE_31 (Track 4).bin" size="32356464" crc="f6f33c3b" md5="f69392e9568b55dc52d1aebb900c2a61" sha1="0fd16cbb03e546647dee93fdd2a62a916efbcac6" />

    Cuesheet:

FILE "FRANCE_31 (Track 1).bin" BINARY
  TRACK 01 MODE2/2352
    INDEX 01 00:00:00
FILE "FRANCE_31 (Track 2).bin" BINARY
  TRACK 02 AUDIO
    INDEX 00 00:00:00
    INDEX 01 00:02:00
FILE "FRANCE_31 (Track 3).bin" BINARY
  TRACK 03 AUDIO
    INDEX 00 00:00:00
    INDEX 01 00:02:00
FILE "FRANCE_31 (Track 4).bin" BINARY
  TRACK 04 AUDIO
    INDEX 00 00:00:00
    INDEX 01 00:02:00

    Write Offset: -647

Dumping Info:
    Dumping Program: DiscImageCreator 20230606
    Date: 2023-12-12 21:18:13
    Manufacturer: PLEXTOR
    Model: DVDR    PX-708A
    Firmware: 1.12
    Reported Disc Type: CD-ROM XA Disc

23

(0 replies, posted in Verifications)

Matches: http://redump.org/disc/27844/
Logs: https://www.dropbox.com/scl/fi/9kvypouu … 8&dl=0

Users who wish to submit this information to Redump must ensure that all of the fields below are accurate for the exact media they have.
Please double-check to ensure that there are no fields that need verification, such as the version or copy protection.
If there are no fields in need of verification or all fields are accurate, this preamble can be removed before submission.

Common Disc Info:
    Title: euro demo 24
    Foreign Title (Non-latin): 
    Disc Number / Letter: 
    Disc Title: 
    System: Sony PlayStation
    Media Type: CD-ROM
    Category: Games
    Region: France
    Languages: French
    Disc Serial: SCED-01117

    Ringcode Information:

Data Side Mastering Code (laser branded/etched): 
Data Side Mastering SID Code: 
Data Side Toolstamp or Mastering Code (engraved/stamped): 
Data Side Mould SID Code: IFPI 94E6
Data Side Additional Mould: 
Label Side Mould SID Code: 

    Barcode: 
    EXE/Build Date: 1997-10-15
    Error Count: 3
    Comments:

[T:ISN] SCED-01117
[T:VOL] FRANCE_24
(OPTIONAL)

    Contents: (OPTIONAL)

Version and Editions:
    Version: 
    Edition/Release: Original

EDC:
    EDC: No

Extras:
    Primary Volume Descriptor (PVD):

0320 : 20 20 20 20 20 20 20 20  20 20 20 20 20 31 39 39                199
0330 : 38 30 39 30 34 31 36 30  38 31 31 30 30 24 30 30   8090416081100$00
0340 : 30 30 30 30 30 30 30 30  30 30 30 30 30 30 00 30   00000000000000.0
0350 : 30 30 30 30 30 30 30 30  30 30 30 30 30 30 30 00   000000000000000.
0360 : 30 30 30 30 30 30 30 30  30 30 30 30 30 30 30 30   0000000000000000
0370 : 00 01 00 00 00 00 00 00  00 00 00 00 00 00 00 00   ................

Copy Protection:
    Anti-modchip: No
    LibCrypt: No

Tracks and Write Offsets:
    DAT:

<rom name="FRANCE_24 (Track 1).bin" size="430747632" crc="ac6bde0c" md5="eb50b26cfbc8ce56434ef6f2bed9ab50" sha1="edd3cd22710134804c7b5f2cb4772b9c8d435f00" />
<rom name="FRANCE_24 (Track 2).bin" size="39167856" crc="75bc4f18" md5="f6b89cb0eb1429fe0444ad1b4b42ecff" sha1="ad9890714229f981250bd13d85288b81c4bef22c" />
<rom name="FRANCE_24 (Track 3).bin" size="45177216" crc="f89fefa8" md5="37ae1cf76f98d84e31b3318daae5f436" sha1="0adf77971058066321e9406d6efbdf830e5f9b64" />
<rom name="FRANCE_24 (Track 4).bin" size="32354112" crc="e49b3127" md5="ee83e17e16bca73cd5438462de6883d2" sha1="01de730b1e7a8f18f9effe9341266681c2145db8" />

    Cuesheet:

FILE "FRANCE_24 (Track 1).bin" BINARY
  TRACK 01 MODE2/2352
    INDEX 01 00:00:00
FILE "FRANCE_24 (Track 2).bin" BINARY
  TRACK 02 AUDIO
    INDEX 00 00:00:00
    INDEX 01 00:02:00
FILE "FRANCE_24 (Track 3).bin" BINARY
  TRACK 03 AUDIO
    INDEX 00 00:00:00
    INDEX 01 00:02:00
FILE "FRANCE_24 (Track 4).bin" BINARY
  TRACK 04 AUDIO
    INDEX 00 00:00:00
    INDEX 01 00:02:00

    Write Offset: +2

Dumping Info:
    Dumping Program: DiscImageCreator 20230606
    Date: 2023-12-11 20:24:43
    Manufacturer: PLEXTOR
    Model: DVDR    PX-708A
    Firmware: 1.12
    Reported Disc Type: CD-ROM XA Disc

24

(0 replies, posted in Verifications)

Matches: http://redump.org/disc/44757/
Logs: https://www.dropbox.com/scl/fi/ybanww0m … 2&dl=0

Users who wish to submit this information to Redump must ensure that all of the fields below are accurate for the exact media they have.
Please double-check to ensure that there are no fields that need verification, such as the version or copy protection.
If there are no fields in need of verification or all fields are accurate, this preamble can be removed before submission.

Common Disc Info:
    Title: euro demo 18
    Foreign Title (Non-latin): 
    Disc Number / Letter: 
    Disc Title: 
    System: Sony PlayStation
    Media Type: CD-ROM
    Category: Games
    Region: France
    Languages: French
    Disc Serial: SCED-00781

    Ringcode Information:

Data Side Mastering Code (laser branded/etched): 
Data Side Mastering SID Code: 
Data Side Toolstamp or Mastering Code (engraved/stamped): 
Data Side Mould SID Code: IFPI D46Q
Data Side Additional Mould: 
Label Side Mould SID Code: 

    Barcode: 
    EXE/Build Date: 1997-10-15
    Error Count: 1
    Comments:

[T:ISN] SCED-00781
[T:VOL] FRANCE_18_DEMO
(OPTIONAL)

    Contents: (OPTIONAL)

Version and Editions:
    Version: 
    Edition/Release: Original

EDC:
    EDC: No

Extras:
    Primary Volume Descriptor (PVD):

0320 : 20 20 20 20 20 20 20 20  20 20 20 20 20 31 39 39                199
0330 : 38 30 33 30 32 31 32 30  33 33 39 30 30 24 30 30   8030212033900$00
0340 : 30 30 30 30 30 30 30 30  30 30 30 30 30 30 00 30   00000000000000.0
0350 : 30 30 30 30 30 30 30 30  30 30 30 30 30 30 30 00   000000000000000.
0360 : 30 30 30 30 30 30 30 30  30 30 30 30 30 30 30 30   0000000000000000
0370 : 00 01 00 00 00 00 00 00  00 00 00 00 00 00 00 00   ................

Copy Protection:
    Anti-modchip: No
    LibCrypt: No

Tracks and Write Offsets:
    DAT:

<rom name="FRANCE_18_DEMO (Track 1).bin" size="227214960" crc="f7c9f19a" md5="ce82b21a4b5a838332f8739061f32922" sha1="5bae5fb372b385e679649b68ac28361d250387ce" />
<rom name="FRANCE_18_DEMO (Track 2).bin" size="20779920" crc="d52053eb" md5="c3d1889304b6a4ea1b38bbd1f10dba3e" sha1="0fa537c0087c43b01e8ca66088dd45759df60289" />
<rom name="FRANCE_18_DEMO (Track 3).bin" size="59265696" crc="3b2a22db" md5="18055eb4317c7ea9397462b56caba300" sha1="929bd1fcd2a5b3699651cd555b3149cdcbe239a6" />
<rom name="FRANCE_18_DEMO (Track 4).bin" size="2152080" crc="33be0ada" md5="132ed387fe3c8403f0d345d306b0e061" sha1="ef0d3df87cf2fe7c3e6df2dfaf1470e5504a0211" />
<rom name="FRANCE_18_DEMO (Track 5).bin" size="32354112" crc="e49b3127" md5="ee83e17e16bca73cd5438462de6883d2" sha1="01de730b1e7a8f18f9effe9341266681c2145db8" />

    Cuesheet:

FILE "FRANCE_18_DEMO (Track 1).bin" BINARY
  TRACK 01 MODE2/2352
    INDEX 01 00:00:00
FILE "FRANCE_18_DEMO (Track 2).bin" BINARY
  TRACK 02 AUDIO
    INDEX 00 00:00:00
    INDEX 01 00:02:00
FILE "FRANCE_18_DEMO (Track 3).bin" BINARY
  TRACK 03 AUDIO
    INDEX 00 00:00:00
    INDEX 01 00:02:00
FILE "FRANCE_18_DEMO (Track 4).bin" BINARY
  TRACK 04 AUDIO
    INDEX 00 00:00:00
    INDEX 01 00:02:00
FILE "FRANCE_18_DEMO (Track 5).bin" BINARY
  TRACK 05 AUDIO
    INDEX 00 00:00:00
    INDEX 01 00:02:00

    Write Offset: +2

Dumping Info:
    Dumping Program: DiscImageCreator 20230606
    Date: 2023-12-10 17:42:06
    Manufacturer: PLEXTOR
    Model: DVDR    PX-708A
    Firmware: 1.12
    Reported Disc Type: CD-ROM XA Disc

25

(0 replies, posted in Verifications)

Matches : http://redump.org/disc/44756/
Logs: https://www.dropbox.com/scl/fi/ux83dgry … p&dl=0

Users who wish to submit this information to Redump must ensure that all of the fields below are accurate for the exact media they have.
Please double-check to ensure that there are no fields that need verification, such as the version or copy protection.
If there are no fields in need of verification or all fields are accurate, this preamble can be removed before submission.

Common Disc Info:
    Title: euro demo 10
    Foreign Title (Non-latin): 
    Disc Number / Letter: 
    Disc Title: 
    System: Sony PlayStation
    Media Type: CD-ROM
    Category: Games
    Region: France
    Languages: French
    Disc Serial: SCED-00773

    Ringcode Information:

Data Side Mastering Code (laser branded/etched): 
Data Side Mastering SID Code: 
Data Side Toolstamp or Mastering Code (engraved/stamped): 
Data Side Mould SID Code: IFPI 9471
Data Side Additional Mould: 
Label Side Mould SID Code: 

    Barcode: 
    EXE/Build Date: 1997-04-07
    Error Count: 1
    Comments:

[T:ISN] SCED-00773
[T:VOL] EURO_DEMO_FRANCE_10
(OPTIONAL)

    Contents: (OPTIONAL)

Version and Editions:
    Version: 
    Edition/Release: Original

EDC:
    EDC: No

Extras:
    Primary Volume Descriptor (PVD):

0320 : 20 20 20 20 20 20 20 20  20 20 20 20 20 31 39 39                199
0330 : 37 30 35 32 37 31 39 30  35 32 38 30 30 24 31 39   7052719052800$19
0340 : 39 37 30 35 32 37 32 30  34 39 30 30 30 30 00 30   97052720490000.0
0350 : 30 30 30 30 30 30 30 30  30 30 30 30 30 30 30 00   000000000000000.
0360 : 30 30 30 30 30 30 30 30  30 30 30 30 30 30 30 30   0000000000000000
0370 : 00 01 00 00 00 00 00 00  00 00 00 00 00 00 00 00   ................

Copy Protection:
    Anti-modchip: No
    LibCrypt: No

Tracks and Write Offsets:
    DAT:

<rom name="EURO_DEMO_FRANCE_10 (Track 01).bin" size="105663600" crc="ad5cfe77" md5="69ec0192ff71df5bb410e86b11ca9fdd" sha1="237018e2fa4f3e442feb3aefa7aedeed7967b9a6" />
<rom name="EURO_DEMO_FRANCE_10 (Track 02).bin" size="15433824" crc="219ce0ff" md5="f292b51398af00d03d3a642f3917ff36" sha1="4c84530cef29df7049b9068d832056fc9aaaec49" />
<rom name="EURO_DEMO_FRANCE_10 (Track 03).bin" size="30209088" crc="86e7bdaf" md5="f7020c4764dc08e379e70c9c84d7f48c" sha1="4c91fb1905b52af18f939c93b3e58f67a4d79392" />
<rom name="EURO_DEMO_FRANCE_10 (Track 04).bin" size="5190864" crc="34e33b65" md5="1ebbc6c71e6c525c81555c47dcd1753d" sha1="3e8c7d9c11b18cd80515b8a7bd24fb1a8dfe1c7d" />
<rom name="EURO_DEMO_FRANCE_10 (Track 05).bin" size="4981536" crc="767d11c2" md5="fd99bb6f63116a939608c3f4be08777a" sha1="8285e30e69d3ee468d968147677e4bf0ace5b39e" />
<rom name="EURO_DEMO_FRANCE_10 (Track 06).bin" size="13239408" crc="536ff53e" md5="af7eaef52ebdfcd843a648af379f8041" sha1="01cc8c7cbac578405bc6af5ef3d2833096e00185" />
<rom name="EURO_DEMO_FRANCE_10 (Track 07).bin" size="54905088" crc="58e8bf07" md5="45ce662a3f0575bc2aca051753b6ae61" sha1="e911e9d30d875acf5e157b33dc272e5c63830bb9" />
<rom name="EURO_DEMO_FRANCE_10 (Track 08).bin" size="2471952" crc="1d75e59b" md5="a9329db231dab5f9adcd405426370581" sha1="abc93d09b66195fd0ab129804ed979407275015d" />
<rom name="EURO_DEMO_FRANCE_10 (Track 09).bin" size="35701008" crc="348e4de0" md5="5bce87bc6c7520cde4590057582c6a93" sha1="cc3cddd9fe916e28448bd65af628c32c7b0de721" />
<rom name="EURO_DEMO_FRANCE_10 (Track 10).bin" size="54905088" crc="58e8bf07" md5="45ce662a3f0575bc2aca051753b6ae61" sha1="e911e9d30d875acf5e157b33dc272e5c63830bb9" />

    Cuesheet:

FILE "EURO_DEMO_FRANCE_10 (Track 01).bin" BINARY
  TRACK 01 MODE2/2352
    INDEX 01 00:00:00
FILE "EURO_DEMO_FRANCE_10 (Track 02).bin" BINARY
  TRACK 02 AUDIO
    INDEX 00 00:00:00
    INDEX 01 00:02:00
FILE "EURO_DEMO_FRANCE_10 (Track 03).bin" BINARY
  TRACK 03 AUDIO
    INDEX 00 00:00:00
    INDEX 01 00:02:00
FILE "EURO_DEMO_FRANCE_10 (Track 04).bin" BINARY
  TRACK 04 AUDIO
    INDEX 00 00:00:00
    INDEX 01 00:02:00
FILE "EURO_DEMO_FRANCE_10 (Track 05).bin" BINARY
  TRACK 05 AUDIO
    INDEX 00 00:00:00
    INDEX 01 00:02:00
FILE "EURO_DEMO_FRANCE_10 (Track 06).bin" BINARY
  TRACK 06 AUDIO
    INDEX 00 00:00:00
    INDEX 01 00:02:00
FILE "EURO_DEMO_FRANCE_10 (Track 07).bin" BINARY
  TRACK 07 AUDIO
    INDEX 00 00:00:00
    INDEX 01 00:02:00
FILE "EURO_DEMO_FRANCE_10 (Track 08).bin" BINARY
  TRACK 08 AUDIO
    INDEX 00 00:00:00
    INDEX 01 00:02:00
FILE "EURO_DEMO_FRANCE_10 (Track 09).bin" BINARY
  TRACK 09 AUDIO
    INDEX 00 00:00:00
    INDEX 01 00:02:00
FILE "EURO_DEMO_FRANCE_10 (Track 10).bin" BINARY
  TRACK 10 AUDIO
    INDEX 00 00:00:00
    INDEX 01 00:02:00

    Write Offset: +2

Dumping Info:
    Dumping Program: DiscImageCreator 20230606
    Date: 2023-12-10 16:42:13
    Manufacturer: PLEXTOR
    Model: DVDR    PX-708A
    Firmware: 1.12
    Reported Disc Type: CD-ROM XA Disc