http://redump.org/disc/13914/

Title: Super Mario Galaxy 2 for Beginners
System: DVD-Video
Media Type: DVD-5
Category: Bonus Discs
Region: Europe
Languages: En,Fr,De,Es,It
Disc Serial: RVL-9B4P-EUR-B0
Ringcode Information:
    Mastering Ring: 310E1204    RVL-9B4P-0C-1 JPN    S0
    Mastering SID Code: IFPI LL38
    Mould SID Code (data side): IFPI HHSE
    Mould SID Code (label side): IFPI HHST
    Additional Mould (data side): MADE IN JAPAN
    Additional Mould (label side): MADE IN JAPAN
Version: 1.01
Primary Volume Descriptor (PVD):

0320 : 20 20 20 20 20 20 20 20  20 20 20 20 20 32 30 31                201
0330 : 30 30 35 30 38 31 34 34  33 33 34 30 30 00 30 30   0050814433400.00
0340 : 30 30 30 30 30 30 30 30  30 30 30 30 30 30 00 30   00000000000000.0
0350 : 30 30 30 30 30 30 30 30  30 30 30 30 30 30 30 00   000000000000000.
0360 : 30 30 30 30 30 30 30 30  30 30 30 30 30 30 30 30   0000000000000000
0370 : 00 01 00 00 00 00 00 00  00 00 00 00 00 00 00 00   ................

Copy Protection:

Region: 2 4
Copyright Protection System Type: CSS/CPPM
Encrypted Disc Key: F3 90 0D 98 D2
Player Key: 01 AF E3 12 80
Decrypted Disc Key: 17 4A D9 DE 40

DAT:

<rom name="SMG2_EUR.iso" size="4545708032" crc="1dec5713" md5="84003e986160b745d09645f3c5706e34" sha1="dcef4c78f20d24671f341d417dfebab08c62b5b0" />

2

(0 replies, posted in Dumps)

http://redump.org/disc/15770/

Title: LEGO Racers 2
System: IBM PC Compatible
Media Type: CD-ROM
Category: Games
Region: Europe
Languages: English
Disc Serial: ESS476
Ringcode Information:
    Mastering Ring: DOCdata UK    FOC ESS476D
    Mastering SID Code: IFPI LP76
Barcode: 5 031366 014764
Error Count: 0
Comments: Existing dump is also the Focus rerelease (based on ringcode and barcode)
Contents: Manual
Edition/Release: Focus Essential
Primary Volume Descriptor (PVD):

0320 : 20 20 20 20 20 20 20 20  20 20 20 20 20 32 30 30                200
0330 : 31 30 38 31 35 31 38 31  33 34 35 30 30 00 32 30   1081518134500.20
0340 : 30 31 30 38 31 35 31 38  31 33 34 35 30 30 00 30   01081518134500.0
0350 : 30 30 30 30 30 30 30 30  30 30 30 30 30 30 30 04   000000000000000.
0360 : 30 30 30 30 30 30 30 30  30 30 30 30 30 30 30 30   0000000000000000
0370 : 04 01 00 00 00 00 00 00  00 00 00 00 00 00 00 00   ................

Copy Protection: None found

Cuesheet:

FILE "LEGO Racers 2.bin" BINARY
  TRACK 01 MODE2/2352
    INDEX 01 00:00:00

Write Offset: 0

DAT:

<rom name="LEGO Racers 2.bin" size="564505872" crc="5a895e18" md5="ac77f696b5d12a5bb4c421efb3219ab4" sha1="81449132e550156ac01b1f8206869eaa6c9ae941" />

3

(0 replies, posted in Dumps)

Tonic Trouble - http://redump.org/disc/51014/

Title: Tonic Trouble
System: IBM PC Compatible
Media Type: CD-ROM
Category: Games
Region: US??? (this particular disc I found for sale exclusively from multiple US vendors, new in a sleeve, but it matches the European dumps and has the European "Nestlé Crunch" sponsorship rather than the US "Newman's Own" as seen in the N64 versions of this game)
Languages: English
Disc Serial: 02489
Ringcode Information:
    Mastering Ring: PCT02489 R3R
    Mastering SID Code: IFPI L241
    Mould SID Code: IFPI 4121
    Toolstamp: 01
Error Count: 0
Contents: Manuals (En,Nl), Rayman 2 Demo
Version: 8.0.0
Edition/Release: Original? (rerelease, 2003 copyright on disc)
Primary Volume Descriptor (PVD):

0320 : 20 20 20 20 20 20 20 20  20 20 20 20 20 32 30 30                200
0330 : 31 30 31 32 32 31 36 33  31 35 39 30 30 00 32 30   1012216315900.20
0340 : 30 31 30 31 32 32 31 36  33 31 35 39 30 30 00 32   01012216315900.2
0350 : 30 31 31 30 31 32 30 31  36 33 31 35 39 30 30 00   011012016315900.
0360 : 32 30 30 31 30 31 32 32  31 36 33 31 35 39 30 30   2001012216315900
0370 : 00 01 00 00 00 00 00 00  00 00 00 00 00 00 00 00   ................

Copy Protection: None found

Cuesheet:

FILE "TT.bin" BINARY
  TRACK 01 MODE1/2352
    INDEX 01 00:00:00

Write Offset: 0

DAT:

<rom name="TT.bin" size="784709520" crc="8af8a660" md5="b84a93698612246c52dbfcbf1187b825" sha1="b64132357f50e1839b6cc6444036470e38838bd6" />

http://redump.org/disc/55214/
Version = 1.30

5

(2 replies, posted in Dumps)

Yes, the disc is DVD-5. DICUI had outputted the wrong values (that bug has since been fixed).

Additionally: ringcodes that do not contain SID codes are not necessarily bad (if the disc itself does not have the codes on it, which a few do not), so should not automatically have yellow status.

7

(2 replies, posted in Dumps)

Title: Vexx
System: Sony PlayStation 2
Media Type: DVD-5
Category: Games
Region: Europe
Languages: En,Fr,De,Es,It
Disc Serial: SLES-50481, 2327610
EXE Date: 2003-02-05
Ringcode Information:
        Mastering Code (data side): Sony DADC    A0100452484-A511    18
        Mastering SID (data side): IFPI L558
        Toolstamp (data side): A2
        Mould SID: IFPI 946Z
        Mastering Code (label side): A0900555555-B511    256
        Mastering SID (label side): IFPI L556
        Toolstamp (label side): G21
Comments: Promo Only - Not for Resale
Version: 1.01
Edition/Release: Promo
Primary Volume Descriptor (PVD):

0320 : 20 20 20 20 20 20 20 20  20 20 20 20 20 32 30 30                200
0330 : 33 30 32 30 37 31 30 35  30 31 37 30 30 24 30 30   3020710501700$00
0340 : 30 30 30 30 30 30 30 30  30 30 30 30 30 30 00 30   00000000000000.0
0350 : 30 30 30 30 30 30 30 30  30 30 30 30 30 30 30 00   000000000000000.
0360 : 30 30 30 30 30 30 30 30  30 30 30 30 30 30 30 30   0000000000000000
0370 : 00 01 00 00 00 00 00 00  00 00 00 00 00 00 00 00   ................

DAT:

<rom name="VEXX.iso" size="3929309184" crc="4cecd50e" md5="860b3ece5e300cdf3cef7fb33fe83aec" sha1="5e9439d1ec36690021029f91d8404fea468a535a" />

Title: Kao the Kangaroo: Round 2
System: Sony PlayStation 2
Media Type: CD-ROM
Category: Games
Region: Europe
Languages: En,Fr,De,Es,It
Disc Serial: SLES-51998#
EXE Date: 2004-08-27
Ringcode Information:
    Mastering Ring: Sony DADC    A0100559164-0101    38
    Mastering SID Code: IFPI L558
    Mould SID Code: IFPI 94W3
    Toolstamp or Mastering Code: A02
Barcode: 9 006113 001935
Error Count: 0
Comments: DVD logo on disc and case, silver-backed CD
Version: 1.00
Edition/Release: 2012 rerelease
Primary Volume Descriptor (PVD):

0320 : 20 20 20 20 20 20 20 20  20 20 20 20 20 32 30 30                200
0330 : 34 30 39 30 35 31 34 31  36 35 33 30 30 24 30 30   4090514165300$00
0340 : 30 30 30 30 30 30 30 30  30 30 30 30 30 30 00 30   00000000000000.0
0350 : 30 30 30 30 30 30 30 30  30 30 30 30 30 30 30 00   000000000000000.
0360 : 30 30 30 30 30 30 30 30  30 30 30 30 30 30 30 30   0000000000000000
0370 : 00 01 00 00 00 00 00 00  00 00 00 00 00 00 00 00   ................

Cuesheet:

FILE "KAO2.bin" BINARY
  TRACK 01 MODE2/2352
    INDEX 01 00:00:00

Write Offset: -12
Dat:

<rom name="KAO2.bin" size="685593888" crc="28ebfc6d" md5="cf8656568e8dbd68985cadc847bd6a4e" sha1="70d21ff3d291a1b13d37ec20276897f1b55f507b" />

http://redump.org/disc/34487/

Ringcode 1 (29311   DVD   MSL010159) (submitted by me but edited to contain DVD?) is incorrect. The actual data is:
Mastering Code: 29311   MSL010159
Mould SID: None
Mastering SID: None
Toolstamp: None

10

(7 replies, posted in General discussion)

Thanks for the tips! Someone posted a PX-W4824TA on eBay for £20 (apparently in working order apart from a broken rubber drive belt, which I should be able to either fix or just open with a paperclip), and the SATA to IDE adapter recommended by ajshell.

11

(7 replies, posted in General discussion)

Still looking for a drive. Could anyone from Norway act as an intemediary and help me get this drive? I would pay for the drive and the shipping costs to the UK.

12

(7 replies, posted in General discussion)

Hi! I would like to obtain a Plextor drive in order to dump various CDs that I have and CDs that I will obtain in the future (I will probably not be able to dump many until late December however). I live in the UK. What would be the cheapest way of obtaining a drive, and as the drive will probably be IDE, would an IDE to SATA converter work to connect it to my computer?

On the dumping guides, Disc Image Creator is used to dump CDs. Is a Plextor drive absolutely required for this or is there some other way to dump discs suitable for redump with other drives.

Additionally, I noticed that for all multi-track CDs, each track is in a separate .bin file. I have not found a tool that can dump CDs in this way, and I would like to be able to.