1

(42 replies, posted in General discussion)

escarlata wrote:

I'm trying to follow the PC method, the first requirement is:
"- 3k3y Ripper Device + IsoTools" is this Ripper an actual piece of hardware?

Yes, 3k3y Ripper Device is an actual piece of hardware. Also called 3Key Ripp3r PCB v1 (PATA) or 3Key Ripp3r PCB v2 (PATA & SATA)

+1 more since the above haven't been added yet. DIC logs & Pictures added to the same mega link. Note: Cover (Barcode) is for Platinum: The Best of PlayStation 2 while disc is Original Edition.

http://redump.org/disc/4674/
Game Title: LEGO Star Wars: The Video Game
Media: CD
Region: Europe
Languages: English, French, German, Spanish, Italian, Danish, Dutch
Edition: Original
Serial: SLES-53194
EXE: SLES_531.94
EXE date: 2005-02-28
Version: 1.00
Errors count: 0
Number of tracks: 1
Write offset: -12
Barcode: 5 032921 023191

Comments:
Language selection via Language Selector

Track(s):

<game name="LEGO Star Wars - The Video Game (Europe) (En,Fr,De,Es,It,Nl,Da)">
  <category>Games</category>
  <description>LEGO Star Wars - The Video Game (Europe) (En,Fr,De,Es,It,Nl,Da)</description>
  <rom name="LEGO Star Wars - The Video Game (Europe) (En,Fr,De,Es,It,Nl,Da).bin" size="734021568" crc="8a385061" md5="be0b64c9ce4f172302ed257dba7afa14" sha1="2895185845968d34274a278047e8d3c77bde6fb3" />
</game>

cuesheet:

FILE "LEGO Star Wars - The Video Game (Europe) (En,Fr,De,Es,It,Nl,Da).bin" BINARY
  TRACK 01 MODE2/2352
    INDEX 01 00:00:00

Mastering Code (laser branded/etched): Sony DADC<TAB>A0100597322-0101<TAB>18
Mastering SID Code: IFPI L558
Toolstamp or Mastering Code (engraved/stamped): A9
Mould SID Code: IFPI 9430

http://redump.org/disc/24888/
Game Name: Star Trek: Conquest
Region: Europe
Languages: English, German
Game ID: SLES-55048
EXE: SLES_550.48
EXE date: 2007-10-09
Version: 1.01
Edition: Original
Barcode: 0 093155 130395

Comments:
Language selection via Language Selector

Mastering Code (Ringcode): Sony DADC<TAB>A0100904641-A511<TAB>17
Mastering SID Code: IFPI L557
Toolstamp: A01
Mould SID Code: IFPI 945X

Size: 1284538368
CRC-32: 794CE91A
MD5: 5FB8FC5DD7138524E029B02EB25AFC32
SHA-1: 027CD5C449D902C98FEE51C1B87520EF72195A86
------------------------------------------------------------------
http://redump.org/disc/23156/
Game Name: Star Trek: Conquest
Region: USA
Languages: English
Game ID: SLUS 21630
EXE: SLUS_216.30
EXE date: 2007-10-09
Version: 1.01
Edition: Original
Barcode: 0 93155 12620 6

Mastering Code (Ringcode): PDSS-028605A1<TAB>1
Mastering SID Code: IFPI L332
Toolstamp: A05
Mould SID Code: IFPI QW40

Mould SID Code: IFPI QW41

Size: 1284571136
CRC-32: 95005215
MD5: E278F2D7C5D8E7FCB45767B85A7088C3
SHA-1: FCD49CBBBA261A726108EDA64076D6A1F01AC48B
-------------------------------------------------------------------
http://redump.org/disc/19566/
Game Title: Star Trek: Encounters
Media: CD
Region: Europe
Languages: English, French, German
Edition: Original
Serial: SLES-54554
EXE: SLES_545.54
EXE date: 2006-10-26
Version: 1.01
Errors count: 0
Number of tracks: 1
Write offset: -12
Barcode: 3 307210 241429

Comments:
Language selection via Language Selector

Track(s):

<game name="Star Trek - Encounters (Europe) (En,Fr,De)">
  <category>Games</category>
  <description>Star Trek - Encounters (Europe) (En,Fr,De)</description>
  <rom name="Star Trek - Encounters (Europe) (En,Fr,De).bin" size="591958416" crc="41796175" md5="e427db33e158ce4a2a61809605e32797" sha1="d33005ce35727912c958dfd75b18c19f4d18b0f7" />
</game>

cuesheet:

FILE "Star Trek - Encounters (Europe) (En,Fr,De).bin" BINARY
  TRACK 01 MODE2/2352
    INDEX 01 00:00:00

Mastering Code (laser branded/etched): Sony DADC<TAB>A0100755298-0101<TAB>18
Mastering SID Code: IFPI L558
Toolstamp or Mastering Code (engraved/stamped): A2
Mould SID Code: IFPI 946R
-----------------------------------------------------------------------------
http://redump.org/disc/17946/
Game Title: Star Trek: Encounters
Media: CD
Region: USA
Languages: English
Edition: Original
Serial: SLUS 21396
EXE: SLUS_213.96
EXE date: 2006-08-29
Version: 1.01
Errors count: 0
Number of tracks: 1
Write offset: -12
Barcode: 0 93155 12050 1

Track(s):

<game name="Star Trek - Encounters (USA)">
  <category>Games</category>
  <description>Star Trek - Encounters (USA)</description>
  <rom name="Star Trek - Encounters (USA).bin" size="591767904" crc="092044db" md5="70cc50b86fbb0fa940412b9ff1317f6a" sha1="9cd8b226b96be783269ed50daf8ba8cae591a497" />
</game>

cuesheet:

FILE "Star Trek - Encounters (USA).bin" BINARY
  TRACK 01 MODE2/2352
    INDEX 01 00:00:00

Mastering Code (laser branded/etched): PTRM-007585<TAB>1
Mastering SID Code: IFPI L327
Toolstamp or Mastering Code (engraved/stamped): A10
Mould SID Code: IFPI 507B
----------------------------------------------------------------
http://redump.org/disc/4652/
Game Name: Star Trek: Shattered Universe
Region: Europe
Languages: English, French, German
Game ID: SLES-52209
EXE: SLES_522.09
EXE date: 2004-02-12
Version: 1.03
Edition: Original
Barcode: 5 026555 302159

Comments:
Language selection via Language Selector

Mastering Code (Ringcode): Sony DADC<TAB>A0100522629-A511<TAB>17
Mastering SID Code: IFPI L557
Toolstamp: A3
Mould SID Code: IFPI 944X

Size: 1936588800
CRC-32: 2C589595
MD5: 74AD55F03C78631E1955830A55DF7ED1
SHA-1: 5AA64DAB7707B1C43DB38A0A93AA9C4D35DF0001
-----------------------------------------------------------------------
http://redump.org/disc/31056/
Game Name: Star Trek: Shattered Universe
Region: USA
Languages: English
Game ID: SLUS 20112
EXE: SLUS_201.12
EXE date: 2003-08-26
Version: 1.01
Edition: Original
Barcode: 7 39069 61514 5

Mastering Code (Ringcode): PDSS-006895A1<TAB>1
Mastering SID Code: IFPI L332
Toolstamp: A04
Mould SID Code: IFPI QW4E

Mould SID Code: IFPI QW4F

Size: 1934622720
CRC-32: 4DA24DFB
MD5: 5648A00C2773C6ED6DBAC3B61D0E3C17
SHA-1: EC1D2BD90244D3813C755F1EF08CA3F144BC08DF
-------------------------------------------------------------------
http://redump.org/disc/15991/
Game Name: Star Trek: Voyager: Elite Force
Region: Europe
Languages: English, French, German, Spanish, Italian
Game ID: SLES-50738
EXE: SLES_507.38
EXE date: 2002-06-13
Version: 1.03
Edition: Original
Barcode: 5 024866 320459

Comments:
Language selection via Language Selector

Mastering Code (Ringcode): Sony DADC<TAB>A0100419170-A511<TAB>27
Mastering SID Code: IFPI L557
Toolstamp: B1
Mould SID Code: NONE

Size: 2004451328
CRC-32: 332C3555
MD5: DDF3332707736FAFD0AA01CBCAFECEA5
SHA-1: 4BC7FA6793503328075B29E5BBFA16CD95BE8612
------------------------------------------------------------------
http://redump.org/disc/34002/
Game Name: Star Trek: Voyager: Elite Force
Region: USA
Languages: English
Game ID: SLUS 20227
EXE: SLUS_202.27
EXE date: 2001-11-16
Version: 1.10
Edition: Original
Barcode: 0 96427 01256 6

Mastering Code (Ringcode): PDSS-002185A1<TAB>4
Mastering SID Code: IFPI L330
Toolstamp: A01
Mould SID Code: IFPI QW2E

Mould SID Code: IFPI QW2F

Size: 1756102656
CRC-32: 536B5F5F
MD5: 2F52ABD36F2BCF2A6A919EE7315C4A64
SHA-1: 7DF24AED7C5E62A5E0CC31EACD1D456AF5A56871
-------------------------------------------------------------------
http://redump.org/disc/25536/
Game Name: Star Wars: Bounty Hunter
Region: Italy
Languages: Italian
Game ID: SLES-50834
EXE: SLES_508.34
EXE date: 2002-10-30
Version: 1.01
Edition: Original
Barcode: 0 023272 997113

Mastering Code (Ringcode): Sony DADC<TAB>A0100438593-A511<TAB>37
Mastering SID Code: IFPI L557
Toolstamp: A1
Mould SID Code: NONE

Size: 2361425920
CRC-32: 47EBFE10
MD5: E2A5F603C1E378930B32A8E14D41846A
SHA-1: 7751A7EFBDF37E2B586A394F22EA79C56742A32C
--------------------------------------------------------------------

DIC logs for CD games & Pictures for all https://mega.nz/#F!oKgwgT7A!Kx7gQMWw3nW0KMatAD4Bcg

4

(0 replies, posted in Dumps)

Pictures & CD game DIC logs: https://mega.nz/#F!JSQVSBbS!WfnwpuJPx92O-RDk37lONQ

http://redump.org/disc/1083/
Game Name: Star Wars: Battlefront
Region: USA
Languages: English
Game ID: SLUS 20898GH
EXE: SLUS_208.98
EXE date: 2004-08-02
Version: 1.02
Edition: Greatest Hits
Barcode: 0 23272 32435 3

Comments:
LucasArts ID: 3243530GH

Mastering Code (Ringcode): PDSS-011645A1<TAB>2
Mastering SID Code: IFPI L331
Toolstamp: A01
Mould SID Code: IFPI QW4E

Mould SID Code: IFPI QW4F

Size: 4697260032
CRC-32: 12A56268
MD5: 3D8E481E3E78B9E2AF6B493857DB6E47
SHA-1: 99D1CFED9237EEE823D6595AFEFB7FAFA2EE9CB1

------------------------------------------------------------------

http://redump.org/disc/7944/
Game Name: Star Wars: Battlefront II
Region: USA
Languages: English
Game ID: SLUS 21240GH
EXE: SLUS_212.40
EXE date: 2005-09-02
Version: 2.01
Edition: Greatest Hits
Barcode: 0 23272 32835 1

Comments:
LucasArts ID: 3283530GH

Mastering Code (Ringcode): PDSS-019636A1<TAB>1
Mastering SID Code: IFPI L332
Toolstamp: A09
Mould SID Code: IFPI QWAE

Mould SID Code: IFPI QWAF

Size: 4665671680
CRC-32: AE403115
MD5: 6BDC85ACB6CD0D31912D61590005E4DB
SHA-1: B385EDC89D053CA8238B47C6549E78F45EB88CA4

------------------------------------------------------------------

http://redump.org/disc/10009/
Game Name: Star Wars: Bounty Hunter
Region: USA
Languages: English
Game ID: SLUS 20420GH
EXE: SLUS_204.20
EXE date: 2002-11-05
Version: 1.02
Edition: Greatest Hits
Barcode: 0 23272 65935 6

Comments:
LucasArts ID: 6593530R

Mastering Code (Ringcode): PDSS-003625A1<TAB>2
Mastering SID Code: IFPI L331
Toolstamp: A06
Mould SID Code: IFPI QWB2

Mould SID Code: IFPI QWB3

Size: 2471755776
CRC-32: C3B176B2
MD5: C73186196490F9A6FAC22C8410AF8E90
SHA-1: F00B92988BCE158FCD7E4511E5700E7A9405E9BC

------------------------------------------------------------------

http://redump.org/disc/8777/
Game Name: Star Wars: Episode III: Revenge of the Sith
Region: USA
Languages: English
Version: 1.03
EXE: SLUS_211.43
EXE date: 2005-03-17
Barcode: 0 23272 32735 4

Size: 2721316864
CRC-32: 0AAF301D
MD5: B73176557879B02B675B1AC87B7AA9BB
SHA-1: 900E9FBF5ECC6038680D56927F4B141D3810A078

Disc #1
Edition: Original
Game ID: SLUS 21143

Comments:
LucasArts ID: 3273530

Mastering Code (Ringcode): PDSS-017375A1<TAB>1
Mastering SID Code: IFPI L332
Toolstamp: A02
Mould SID Code: IFPI QW48

Mould SID Code: IFPI QW49

Disc #2
Edition: Greatest Hits
Game ID: SLUS 21143GH

Comments:
LucasArts ID: 3273530GH

Mastering Code (Ringcode): PDSS-017375A1<TAB>1
Mastering SID Code: IFPI L332
Toolstamp: A03
Mould SID Code: IFPI QWA0

Mould SID Code: IFPI QWA1

----------------------------------------------------------------

http://redump.org/disc/12174/
Game Name: Star Wars: Jedi Starfighter
Region: USA
Languages: English
Game ID: SLUS 20293
EXE: SLUS_202.93
EXE date: 2002-02-11
Version: 2.10
Edition: Original
Barcode: 0 23272 65835 9

Comments:
LucasArts ID: 6583530

Mastering Code (Ringcode): PDSS-001915A1<TAB>3
Mastering SID Code: IFPI L332
Toolstamp: B05
Mould SID Code: IFPI QW42

Mould SID Code: IFPI QW43

Size: 1981087744
CRC-32: 90BE6AA4
MD5: 94B958AFF6047A9F4CB5B7E85EEC8B52
SHA-1: 5182D7F83F186A6E04C1AB978C8A6DE93F6E0D15

------------------------------------------------------------------

http://redump.org/disc/26541/
Game Title: Star Wars: Racer Revenge
Media: CD
Region: USA
Languages: English
Edition: Original
Serial: SLUS 20268
EXE: SLUS_202.68
EXE date: 2002-01-17
Version: 1.10
Errors count: 0
Number of tracks: 1
Write offset: -12
Barcode: 0 23272 65735 2

Comments:
LucasArts ID: 6573530

Track(s):

<game name="Star Wars - Racer Revenge (USA)">
  <category>Games</category>
  <description>Star Wars - Racer Revenge (USA)</description>
  <rom name="Star Wars - Racer Revenge (USA).bin" size="577312512" crc="bb2044f1" md5="4bb63eb11293364fb2f8b00d73d86a83" sha1="e3aa1127f49fb49db2e3d6cb59c02c0aff4d368c" />
</game>

cuesheet:

FILE "Star Wars - Racer Revenge (USA).bin" BINARY
  TRACK 01 MODE2/2352
    INDEX 01 00:00:00

Mastering Code (laser branded/etched): PTRM-003335<TAB>1
Mastering SID Code: IFPI L327
Toolstamp or Mastering Code (engraved/stamped): B03
Mould SID Code: IFPI 50DE

-----------------------------------------------------------------------
http://redump.org/disc/5189/
Game Title: Star Wars: Starfighter
Media: CD
Region: USA
Languages: English
Edition: Greatest Hits
Serial: SLUS 20044GH
EXE: SLUS_200.44
EXE date: 2001-01-24
Version: 1.00
Errors count: 0
Number of tracks: 1
Write offset: -12
Barcode: 0 23272 65535 8

Comments:
LucasArts ID: 6553530R

Track(s):

<game name="Star Wars - Starfighter (USA) (Rev 1)">
  <category>Games</category>
  <description>Star Wars - Starfighter (USA) (Rev 1)</description>
  <rom name="Star Wars - Starfighter (USA) (Rev 1).bin" size="751964976" crc="91b3ce78" md5="589cb48e28f9078f9ac34482514a2ee2" sha1="dde31c2bce6c079581cfd14ce8c436d8a5463be9" />
</game>

cuesheet:

FILE "Star Wars - Starfighter (USA) (Rev 1).bin" BINARY
  TRACK 01 MODE2/2352
    INDEX 01 00:00:00

Mastering Code (laser branded/etched): PTRM-000715<TAB>9
Mastering SID Code: IFPI L327
Toolstamp or Mastering Code (engraved/stamped): A19
Mould SID Code: IFPI 50F3

-----------------------------------------------------------------------

http://redump.org/disc/26542/
Game Title: Star Wars: Super Bombad Racing
Media: CD
Region: USA
Languages: English, French, German, Spanish, Italian
Edition: Original
Serial: SLUS 20043
EXE: SLUS_200.43
EXE date: 2001-03-21
Version: 1.03
Errors count: 0
Number of tracks: 1
Write offset: -647
Barcode: 6 51952 35298 5

Comments:
English: [Select], [Select], [Select], [Circle]
French: [Select], [Select], [Select], [R2]
German: [Select], [Select], [Select], [L1]
Spanish: [Select], [Select], [Select], [R1]
Italian: [Select], [Select], [Select], [L2]
Jawa: [Select], [Select], [Select], [Square]  big_smile

Track(s):

<game name="Star Wars - Super Bombad Racing (USA) (En,Fr,De,Es,It)">
  <category>Games</category>
  <description>Star Wars - Super Bombad Racing (USA) (En,Fr,De,Es,It)</description>
  <rom name="Star Wars - Super Bombad Racing (USA) (En,Fr,De,Es,It).bin" size="242693472" crc="30c9db2f" md5="32135262eb74797472d675b813db9340" sha1="989b7010b8255bd063e35d97bdcfb134e0809610" />
</game>

cuesheet:

FILE "Star Wars - Super Bombad Racing (USA) (En,Fr,De,Es,It).bin" BINARY
  TRACK 01 MODE2/2352
    INDEX 01 00:00:00

Mastering Code (laser branded/etched): PTRM-000705<TAB>1
Mastering SID Code: IFPI L330
Toolstamp or Mastering Code (engraved/stamped): B06
Mould SID Code: IFPI 50DE

-------------------------------------------------------------------------

http://redump.org/disc/32940/
Game Name: Star Wars: The Clone Wars: Republic Heroes
Region: USA
Languages: English
Game ID: SLUS 21913
EXE: SLUS_219.13
EXE date: 2009-08-07
Version: 1.00
Edition: Original
Barcode: 0 23272 33835 0

Comments:
LucasArts ID: 3383530

Mastering Code (Ringcode): PDSS-035055A1<TAB>1
Mastering SID Code: IFPI L331
Toolstamp: A03
Mould SID Code: IFPI QW9E

Mould SID Code: IFPI QW9F

Size: 2953871360
CRC-32: F96DD3F3
MD5: 2D0D718A85053F22FC4DEE189C811137
SHA-1: EDA08A746CAA1D0A3A25449E51842BB02901C96E

---------------------------------------------------------------------

http://redump.org/disc/32847/
Game Name: Star Wars: The Clone Wars
Region: USA
Languages: English
Game ID: SLUS 20510
EXE: SLUS_205.10
EXE date: 2002-11-19
Version: 1.03
Edition: Original
Barcode: 0 23272 32035 5

Comments:
LucasArts ID: 3203530

Mastering Code (Ringcode): PDSS-004325A1<TAB>2
Mastering SID Code: IFPI L332
Toolstamp: A03
Mould SID Code: IFPI QW5A

Mould SID Code: IFPI QW5B

Size: 1235058688
CRC-32: C3CB3FD2
MD5: D2D20F13D9FC9551F852B1121D18446E
SHA-1: D0423C68C8CA325F01A8CA97BFA83EB2F8AC172E

------------------------------------------------------------------

http://redump.org/disc/22865/
Game Name: Star Wars: The Force Unleashed
Region: USA
Languages: English, French
Game ID: SLUS 21614GH
EXE: SLUS_216.14
EXE date: 2008-03-26
Version: 1.02
Edition: Greatest Hits
Barcode: 0 23272 33235 8

Comments:
LucasArts ID: 3323530GH

Mastering Code (Ringcode): PDSS-026925A1<TAB>2
Mastering SID Code: IFPI L331
Toolstamp: C04
Mould SID Code: IFPI QW60

Mould SID Code: IFPI QW61

Size: 3778478080
CRC-32: D26ED695
MD5: 8C2BAD08CCF9A7DB1AC1C37F08ED845A
SHA-1: 15B6BAA583BBE5E63D857991E3AC67DF32B6094D

5

(0 replies, posted in Fixes & additions)

Guess I didn't see and missed language setup for 2 games located in setup, options. smile

Star Wars: Jedi Knight II: Jedi Outcast
http://redump.org/disc/43444/

Voice: English, French, German, Spanish
Text: English, French, German, Spanish

Star Wars: Jedi Knight: Jedi Academy
Disc 1 http://redump.org/disc/43437/
Disc 2 http://redump.org/disc/43436/

Voice: English, French, German, Spanish
Text: English, French, German, Spanish

Also a question on the protection on these games. A CD in drive is required to play, so protection is CD Check, or it that a given?

6

(1,166 replies, posted in General discussion)

Trying to dump a new disc not in redump's db. Star Wars - Jedi Knight II - Jedi Outcast (USA) published by Cosmi Software. Purchased brand new.

Picture's of disc & DIC logs: https://mega.nz/#F!UP4wCJgK!4BcBoGTomFMnzuK4123Sxg

Think disc is bad but want to double check its not some kind of protection.

Was able to install & play. Tried to dump with DIC and getting c2 errors before aborts with

Created img (LBA)  76513/350592[F:ProcessReadCD][L:1489] GetLastError: 121, The semaphore timeout period has expired.

Please wait for 40000 milliseconds until the device is returned

Tried with command "DiscImageCreator.exe cd J: game.bin 2 /c2" & "DiscImageCreator.exe cd J: game.bin 2 /sf /c2 3 /d8 /ns /s 2" 2nd command found "Detected intentional subchannel in LBA -1 => SecuROM Type4 (a.k.a. NEW)" but no other program I tried found any protection, just disc is overburned (824,594,736 bytes).

Other programes that I tried to dump disc are:
Alcohol 120 (found no protection, so used default copy option) - 0 errors per edccchk-v1.26-win32
CloneCD with recommended settings - 3486 errors
CdManipulator with recommended settings - 2176 errors.

7

(0 replies, posted in Dumps)

dumpinfo & pictures: https://mega.nz/#F!dWpwzDyR!ox7oRTa3LK7VaSFJxi4TnA

http://redump.org/disc/15013/
Game Title: LEGO Star Wars: The Video Game
Media: CD
Region: USA
Languages: English
Edition: Original
Serial: SLUS 21083
EXE: SLUS_210.83
EXE date: 2005-03-02
Version: 1.01
Errors count: 0
Number of tracks: 1
Write offset: -12
Barcode: 7 88687 50032 6

Comments:
LucasArts ID: MLEGOSUS01

Track(s):

<game name="LEGO Star Wars - The Video Game (USA) (v1.01)">
  <category>Games</category>
  <description>LEGO Star Wars - The Video Game (USA) (v1.01)</description>
  <rom name="LEGO Star Wars - The Video Game (USA) (v1.bin" size="731135664" crc="f4e2b433" md5="e6de45d4be80467a6f8e60bdb1ba0875" sha1="14f3f41592283f6d9909e476ded97a7c85323bd6" />
</game>

cuesheet:

FILE "LEGO Star Wars - The Video Game (USA) (v1.bin" BINARY
  TRACK 01 MODE2/2352
    INDEX 01 00:00:00

Mastering Code (laser branded/etched): PTRM-007175<TAB>2
Mastering SID Code: IFPI L327
Toolstamp or Mastering Code (engraved/stamped): B13
Mould SID Code: IFPI 50E0

-------------------------------------------------------------------

http://redump.org/disc/4192/
Game Name: LEGO Star Wars: The Video Game
Region: USA
Languages: English
Game ID: SLUS 21083GH
EXE: SLUS_210.83
EXE date: 2005-12-23
Version: 2.00
Edition: Greatest Hits
Barcode: 7 88687 50032 6

Comments:
LucasArts ID: MLEGOSUS51

Mastering Code (Ringcode): PDSS-022666A1<TAB>1
Mastering SID Code: IFPI L332
Toolstamp: A13
Mould SID Code: IFPI QW76

Mould SID Code: IFPI QW77

Size: 1869316096
CRC-32: C60F83A2
MD5: 48CF20E6476D6F4F20992522A2D2D37E
SHA-1: 68F304DDF4A7C96B32727145DDA6F3468F9EC64A

------------------------------------------------------------------

http://redump.org/disc/4198/
Game Name: LEGO Star Wars II: The Original Trilogy
Region: USA
Languages: English
Game ID: SLUS 21409
EXE: SLUS_214.09
EXE date: 2006-07-30
Version: 1.01
Edition: Original
Barcode: 0 23272 32935 8

Comments:
LucasArts ID: 3293530

Mastering Code (Ringcode): PDSS-023165A1<TAB>1
Mastering SID Code: IFPI L332
Toolstamp: B04
Mould SID Code: IFPI QW3A

Mould SID Code: IFPI QW3B

Size: 4610850816
CRC-32: B05F93AD
MD5: C89BEEA1F18DAA080602253118DD8B34
SHA-1: 2E6C7126CCA3DD296B64FB60C58CDE96A90F4533

8

(1 replies, posted in Dumps)

Both disc's are new with this version being published earlier per PVD than:
http://redump.org/disc/13202/
http://redump.org/disc/13203/

Just submitting in Forum because disc 1 has SecuROM protection and haven't figured out how to correctly submit SecuROM data. tongue

My dumpinfo folder https://mega.nz/#F!IGZSTBqT!qLiMLaBwnYvIreVkqxaPGQ

Star Wars - Empire at War (USA) (Disc 1)

Game Title: Star Wars: Empire at War
Disc number: 1
Media: CD
Region: USA
Languages: English
Edition: Original
Serial: 8541830
Version: 1.00.36493
Errors count: 1
Number of tracks: 1
Write offset: -12
Barcode: 0 23272 85418 8
Protection: SecuROM 7.19.0005
Comments:

Track(s):
<game name="Star Wars - Empire at War (USA) (Disc 1)">
  <category>Games</category>
  <description>Star Wars - Empire at War (USA) (Disc 1)</description>
  <rom name="Star Wars - Empire at War (USA) (Disc 1).bin" size="771557136" crc="229a3e25" md5="a0f70bacabed2f0ed8b2ebb02a207658" sha1="b4c24b9db77fa785a483c314c26971246c387916" />
</game>

cuesheet:
FILE "Star Wars - Empire at War (USA) (Disc 1).bin" BINARY
  TRACK 01 MODE1/2352
    FLAGS DCP
    INDEX 01 00:00:00


Mastering Code (laser branded/etched): 8541830 sonopress arvato + + F130901
Mastering SID Code: IFPI LB48
Toolstamp or Mastering Code (engraved/stamped): A10
Mould SID Code: IFPI 10F2

Sectors with LibCrypt protection:
MSF: 00:01:74 Q-Data: 610100 00:40:01 00 00:03:74 17fc
MSF: 01:08:50 Q-Data: 610101 21:06:50 00 05:08:50 3382
MSF: 01:32:10 Q-Data: 610101 01:30:50 00 01:32:12 221d
MSF: 01:34:18 Q-Data: 610101 01:36:18 00 01:14:18 80de
MSF: 02:15:14 Q-Data: 610101 02:11:14 00 02:55:14 0ed4
MSF: 02:24:62 Q-Data: 610101 02:22:42 00 02:24:66 9c0e
MSF: 02:59:20 Q-Data: 610101 02:57:00 00 02:59:24 d9fb
MSF: 03:42:31 Q-Data: 610101 03:50:31 00 03:4a:31 f7fd
MSF: 03:43:65 Q-Data: 610101 03:49:65 00 03:53:65 0729
MSF: 04:02:61 Q-Data: 610101 04:20:61 00 04:06:61 4332
MSF: 04:05:55 Q-Data: 610101 04:03:51 00 04:05:75 e77a

PVD
0320 : 20 20 20 20 20 20 20 20  20 20 20 20 20 32 30 30                200
0330 : 36 30 31 32 30 31 39 31  31 30 30 30 30 E0 32 30   6012019110000.20
0340 : 30 36 30 31 32 30 31 39  31 31 30 30 30 30 E0 30   06012019110000.0
0350 : 30 30 30 30 30 30 30 30  30 30 30 30 30 30 30 00   000000000000000.
0360 : 30 30 30 30 30 30 30 30  30 30 30 30 30 30 30 30   0000000000000000
0370 : 00 01 00 00 00 00 00 00  00 00 00 00 00 00 00 00   ................

Star Wars - Empire at War (USA) (Disc 2)

Game Title: Star Wars: Empire at War
Disc number: 2
Media: CD
Region: USA
Languages: English
Edition: Original
Serial: 8541831
Version: 1.00.36493
Errors count: 0
Number of tracks: 1
Write offset: -12
Barcode: 0 23272 85418 8
Protection: 
Comments:

Track(s):
<game name="Star Wars - Empire at War (USA) (Disc 2)">
  <category>Games</category>
  <description>Star Wars - Empire at War (USA) (Disc 2)</description>
  <rom name="Star Wars - Empire at War (USA) (Disc 2).bin" size="738478608" crc="f7905c28" md5="4d3e60c23f61f747c879e8c4e824277f" sha1="f9b0019a1f8246f82ffdb4e9157a7764fb06c9de" />
</game>

cuesheet:
FILE "Star Wars - Empire at War (USA) (Disc 2).bin" BINARY
  TRACK 01 MODE1/2352
    FLAGS DCP
    INDEX 01 00:00:00


Mastering Code (laser branded/etched): 8541831 sonopress arvato + + F130801
Mastering SID Code: IFPI L028
Toolstamp or Mastering Code (engraved/stamped): A08
Mould SID Code: IFPI 10J2

PVD
0320 : 20 20 20 20 20 20 20 20  20 20 20 20 20 32 30 30                200
0330 : 36 30 31 32 30 31 39 32  30 30 30 30 30 E0 32 30   6012019200000.20
0340 : 30 36 30 31 32 30 31 39  32 30 30 30 30 30 E0 30   06012019200000.0
0350 : 30 30 30 30 30 30 30 30  30 30 30 30 30 30 30 00   000000000000000.
0360 : 30 30 30 30 30 30 30 30  30 30 30 30 30 30 30 30   0000000000000000
0370 : 00 01 00 00 00 00 00 00  00 00 00 00 00 00 00 00   ................

Note: Version # from In-Game Start Screen.

9

(2 replies, posted in General discussion)

Question on Red Case Wii U games? Put it under Original or as other edition like Red Case Original? Asking cause I have a red case game with a different hash/ring code/key than gamecaptor has listed for an original game (blue case).

Also, .iso? or should it be .wud