I think i have 2 copies of this disc, the UK one and a not for resale version.
will find them out and put them on the top of the pile.

Common Disc Info:
    Title: Rance 4.1: Okusuri Koujou wo Sukue!
    Foreign Title (Non-latin): ランス4.1~お薬工場を救え!~
    System: Fujitsu FM Towns Marty
    Media Type: CD-ROM
    Category: Games
    Region: Japan
    Languages: not checked
    Disc Serial: ALS-0015

    Ringcode Information:
        Mastering Code (laser branded/etched): ALS-0015<tab>OP5Y2A
        Mastering SID Code: IFPI L302
        Data-Side Mould SID Code: IFPI 4825

    Barcode:
    Error Count: 0
    Comments: FMTowns, PC-9801, Windows
    Contents:

Version and Editions:
    Version: (REQUIRED, IF EXISTS)
    Edition/Release: Original (VERIFY THIS)

Extras:
    Primary Volume Descriptor (PVD):

0320 : 20 20 20 20 20 20 20 20  20 20 20 20 20 30 30 30                000
0330 : 30 30 30 30 30 30 30 30  30 30 30 30 30 00 30 30   0000000000000.00
0340 : 30 30 30 30 30 30 30 30  30 30 30 30 30 30 00 30   00000000000000.0
0350 : 30 30 30 30 30 30 30 30  30 30 30 30 30 30 30 00   000000000000000.
0360 : 30 30 30 30 30 30 30 30  30 30 30 30 30 30 30 30   0000000000000000
0370 : 00 01 00 00 00 00 00 00  00 00 00 00 00 00 00 00   ................

Tracks and Write Offsets:
    DAT:

<rom name="disc (Track 01).bin" size="7985040" crc="1f49432e" md5="d9ddcd5857865e5f5d354f59eaa44767" sha1="a04cfcf129b689f4cb0c97317e05865bf825434c" />
<rom name="disc (Track 02).bin" size="52649520" crc="029403a3" md5="c5f3e3eb1a5e6633b3ddaecf683c70d3" sha1="00d3b8a4234de7009a939bddd64129a7356837a7" />
<rom name="disc (Track 03).bin" size="36098496" crc="5694334c" md5="6fe5f638c4eb61afb869a5c73eddcd1e" sha1="3c7eff7bf19c8a46ab2584758b3ef2de3ca2fab8" />
<rom name="disc (Track 04).bin" size="53705568" crc="e1a0c274" md5="1e43b179869a3a0acefcc9bdae4b6963" sha1="aa759617a63a2878debf9bac05f4a57e6aca97be" />
<rom name="disc (Track 05).bin" size="25119360" crc="c133f8a8" md5="266a6ccb3eeab4fc7c84bf08574a54b7" sha1="2baaf9c841497f6dd428bf0461155a76d0433d1e" />
<rom name="disc (Track 06).bin" size="25547424" crc="ca9132c0" md5="f23feb02c11a21e08418d23e00aa07b7" sha1="11f9b70ea156b27fa4c121b20318c062cb8ba600" />
<rom name="disc (Track 07).bin" size="23651712" crc="b15d00e7" md5="0a2ab630f69a87c3b0910a31f239dda6" sha1="1f8d2c25adfc584c3d3da51fa836dbd2750d6d06" />
<rom name="disc (Track 08).bin" size="26097792" crc="8940d37b" md5="a8a349dbe6e1302210d1989f47ddcb8b" sha1="3fcfe46f9e9c6f1fce538ac38b03b9994e5d6153" />
<rom name="disc (Track 09).bin" size="23211888" crc="14ca6194" md5="c2e9d353cf008857852db9d5d4df2fb1" sha1="35c107f91d7bb24a652fc275693221483ec53a64" />
<rom name="disc (Track 10).bin" size="59230416" crc="286efc8d" md5="40aa2e1b61a4d48322f8f3eff00f5e54" sha1="bffbd683d9f793185eae9fe538c383f0906b06d2" />
<rom name="disc (Track 11).bin" size="55740048" crc="da42be48" md5="a6df94b320b126598a63932a54bc9e23" sha1="2bae1dad5f11ee13723e3aea594d9e1eb17d189c" />
<rom name="disc (Track 12).bin" size="57896832" crc="3b5ed1cc" md5="a78d898242494275469f24f64e7ed1a3" sha1="5ea1b11de6ae5953db9151a97a74b137fd0e3933" />
<rom name="disc (Track 13).bin" size="50170512" crc="56487b4b" md5="c0ff68b2be199e039f3c5ee0dac08af5" sha1="196eb857e3a3f587e728d42900d2e927bb04d857" />
<rom name="disc (Track 14).bin" size="25582704" crc="afe00dac" md5="1cdb30b40210c3539776adec1b94a64d" sha1="f08b11f743e3813b929f5dccb3e30975b713ca75" />
<rom name="disc (Track 15).bin" size="30717120" crc="b62ee327" md5="367c0667b8305d8c98f8d3b93393be55" sha1="d83a34dc347285a25edd89da015f31cb9fa44284" />
<rom name="disc (Track 16).bin" size="23251872" crc="3a8b9605" md5="f53446259f581086c9aca525f3b9ddd5" sha1="6ea47088c23eea82589961bbc85010f2342e3562" />
<rom name="disc (Track 17).bin" size="24855936" crc="596ee97f" md5="a92894743d37d41dd2e152860076a706" sha1="dc1fab21149a354176037ef1f969152f05d25b82" />
<rom name="disc (Track 18).bin" size="26812800" crc="d20363dc" md5="ccc64e586964b44f592b7d50c73de509" sha1="ac367d3a67582fb54a3eb2c0c0ea76ca36c9865a" />

    Cuesheet:

CATALOG 0000000000000
FILE "disc (Track 01).bin" BINARY
  TRACK 01 MODE1/2352
    INDEX 01 00:00:00
FILE "disc (Track 02).bin" BINARY
  TRACK 02 AUDIO
    INDEX 00 00:00:00
    INDEX 01 00:01:74
FILE "disc (Track 03).bin" BINARY
  TRACK 03 AUDIO
    INDEX 01 00:00:00
FILE "disc (Track 04).bin" BINARY
  TRACK 04 AUDIO
    INDEX 01 00:00:00
FILE "disc (Track 05).bin" BINARY
  TRACK 05 AUDIO
    INDEX 01 00:00:00
FILE "disc (Track 06).bin" BINARY
  TRACK 06 AUDIO
    INDEX 01 00:00:00
FILE "disc (Track 07).bin" BINARY
  TRACK 07 AUDIO
    INDEX 01 00:00:00
FILE "disc (Track 08).bin" BINARY
  TRACK 08 AUDIO
    INDEX 01 00:00:00
FILE "disc (Track 09).bin" BINARY
  TRACK 09 AUDIO
    INDEX 01 00:00:00
FILE "disc (Track 10).bin" BINARY
  TRACK 10 AUDIO
    INDEX 01 00:00:00
FILE "disc (Track 11).bin" BINARY
  TRACK 11 AUDIO
    INDEX 01 00:00:00
FILE "disc (Track 12).bin" BINARY
  TRACK 12 AUDIO
    INDEX 01 00:00:00
FILE "disc (Track 13).bin" BINARY
  TRACK 13 AUDIO
    INDEX 01 00:00:00
FILE "disc (Track 14).bin" BINARY
  TRACK 14 AUDIO
    INDEX 01 00:00:00
FILE "disc (Track 15).bin" BINARY
  TRACK 15 AUDIO
    INDEX 01 00:00:00
FILE "disc (Track 16).bin" BINARY
  TRACK 16 AUDIO
    INDEX 01 00:00:00
FILE "disc (Track 17).bin" BINARY
  TRACK 17 AUDIO
    INDEX 01 00:00:00
FILE "disc (Track 18).bin" BINARY
  TRACK 18 AUDIO
    INDEX 01 00:00:00

    Write Offset: 222





Logs: 
https://cdn.discordapp.com/attachments/ … _Sukue.rar

this also verifies http://redump.org/disc/26057/

yes. corrected in new version.

FILE "HYAKKA.bin" BINARY
  TRACK 01 MODE1/2352
    INDEX 01 00:00:00

new logs:
https://cdn.discordapp.com/attachments/ … HYAKKA.rar

5

(1 replies, posted in New Dumps)

Dumped from 2 identical discs,
Logs:
https://cdn.discordapp.com/attachments/ … -copy1.rar
https://cdn.discordapp.com/attachments/ … -copy2.rar


Discs seem to have printed incorrectly with the label from
Toushin Toshi II ( 闘神都市II ) and corrected after pressing

https://cdn.discordapp.com/attachments/755186534419923026/757378034016845874/IMG_20200921_000935.jpg

Common Disc Info:
    Title: Rance 4.2: Angel-gumi
    Foreign Title (Non-latin):  ランス4.2~エンジェル組~
    System: Fujitsu FM Towns Marty
    Media Type: CD-ROM
    Category: Games
    Region: Japan
    Languages: not checked
    Disc Serial: ALS-0016

    Ringcode Information:
        Mastering Code (laser branded/etched): ALS-0016 1
        Mastering SID Code: IFPI L152
        Data-Side Mould SID Code: IFPI 2858
        Toolstamp or Mastering Code (engraved/stamped): A2
    Barcode: T4988650 60009 1
    Error Count: 0
    Comments:   FMTowns, Windows, PC-9801
    Contents:

Version and Editions:
    Version:
    Edition/Release: Original (VERIFY THIS)

Extras:
    Primary Volume Descriptor (PVD):

0320 : 20 20 20 20 20 20 20 20  20 20 20 20 20 30 30 30                000
0330 : 30 30 30 30 30 30 30 30  30 30 30 30 30 00 30 30   0000000000000.00
0340 : 30 30 30 30 30 30 30 30  30 30 30 30 30 30 00 30   00000000000000.0
0350 : 30 30 30 30 30 30 30 30  30 30 30 30 30 30 30 00   000000000000000.
0360 : 30 30 30 30 30 30 30 30  30 30 30 30 30 30 30 30   0000000000000000
0370 : 00 01 00 00 00 00 00 00  00 00 00 00 00 00 00 00   ................

Tracks and Write Offsets:
    DAT:

<rom name="disc (Track 01).bin" size="12884256" crc="a3e53e35" md5="aede7c48e74c93ada5b8ef0e6171ce76" sha1="7eb1262d65a4167793d2de9ad4e0c66f78689be6" />
<rom name="disc (Track 02).bin" size="52651872" crc="50d50a32" md5="d965945dbcff597b070b067b6f5b8a03" sha1="f4602b8caaf4417b949723cbdba1bc285953bb3a" />
<rom name="disc (Track 03).bin" size="36098496" crc="0ab92255" md5="68e80f43baa25928c9a15141a5b070a2" sha1="25ecd487ce12d3d2e0cb9fb3b71f2dd7438cfe69" />
<rom name="disc (Track 04).bin" size="53705568" crc="f6468ecd" md5="c935d47f5605102d89a3eab32494c2ff" sha1="4e83249635bb528a243b174dc1ecf03e7f78ce19" />
<rom name="disc (Track 05).bin" size="25119360" crc="679ae524" md5="15c19c151e0b14eb67b6d3f072322023" sha1="29daebda64558bef259083f64eab3d61af24d4ff" />
<rom name="disc (Track 06).bin" size="25547424" crc="7a05b0b9" md5="9c15fb962a35e794aad8271be46a586c" sha1="4d8249a32d300b3a7bdeb1ad79875b814c5645be" />
<rom name="disc (Track 07).bin" size="23211888" crc="999cb01f" md5="cf379ed7a8b24ddeabef6552630ffb69" sha1="3b226802ad656424c8d7572d1ba5632de53ba97e" />
<rom name="disc (Track 08).bin" size="23865744" crc="b73fc326" md5="3939f79243183e647dd8650b9fb3c185" sha1="c456ead732745498ab33a9edffa49066b96f4ce1" />
<rom name="disc (Track 09).bin" size="28120512" crc="26be37e8" md5="5a1b81afb70b25161a4e51bb2c5f53d7" sha1="80180c240bf78653ac0e83ed71485693757d70fd" />
<rom name="disc (Track 10).bin" size="50088192" crc="17d8d515" md5="820375b361e8e372366880bc15c7efd1" sha1="2eec96a38b28e4e4fd71f7dfee07f05e9d865328" />
<rom name="disc (Track 11).bin" size="55740048" crc="1bde5feb" md5="b8c37983caebc203a308dee0f91c8f9d" sha1="8fe008b8b3737179810b3468651ddcc563865692" />
<rom name="disc (Track 12).bin" size="57896832" crc="8e861b5e" md5="c828a983529d1ceeaa8dc3e6a562cdfb" sha1="2d3885e5971a34d94638c644586211a7cfc9e5e1" />
<rom name="disc (Track 13).bin" size="53604432" crc="bb454f8e" md5="a0a450e31de1b3b7e207080c71501fe8" sha1="86d94fffdcf9a580f564eb5ca3194ec83b624b84" />
<rom name="disc (Track 14).bin" size="30717120" crc="411ea826" md5="13a66b96f9232ef9b32aba5321622693" sha1="5b34b50774a8b266ab6fcddde35cba114516ea21" />
<rom name="disc (Track 15).bin" size="23251872" crc="f3a903ae" md5="6120eeaae5c56b01249091379b7dd8c6" sha1="440c10b5dab11a9ff7d0c9cc84363be628c129dc" />
<rom name="disc (Track 16).bin" size="24855936" crc="4a476e3d" md5="9d85e36df44efc4852385935ff94c448" sha1="d70ddd1d643a8ea6753eb15438e419273ccc0032" />
<rom name="disc (Track 17).bin" size="26812800" crc="9abb8372" md5="15404c0423b9247ec8bd627323258778" sha1="c13cca4118d2f90b70698c5121148106a11ffe5f" />
<rom name="disc (Track 18).bin" size="23959824" crc="27c8bcb2" md5="dae8a86f65efb92d5d16c0e026b0ea60" sha1="3fa481216ea3153dc37ba182c626d79afd11e98d" />
<rom name="disc (Track 19).bin" size="49711872" crc="74a00e38" md5="b46f05bae8d71512e64e2c4dd33b89d2" sha1="e8ac78919ba878b3e0ce406bcccb85f40bd911ab" />
<rom name="disc (Track 20).bin" size="54260640" crc="c02708d3" md5="3536f8582ba4febafc454ced02db4e92" sha1="4bbb7311eda9f03d064c80884e3eb6265ed07113" />

    Cuesheet:

FILE "disc (Track 01).bin" BINARY
  TRACK 01 MODE1/2352
    INDEX 01 00:00:00
FILE "disc (Track 02).bin" BINARY
  TRACK 02 AUDIO
    INDEX 00 00:00:00
    INDEX 01 00:02:00
FILE "disc (Track 03).bin" BINARY
  TRACK 03 AUDIO
    INDEX 01 00:00:00
FILE "disc (Track 04).bin" BINARY
  TRACK 04 AUDIO
    INDEX 01 00:00:00
FILE "disc (Track 05).bin" BINARY
  TRACK 05 AUDIO
    INDEX 01 00:00:00
FILE "disc (Track 06).bin" BINARY
  TRACK 06 AUDIO
    INDEX 01 00:00:00
FILE "disc (Track 07).bin" BINARY
  TRACK 07 AUDIO
    INDEX 01 00:00:00
FILE "disc (Track 08).bin" BINARY
  TRACK 08 AUDIO
    INDEX 01 00:00:00
FILE "disc (Track 09).bin" BINARY
  TRACK 09 AUDIO
    INDEX 01 00:00:00
FILE "disc (Track 10).bin" BINARY
  TRACK 10 AUDIO
    INDEX 01 00:00:00
FILE "disc (Track 11).bin" BINARY
  TRACK 11 AUDIO
    INDEX 01 00:00:00
FILE "disc (Track 12).bin" BINARY
  TRACK 12 AUDIO
    INDEX 01 00:00:00
FILE "disc (Track 13).bin" BINARY
  TRACK 13 AUDIO
    INDEX 01 00:00:00
FILE "disc (Track 14).bin" BINARY
  TRACK 14 AUDIO
    INDEX 01 00:00:00
FILE "disc (Track 15).bin" BINARY
  TRACK 15 AUDIO
    INDEX 01 00:00:00
FILE "disc (Track 16).bin" BINARY
  TRACK 16 AUDIO
    INDEX 01 00:00:00
FILE "disc (Track 17).bin" BINARY
  TRACK 17 AUDIO
    INDEX 01 00:00:00
FILE "disc (Track 18).bin" BINARY
  TRACK 18 AUDIO
    INDEX 01 00:00:00
FILE "disc (Track 19).bin" BINARY
  TRACK 19 AUDIO
    INDEX 01 00:00:00
FILE "disc (Track 20).bin" BINARY
  TRACK 20 AUDIO
    INDEX 01 00:00:00

    Write Offset: 2

Common Disc Info:
    Title: Gakuen King: Hidehiko Gakkou o Tsukuru
    Foreign Title (Non-latin): 学園KING~日出彦学校をつくる~
    System: Fujitsu FM Towns Marty
    Media Type: CD-ROM
    Category: Games
    Region: Japan
    Languages: not checked
    Disc Serial: ALS-0021

    Ringcode Information:
        Mastering Code (laser branded/etched): ALS-0021<tab>1
        Mastering SID Code: IFPI L275
        Data-Side Mould SID Code: IFPI 45F5
    Barcode: T4988650 60010 7
    Error Count: 0
    Comments: FMTowns and PC-9801
    Contents:

Version and Editions:
    Version:
    Edition/Release: Original (VERIFY THIS)

Extras:
    Primary Volume Descriptor (PVD):

0320 : 20 20 20 20 20 20 20 20  20 20 20 20 20 30 30 30                000
0330 : 30 30 30 30 30 30 30 30  30 30 30 30 30 00 30 30   0000000000000.00
0340 : 30 30 30 30 30 30 30 30  30 30 30 30 30 30 00 30   00000000000000.0
0350 : 30 30 30 30 30 30 30 30  30 30 30 30 30 30 30 00   000000000000000.
0360 : 30 30 30 30 30 30 30 30  30 30 30 30 30 30 30 30   0000000000000000
0370 : 00 01 00 00 00 00 00 00  00 00 00 00 00 00 00 00   ................

Tracks and Write Offsets:
    DAT:

<rom name="GAKUEN_KING (Track 01).bin" size="20615280" crc="4a917c54" md5="d7d6c2f61848cf9a4ba665480a39c18f" sha1="7f72e308a33741570c553de172d82cb1631ee9ea" />
<rom name="GAKUEN_KING (Track 02).bin" size="23658768" crc="5de7789d" md5="99a2ae74e66db6eecc3f50f97da3830d" sha1="ac429f2e057dac46bb11add18851e66ca55a8e1f" />
<rom name="GAKUEN_KING (Track 03).bin" size="18267984" crc="32fda72e" md5="e7b26b6ca4514f8ea30387807370e2d4" sha1="1cb1710a1287b00f9eaac6be6b19cab0bf526079" />
<rom name="GAKUEN_KING (Track 04).bin" size="19008864" crc="b9cd35f2" md5="975e87ff3b948ce22363d53b953f9e6f" sha1="f41bf7ff390a786bfd9888d5f15cf1ad83279f49" />
<rom name="GAKUEN_KING (Track 05).bin" size="22706208" crc="f55c3978" md5="ce29badb659c20e5f014fc7695112bc9" sha1="1a640811d2b8b29c39d6a280b6b6d50604915903" />
<rom name="GAKUEN_KING (Track 06).bin" size="16466352" crc="7ace07b8" md5="d029ff58230a9068e97ab81ce17d7902" sha1="b999f7d53e682aae607c8aad92ae0afdf513b60b" />
<rom name="GAKUEN_KING (Track 07).bin" size="22753248" crc="920a9dca" md5="ea6f403a5aaa16a05c7632d7a1900ab8" sha1="f7d50b880cd7287dedf486beee1cb0d85d088e01" />
<rom name="GAKUEN_KING (Track 08).bin" size="16894416" crc="9b1719ef" md5="0ffa1a0f20efe0d33d2344ba894f14b6" sha1="17f8f02d34e3a08952d83c64a5b30b5f5d5a6eac" />
<rom name="GAKUEN_KING (Track 09).bin" size="19022976" crc="fee9039d" md5="0b0d6eb91a270324adf4ee156461fdf4" sha1="35889c50e98586e78c4d5e39f2fbbbc646df09a8" />
<rom name="GAKUEN_KING (Track 10).bin" size="25966080" crc="1ecd6d45" md5="3b137a6ae415f2c182534ae16ceebb17" sha1="fdcf5e1c9257db8e5a82b3f2e05a8ff32f1f8e74" />
<rom name="GAKUEN_KING (Track 11).bin" size="19079424" crc="4ea5da1d" md5="3d78e8718ea707fde69f26c8c5fd37fe" sha1="8d17136eae87615c8e228198aef85aa29d83551d" />
<rom name="GAKUEN_KING (Track 12).bin" size="21396144" crc="581837a2" md5="ecdfe21207db3997c8427bfe0d04195e" sha1="b778524127c025d96628294189e114ec4c5bb302" />
<rom name="GAKUEN_KING (Track 13).bin" size="23635248" crc="c89715ad" md5="46dbd7f6210b6416674948367631d296" sha1="7f14732c0cf3bb25757bd3522f28caa64eb38dfe" />
<rom name="GAKUEN_KING (Track 14).bin" size="26356512" crc="6f2dc9a6" md5="3cabcf7e8da8883befe7a53a4f31a1e0" sha1="e85d4e719608640ae2cb771ade58ccbe2e0d5913" />
<rom name="GAKUEN_KING (Track 15).bin" size="19749744" crc="ba4bf0f6" md5="f031a268fb5394298515cd9a88a044ce" sha1="f43c992e2ca48d7bd70a2c1d50839beb6eb9c555" />
<rom name="GAKUEN_KING (Track 16).bin" size="27706560" crc="a86e7514" md5="e6f8a8bffefe50dc909adf70530a08c9" sha1="5e1361ac845f918f75cabf9a196de96e6c3bc44b" />
<rom name="GAKUEN_KING (Track 17).bin" size="21716016" crc="a2368588" md5="80aa9f1a3b1dc5467fad9d1b1b2170e7" sha1="effe4e1e606a220da33785e028b794cece990f64" />
<rom name="GAKUEN_KING (Track 18).bin" size="23115456" crc="efe8938b" md5="44a8a48a3eaa6322978ac280b8f9d9e8" sha1="7163b59e095ad508b13f6465c62e3c41a71b0238" />
<rom name="GAKUEN_KING (Track 19).bin" size="24394944" crc="2014efdd" md5="a178117147a2a7197f871b56d2d65122" sha1="78f3bb3c2574305906ccbb88a71b3c48e9b8b4b7" />
<rom name="GAKUEN_KING (Track 20).bin" size="15814848" crc="31c6d436" md5="8a4061556c1468a2894e29ed23c25fb9" sha1="90c2aecedb8a7d6dc06803ecd9283abbfa3ab68f" />
<rom name="GAKUEN_KING (Track 21).bin" size="23976288" crc="16576cd0" md5="5615100824f8a9eb9d4deb6f483bbeab" sha1="8162a68df13d0e5646eb059075b950c7a26fa38f" />
<rom name="GAKUEN_KING (Track 22).bin" size="17162544" crc="35973ce7" md5="fb785548fdfe6659640743d087acdfe9" sha1="c4ee1060444cf5bfa0c690df64ef9b51d97c07e8" />
<rom name="GAKUEN_KING (Track 23).bin" size="17254272" crc="550873c8" md5="a3bd12fa63e6b850013c3fb0d7fca94b" sha1="0cc62599f75af7fe35e3db42225c99c83df5660f" />
<rom name="GAKUEN_KING (Track 24).bin" size="21433776" crc="bbad6280" md5="22732ab46d7d9e2f5c460fa9cc966659" sha1="16a7ca3827e9da3d5948165a190b9805b95e6a3a" />
<rom name="GAKUEN_KING (Track 25).bin" size="19133520" crc="592c6862" md5="e80d04458e8e443fa8dc193f16f12e7f" sha1="297fa82be9d4053cc627466dc1a661f5bd549c0c" />
<rom name="GAKUEN_KING (Track 26).bin" size="17150784" crc="4caf8cd2" md5="1b83fdf61ca93fe6bcbad88913de847f" sha1="83c773be2f381b7d753f62a8d4749e30ab1f25c8" />
<rom name="GAKUEN_KING (Track 27).bin" size="15803088" crc="e97deee4" md5="50573c3cb5b73ad0ff6e5a9b4f304bbe" sha1="75f0f52c192ffb4d7f0c3ee8f9cb4d2d6f5acfb1" />
<rom name="GAKUEN_KING (Track 28).bin" size="19100592" crc="85222329" md5="e33d4699b402a19f70b63ef8f4cdcebf" sha1="b88f6d394313fc6d253bf553363d859d93154c96" />
<rom name="GAKUEN_KING (Track 29).bin" size="25352208" crc="a18ae30e" md5="9717103a08f0ff25c8a41b50025864ff" sha1="ff2b63273f3918b166fad41c944c9b37c0977d79" />
<rom name="GAKUEN_KING (Track 30).bin" size="19288752" crc="018db4fe" md5="e9b51069650bd54ee9833eaedcbdac5b" sha1="b907ce714bbbc827caf39a0ea55494c881856763" />

    Cuesheet:

FILE "GAKUEN_KING (Track 01).bin" BINARY
  TRACK 01 MODE1/2352
    FLAGS DCP
    INDEX 01 00:00:00
FILE "GAKUEN_KING (Track 02).bin" BINARY
  TRACK 02 AUDIO
    INDEX 00 00:00:00
    INDEX 01 00:02:00
FILE "GAKUEN_KING (Track 03).bin" BINARY
  TRACK 03 AUDIO
    INDEX 01 00:00:00
FILE "GAKUEN_KING (Track 04).bin" BINARY
  TRACK 04 AUDIO
    INDEX 01 00:00:00
FILE "GAKUEN_KING (Track 05).bin" BINARY
  TRACK 05 AUDIO
    INDEX 01 00:00:00
FILE "GAKUEN_KING (Track 06).bin" BINARY
  TRACK 06 AUDIO
    INDEX 01 00:00:00
FILE "GAKUEN_KING (Track 07).bin" BINARY
  TRACK 07 AUDIO
    INDEX 01 00:00:00
FILE "GAKUEN_KING (Track 08).bin" BINARY
  TRACK 08 AUDIO
    INDEX 01 00:00:00
FILE "GAKUEN_KING (Track 09).bin" BINARY
  TRACK 09 AUDIO
    INDEX 01 00:00:00
FILE "GAKUEN_KING (Track 10).bin" BINARY
  TRACK 10 AUDIO
    INDEX 01 00:00:00
FILE "GAKUEN_KING (Track 11).bin" BINARY
  TRACK 11 AUDIO
    INDEX 01 00:00:00
FILE "GAKUEN_KING (Track 12).bin" BINARY
  TRACK 12 AUDIO
    INDEX 01 00:00:00
FILE "GAKUEN_KING (Track 13).bin" BINARY
  TRACK 13 AUDIO
    INDEX 01 00:00:00
FILE "GAKUEN_KING (Track 14).bin" BINARY
  TRACK 14 AUDIO
    INDEX 01 00:00:00
FILE "GAKUEN_KING (Track 15).bin" BINARY
  TRACK 15 AUDIO
    INDEX 01 00:00:00
FILE "GAKUEN_KING (Track 16).bin" BINARY
  TRACK 16 AUDIO
    INDEX 01 00:00:00
FILE "GAKUEN_KING (Track 17).bin" BINARY
  TRACK 17 AUDIO
    INDEX 01 00:00:00
FILE "GAKUEN_KING (Track 18).bin" BINARY
  TRACK 18 AUDIO
    INDEX 01 00:00:00
FILE "GAKUEN_KING (Track 19).bin" BINARY
  TRACK 19 AUDIO
    INDEX 01 00:00:00
FILE "GAKUEN_KING (Track 20).bin" BINARY
  TRACK 20 AUDIO
    INDEX 01 00:00:00
FILE "GAKUEN_KING (Track 21).bin" BINARY
  TRACK 21 AUDIO
    INDEX 01 00:00:00
FILE "GAKUEN_KING (Track 22).bin" BINARY
  TRACK 22 AUDIO
    INDEX 01 00:00:00
FILE "GAKUEN_KING (Track 23).bin" BINARY
  TRACK 23 AUDIO
    INDEX 01 00:00:00
FILE "GAKUEN_KING (Track 24).bin" BINARY
  TRACK 24 AUDIO
    INDEX 01 00:00:00
FILE "GAKUEN_KING (Track 25).bin" BINARY
  TRACK 25 AUDIO
    INDEX 01 00:00:00
FILE "GAKUEN_KING (Track 26).bin" BINARY
  TRACK 26 AUDIO
    INDEX 01 00:00:00
FILE "GAKUEN_KING (Track 27).bin" BINARY
  TRACK 27 AUDIO
    INDEX 01 00:00:00
FILE "GAKUEN_KING (Track 28).bin" BINARY
  TRACK 28 AUDIO
    INDEX 01 00:00:00
FILE "GAKUEN_KING (Track 29).bin" BINARY
  TRACK 29 AUDIO
    INDEX 01 00:00:00
FILE "GAKUEN_KING (Track 30).bin" BINARY
  TRACK 30 AUDIO
    INDEX 01 00:00:00

    Write Offset: 2

Logs:  https://cdn.discordapp.com/attachments/ … N_KING.rar

8

(0 replies, posted in New Dumps)

Common Disc Info:
    Title: D.P.S. Zenbu
    Foreign Title (Non-latin): DPS全部
    Disc Number / Letter:
    Disc Title:
    System: Fujitsu FM Towns Marty
    Media Type: CD-ROM
    Category: Games
    Region: Japan
    Languages: not checked
    Disc Serial: ALS-0014

    Ringcode Information:
        Mastering Code (laser branded/etched): ALS-0014<tab>1
        Mastering SID Code: IFPI L276
        Data-Side Mould SID Code: IFPI 4500

    Barcode: T4988650 60006 0
    Error Count: 0
    Comments: Windows, PC9801, FMTowns Disc.
D.P.S = Dream Program System
    Contents:

Version and Editions:
    Version: (REQUIRED, IF EXISTS)
    Edition/Release: Original (VERIFY THIS)

Extras:
    Primary Volume Descriptor (PVD):

0320 : 20 20 20 20 20 20 20 20  20 20 20 20 20 30 30 30                000
0330 : 30 30 30 30 30 30 30 30  30 30 30 30 30 00 30 30   0000000000000.00
0340 : 30 30 30 30 30 30 30 30  30 30 30 30 30 30 00 30   00000000000000.0
0350 : 30 30 30 30 30 30 30 30  30 30 30 30 30 30 30 00   000000000000000.
0360 : 30 30 30 30 30 30 30 30  30 30 30 30 30 30 30 30   0000000000000000
0370 : 00 01 00 00 00 00 00 00  00 00 00 00 00 00 00 00   ................

Tracks and Write Offsets:
    DAT:

<rom name="track (Track 1).bin" size="32953872" crc="b827f2cc" md5="cfa894e3d170cd74af1907970ea2dca4" sha1="bf92e0a2bb5d9d5a54302919d1c3230c88fd8e50" />
<rom name="track (Track 2).bin" size="44699760" crc="3ed94c06" md5="a70a5013f30c79c1f2d63ef3a33875c1" sha1="c6c5642052db1d9653e1b20b735c98c22d034bd4" />
<rom name="track (Track 3).bin" size="53009376" crc="1419bdc7" md5="b2c897c0dec819ec5938281404c5092c" sha1="7a06b4bc83f4ec337c690f91eda84383bd471657" />
<rom name="track (Track 4).bin" size="63892080" crc="dc3feb9d" md5="174f3be8e13eaf3a140eadc59d14f3f2" sha1="9d1166a4c4183f8d2693e438430430fb69ebdfb1" />
<rom name="track (Track 5).bin" size="15680784" crc="20c74ae0" md5="41f3746c514c1ffbfdaf24f83017238a" sha1="37193ac15f98ace64577bce5479891ade350a4bb" />
<rom name="track (Track 6).bin" size="54368832" crc="36b071a3" md5="29f29ad45e9dabb2867f69d5ca2d7d57" sha1="cb92ffca64142e3fb21e34017f99f47afcdc0acf" />

    Cuesheet:

FILE "track (Track 1).bin" BINARY
  TRACK 01 MODE1/2352
    INDEX 01 00:00:00
FILE "track (Track 2).bin" BINARY
  TRACK 02 AUDIO
    INDEX 00 00:00:00
    INDEX 01 00:02:00
FILE "track (Track 3).bin" BINARY
  TRACK 03 AUDIO
    INDEX 01 00:00:00
FILE "track (Track 4).bin" BINARY
  TRACK 04 AUDIO
    INDEX 01 00:00:00
FILE "track (Track 5).bin" BINARY
  TRACK 05 AUDIO
    INDEX 01 00:00:00
FILE "track (Track 6).bin" BINARY
  TRACK 06 AUDIO
    INDEX 01 00:00:00

    Write Offset: 2

Logs:  https://cdn.discordapp.com/attachments/ … -Zenbu.rar

Common Disc Info:
    Title: Only You: seikimatsu no Jurietto-tachi
    Foreign Title (Non-latin): Only You ~世紀末のジュリエットたち~
    System: Fujitsu FM Towns Marty
    Media Type: CD-ROM
    Category: Games
    Region: Japan
    Languages: not checked
    Disc Serial: ACD-W95B

    Ringcode Information:
        Mastering Code (laser branded/etched): ACD-W95B<tab>1
        Mastering SID Code: IFPI L276
        Data-Side Mould SID Code: IFPI 45GB
        Additional Mould: S M J
    Barcode:
    Error Count: 0
    Comments:    Windows, FMTowns, PC9801 (I think)
    Contents:

Version and Editions:
    Version:
    Edition/Release: shokai genteiban

Extras:
    Primary Volume Descriptor (PVD):

0320 : 20 20 20 20 20 20 20 20  20 20 20 20 20 30 30 30                000
0330 : 30 30 30 30 30 30 30 30  30 30 30 30 30 00 30 30   0000000000000.00
0340 : 30 30 30 30 30 30 30 30  30 30 30 30 30 30 00 30   00000000000000.0
0350 : 30 30 30 30 30 30 30 30  30 30 30 30 30 30 30 00   000000000000000.
0360 : 30 30 30 30 30 30 30 30  30 30 30 30 30 30 30 30   0000000000000000
0370 : 00 01 00 00 00 00 00 00  00 00 00 00 00 00 00 00   ................

Tracks and Write Offsets:
    DAT:

<rom name="only-you (Track 01).bin" size="15751344" crc="e727aaec" md5="4904c02d0cf64f143df46c5b5e580af0" sha1="98f182d7da10676895dbc0a132c88d59d4734264" />
<rom name="only-you (Track 02).bin" size="10586352" crc="db03bffe" md5="11d8988453116e60cd950e1a574dc3d1" sha1="64d37af977e04356c82935d005fb2bbbe4420b34" />
<rom name="only-you (Track 03).bin" size="6705552" crc="a406d037" md5="8b93e0a353a47592456b5fec6e5e4dd7" sha1="626170a014e11b1981727f1289e4eb900375aa9b" />
<rom name="only-you (Track 04).bin" size="11821152" crc="431388fa" md5="5e4103b47afdf59b39a0ea1490c67e3f" sha1="b0080a3a12cc14a602459d3d360f26a159e343cb" />
<rom name="only-you (Track 05).bin" size="18171552" crc="f2b70cc9" md5="80219c45760022e6b62bcd9b2b8474fa" sha1="b0e5e048353c74aa21e7b88863ebe2a1e8d448c6" />
<rom name="only-you (Track 06).bin" size="17113152" crc="7b0140d7" md5="0870e3d535b30560714404e62975a056" sha1="ee9232419df72227044521d5a19ea3e26b428de8" />
<rom name="only-you (Track 07).bin" size="15172752" crc="7586b7a4" md5="aabb0db94d69af3e41dda44f969bbc46" sha1="4d8d131f2742bfea7064f35e2fd41c4317232b6b" />
<rom name="only-you (Track 08).bin" size="14996352" crc="65c51290" md5="e522d31d599311f2475ba56db6406921" sha1="d4b37e41286c6bcb4e2914222f780bef6a3b7c5f" />
<rom name="only-you (Track 09).bin" size="14996352" crc="aff3d675" md5="c0a913c91e424b3cdc4189a90200daeb" sha1="324f46a504ab4dc2b7453bfdc1a4d009be8c66ba" />
<rom name="only-you (Track 10).bin" size="18350304" crc="88973e03" md5="4283fcd12f17e4746442d776f9af6cf0" sha1="b835f682ec19382caa939ae5a8830d6f88a9675d" />
<rom name="only-you (Track 11).bin" size="21699552" crc="34a9e1b5" md5="f03f47d1a997670e72449a3ad07784c2" sha1="314c5a74eca7398f1b7090e09ab49fcac008afbd" />
<rom name="only-you (Track 12).bin" size="14290752" crc="837b2117" md5="0bb50b64fe3e69faa33b43e3174ffc12" sha1="160164c1604a22f978cb3702642ea40ad9aa7d40" />
<rom name="only-you (Track 13).bin" size="14467152" crc="f4d42e09" md5="55d5e83067eb0be0e8b4066c86ca646a" sha1="c1b20be6370185eb33943fe06c617dcdb549f500" />
<rom name="only-you (Track 14).bin" size="21346752" crc="5882eaef" md5="762c4be30ded781aa8f72320700b7ef6" sha1="0249cdfd839968754129bdf49fc8e7bb277088ba" />
<rom name="only-you (Track 15).bin" size="13585152" crc="61cb0ea0" md5="6665888c1edf10d0f1091b33c487645f" sha1="2ea25c5b931f79bef12d435904632fdb9344cf85" />
<rom name="only-you (Track 16).bin" size="17390688" crc="61328b12" md5="313eb30c9de771a2fb98dfc0fb5f7d32" sha1="379f949f925f085d20715735af976e3c8e4a907d" />
<rom name="only-you (Track 17).bin" size="14643552" crc="3e54293b" md5="207965c4648be2b8908b0b36139bc1da" sha1="3381f919947d492bd6cc54ebad463e66950981a0" />
<rom name="only-you (Track 18).bin" size="20464752" crc="d442883b" md5="1cb90559280cf73347af1faf856304cc" sha1="0a22a53a4d4716851cd7d335489aa55a7ae04636" />
<rom name="only-you (Track 19).bin" size="23816352" crc="7827a30a" md5="e9493ad450a3570dc95e916b603fb201" sha1="3cc41fba0b69ad18b872387c33b4bc42e91b9bdd" />
<rom name="only-you (Track 20).bin" size="17642352" crc="4da8cd68" md5="8d59d02fe4a7b36f86be74860c316651" sha1="2088b827e51aedd716dbbb58069b4ac6b9518dd2" />
<rom name="only-you (Track 21).bin" size="14996352" crc="17266c8a" md5="8b518433a7704ffa44a505368a5b81ac" sha1="f514547bd1b9ffe1782a99fa8fbcd81876d5645c" />
<rom name="only-you (Track 22).bin" size="14114352" crc="054143e0" md5="478c01e8d4b7fcc7cb0c2beaa6ef552d" sha1="544a30742d52cb9c7be987f4b2f968a1e2a02ce1" />
<rom name="only-you (Track 23).bin" size="30166752" crc="1d9601d0" md5="21d08c7cd979f17d0a75db5bc1f07e39" sha1="529b5e488f6f839d699e1f9b0b3b467b8dcccaf4" />
<rom name="only-you (Track 24).bin" size="29637552" crc="fb798eaa" md5="79dcb968d39cf2e503a82a066aec9437" sha1="5a83a4b1a928ff4a011cfa02d98f1d433817999c" />
<rom name="only-you (Track 25).bin" size="23289504" crc="472683e0" md5="576a6d1bfaf96fdab84b59be13fd160b" sha1="34fa60d4347ad2d7a7459221ec687a050b2273b9" />
<rom name="only-you (Track 26).bin" size="25403952" crc="d1901ed9" md5="06b2f8025dd0f5afbd98ebd874f44ccd" sha1="58e353942f454ce9b50893c65db88af9ccb3a291" />
<rom name="only-you (Track 27).bin" size="33871152" crc="b4400cc1" md5="cbb3780bacaba513896f2052dea2ee5e" sha1="59c0a8ae33de0b0c072fad2846b326e810dba426" />
<rom name="only-you (Track 28).bin" size="24521952" crc="a15b8b3a" md5="4e5a2293d6ccd32803c5b0b709e11b0b" sha1="a5f2f7e59539be45089656cd5c2857569f6ed60c" />
<rom name="only-you (Track 29).bin" size="34753152" crc="6fb87daf" md5="03a1e1ae4730f7ae3b2f8fffbce697fb" sha1="c91d51fa8478063ba3c1080c22b70627e9b4de68" />
<rom name="only-you (Track 30).bin" size="22581552" crc="e01d67c4" md5="8d4cf0a668390912aefa319c7e692260" sha1="895626bdf8d2477f4d2ad74a8ee23e1dee61281c" />
<rom name="only-you (Track 31).bin" size="16407552" crc="75f20bcb" md5="06b6da791d422777b042805543a9410f" sha1="415e4962aac6573dcb894c2d4947891cf208b1da" />
<rom name="only-you (Track 32).bin" size="2119152" crc="9972c88d" md5="c2c8021d7d2ad448417d96730bcd4b62" sha1="7c518e0c660d0dd42e4f20eb4ce44ad1172793dd" />
<rom name="only-you (Track 33).bin" size="2119152" crc="65526145" md5="ecb389396f4da5b869ade0e7b716b107" sha1="a90f2451ca9857d7816d32a427da8261c3bcf46e" />
<rom name="only-you (Track 34).bin" size="33149088" crc="57aa691b" md5="d761690e48212fdc5cc97f70506744c9" sha1="7a1ebdf1c54895fef8e65427e65adb61baa485e5" />
<rom name="only-you (Track 35).bin" size="24345552" crc="2b0a9b0c" md5="b89a2ea130ea63d117fe19cb7d36108b" sha1="a9bba429beb3c47cc63fc177daebe2781509c7e1" />
<rom name="only-you (Track 36).bin" size="41103552" crc="f5f71313" md5="013d2e70bb8e6af3f122b52a6de06e17" sha1="e2c9a944b85e3d7c1887b411226f137bb203c9f1" />
<rom name="only-you (Track 37).bin" size="34047552" crc="6455882f" md5="a27c46a8634eec73ba7b9733ad47397c" sha1="19ae6bd8f5ddf03ca9f5c6b33db48583c0d797aa" />
<rom name="only-you (Track 38).bin" size="23639952" crc="3633f5e5" md5="f855ae920d649c2aecd88d8b8d685794" sha1="1b5a135fe2c16299f1866d9fa0fc9b99fbd38545" />

    Cuesheet:

FILE "only-you (Track 01).bin" BINARY
  TRACK 01 MODE1/2352
    INDEX 01 00:00:00
FILE "only-you (Track 02).bin" BINARY
  TRACK 02 AUDIO
    INDEX 00 00:00:00
    INDEX 01 00:02:00
FILE "only-you (Track 03).bin" BINARY
  TRACK 03 AUDIO
    INDEX 01 00:00:00
FILE "only-you (Track 04).bin" BINARY
  TRACK 04 AUDIO
    INDEX 01 00:00:00
FILE "only-you (Track 05).bin" BINARY
  TRACK 05 AUDIO
    INDEX 01 00:00:00
FILE "only-you (Track 06).bin" BINARY
  TRACK 06 AUDIO
    INDEX 01 00:00:00
FILE "only-you (Track 07).bin" BINARY
  TRACK 07 AUDIO
    INDEX 01 00:00:00
FILE "only-you (Track 08).bin" BINARY
  TRACK 08 AUDIO
    INDEX 01 00:00:00
FILE "only-you (Track 09).bin" BINARY
  TRACK 09 AUDIO
    INDEX 01 00:00:00
FILE "only-you (Track 10).bin" BINARY
  TRACK 10 AUDIO
    INDEX 01 00:00:00
FILE "only-you (Track 11).bin" BINARY
  TRACK 11 AUDIO
    INDEX 01 00:00:00
FILE "only-you (Track 12).bin" BINARY
  TRACK 12 AUDIO
    INDEX 01 00:00:00
FILE "only-you (Track 13).bin" BINARY
  TRACK 13 AUDIO
    INDEX 01 00:00:00
FILE "only-you (Track 14).bin" BINARY
  TRACK 14 AUDIO
    INDEX 01 00:00:00
FILE "only-you (Track 15).bin" BINARY
  TRACK 15 AUDIO
    INDEX 01 00:00:00
FILE "only-you (Track 16).bin" BINARY
  TRACK 16 AUDIO
    INDEX 01 00:00:00
FILE "only-you (Track 17).bin" BINARY
  TRACK 17 AUDIO
    INDEX 01 00:00:00
FILE "only-you (Track 18).bin" BINARY
  TRACK 18 AUDIO
    INDEX 01 00:00:00
FILE "only-you (Track 19).bin" BINARY
  TRACK 19 AUDIO
    INDEX 01 00:00:00
FILE "only-you (Track 20).bin" BINARY
  TRACK 20 AUDIO
    INDEX 01 00:00:00
FILE "only-you (Track 21).bin" BINARY
  TRACK 21 AUDIO
    INDEX 01 00:00:00
FILE "only-you (Track 22).bin" BINARY
  TRACK 22 AUDIO
    INDEX 01 00:00:00
FILE "only-you (Track 23).bin" BINARY
  TRACK 23 AUDIO
    INDEX 01 00:00:00
FILE "only-you (Track 24).bin" BINARY
  TRACK 24 AUDIO
    INDEX 01 00:00:00
FILE "only-you (Track 25).bin" BINARY
  TRACK 25 AUDIO
    INDEX 01 00:00:00
FILE "only-you (Track 26).bin" BINARY
  TRACK 26 AUDIO
    INDEX 01 00:00:00
FILE "only-you (Track 27).bin" BINARY
  TRACK 27 AUDIO
    INDEX 01 00:00:00
FILE "only-you (Track 28).bin" BINARY
  TRACK 28 AUDIO
    INDEX 01 00:00:00
FILE "only-you (Track 29).bin" BINARY
  TRACK 29 AUDIO
    INDEX 01 00:00:00
FILE "only-you (Track 30).bin" BINARY
  TRACK 30 AUDIO
    INDEX 01 00:00:00
FILE "only-you (Track 31).bin" BINARY
  TRACK 31 AUDIO
    INDEX 01 00:00:00
FILE "only-you (Track 32).bin" BINARY
  TRACK 32 AUDIO
    INDEX 01 00:00:00
FILE "only-you (Track 33).bin" BINARY
  TRACK 33 AUDIO
    INDEX 01 00:00:00
FILE "only-you (Track 34).bin" BINARY
  TRACK 34 AUDIO
    INDEX 01 00:00:00
FILE "only-you (Track 35).bin" BINARY
  TRACK 35 AUDIO
    INDEX 01 00:00:00
FILE "only-you (Track 36).bin" BINARY
  TRACK 36 AUDIO
    INDEX 01 00:00:00
FILE "only-you (Track 37).bin" BINARY
  TRACK 37 AUDIO
    INDEX 01 00:00:00
FILE "only-you (Track 38).bin" BINARY
  TRACK 38 AUDIO
    INDEX 01 00:00:00

    Write Offset: 2

Logs:  https://cdn.discordapp.com/attachments/ … ly-You.rar

Common Disc Info:
    Title: Custom Mate & Denwa no Bell ga…
    Foreign Title (Non-latin): カスタムメイト&「電話のベルが...」
    System: Fujitsu FM Towns Marty
    Media Type: CD-ROM
    Category: Games
    Region: Japan
    Languages: not checked
    Disc Serial: IDES025

    Ringcode Information:
        Mastering Code (laser branded/etched): IDES-025<tab>C

    Barcode:
    Error Count: 75
    Comments:   Last 75 sectors of the data track are erroneous
    Contents:

Version and Editions:
    Version:
    Edition/Release: Original (VERIFY THIS)

Extras:
    Primary Volume Descriptor (PVD):

0320 : 20 20 20 20 20 20 20 20  20 20 20 20 20 31 39 39                199
0330 : 34 31 31 32 38 31 30 33  38 34 37 30 30 24 31 39   4112810384700$19
0340 : 39 34 31 31 32 38 31 30  33 38 34 37 30 30 24 30   94112810384700$0
0350 : 30 30 30 30 30 30 30 30  30 30 30 30 30 30 30 00   000000000000000.
0360 : 31 39 39 34 31 31 32 38  31 30 33 38 34 37 30 30   1994112810384700
0370 : 24 01 00 00 00 00 00 00  00 00 00 00 00 00 00 00   $...............

Tracks and Write Offsets:
    DAT:

<rom name="UNTITLED (Track 01).bin" size="11124960" crc="e196ff7e" md5="bafbc2bbaed3cf3a441f6d09b58916e0" sha1="372c75a479a622c90587a3cd41368e6a16513c39" />
<rom name="UNTITLED (Track 02).bin" size="34115760" crc="a12c13a0" md5="7e58c8068b7c9fc18dcb89e2c47df934" sha1="304777512dac3ded5d6715d61d10687c5fe3967b" />
<rom name="UNTITLED (Track 03).bin" size="53712624" crc="d9271d00" md5="1104befe770f4a967a4b204966ea6928" sha1="1249293a8b12b013acabb7b4fd503d78f216f156" />
<rom name="UNTITLED (Track 04).bin" size="35002464" crc="4d9dec98" md5="d7f61b82972fcfd149bf3c1459683318" sha1="c013c9daa8fc2f214856c23061c6753b7e1e3e7f" />
<rom name="UNTITLED (Track 05).bin" size="39306624" crc="57e6022e" md5="631289ef6b65952c3d8b8dfb49bef947" sha1="5aee9b4e14bad55b197dc2bbd3b052669341ef1f" />
<rom name="UNTITLED (Track 06).bin" size="38800944" crc="111f3d04" md5="e3b25d39e961b16102ccb5097ea829c2" sha1="462d1fa7a6c8bc879dfe8e6a41ca88dbc974da5f" />
<rom name="UNTITLED (Track 07).bin" size="3876096" crc="3ceb5af7" md5="076ed621a9784a102a0062953ca11fea" sha1="eca0d4158b88e773d1409a58c27329976f97de8f" />
<rom name="UNTITLED (Track 08).bin" size="22416912" crc="ef8ba650" md5="a3672ea9540d127f5bd1bedebf038ed5" sha1="40bfd06011d7812930996d152a2bf936d43076f2" />
<rom name="UNTITLED (Track 09).bin" size="26205984" crc="dc7e1ebf" md5="1a2620a060b2ab682073774683011988" sha1="cb32c1a4a60915a4978177b66081edba11cd8265" />
<rom name="UNTITLED (Track 10).bin" size="23980992" crc="acefa18f" md5="8134b53dbdaeac1fb4be3b62d4a3f40e" sha1="261c16daa72b67d0e8f6e03180035c5e2a86c0b4" />

    Cuesheet:

CATALOG 0000000000000
FILE "UNTITLED (Track 01).bin" BINARY
  TRACK 01 MODE1/2352
    FLAGS DCP
    INDEX 01 00:00:00
FILE "UNTITLED (Track 02).bin" BINARY
  TRACK 02 AUDIO
    INDEX 00 00:00:00
    INDEX 01 00:03:00
FILE "UNTITLED (Track 03).bin" BINARY
  TRACK 03 AUDIO
    INDEX 00 00:00:00
    INDEX 01 00:02:00
FILE "UNTITLED (Track 04).bin" BINARY
  TRACK 04 AUDIO
    INDEX 00 00:00:00
    INDEX 01 00:02:00
FILE "UNTITLED (Track 05).bin" BINARY
  TRACK 05 AUDIO
    INDEX 00 00:00:00
    INDEX 01 00:02:00
FILE "UNTITLED (Track 06).bin" BINARY
  TRACK 06 AUDIO
    INDEX 00 00:00:00
    INDEX 01 00:02:00
FILE "UNTITLED (Track 07).bin" BINARY
  TRACK 07 AUDIO
    INDEX 00 00:00:00
    INDEX 01 00:02:00
FILE "UNTITLED (Track 08).bin" BINARY
  TRACK 08 AUDIO
    INDEX 00 00:00:00
    INDEX 01 00:02:00
FILE "UNTITLED (Track 09).bin" BINARY
  TRACK 09 AUDIO
    INDEX 00 00:00:00
    INDEX 01 00:02:00
FILE "UNTITLED (Track 10).bin" BINARY
  TRACK 10 AUDIO
    INDEX 00 00:00:00
    INDEX 01 00:02:00

    Write Offset: 222

Logs:

https://cdn.discordapp.com/attachments/ … ell_ga.rar

11

(0 replies, posted in New Dumps)

Common Disc Info:
    Title: Mugen Houyou
    Foreign Title (Non-latin): 夢幻泡影
    System: Fujitsu FM Towns Marty
    Media Type: CD-ROM
    Category: Games
    Region: Japan
    Languages: not checked
    Disc Serial: ALS-0013

##### COPY 1  (monochrome printed disc label) ####
    Ringcode Information:
        Mastering Code (laser branded/etched): ALS-0013<tab>1
        Mastering SID Code: IFPI L275
        Data-Side Mould SID Code: IFPI 4512

##### COPY 2 (Full colour printed disc label)  ####
    Ringcode Information:
        Mastering Code (laser branded/etched): ALS-0013<tab>1
        Mastering SID Code: IFPI L275
        Data-Side Mould SID Code: IFPI 4514
                Additional Mould:   S M J


    Barcode: T4988650 60004 6
    Error Count: 0
    Comments:   dumped from 2 different discs,  FMTowns and PC98 Disc
    Contents:

Version and Editions:
    Version:
    Edition/Release: Original (VERIFY THIS)

Extras:
    Primary Volume Descriptor (PVD):

0320 : 20 20 20 20 20 20 20 20  20 20 20 20 20 31 39 39                199
0330 : 35 30 36 30 37 31 36 31  33 31 33 30 30 00 31 39   5060716131300.19
0340 : 39 35 30 36 30 37 31 36  31 33 31 33 30 30 00 30   95060716131300.0
0350 : 30 30 30 30 30 30 30 30  30 30 30 30 30 30 30 00   000000000000000.
0360 : 31 39 39 35 30 36 30 37  31 36 31 33 31 33 30 30   1995060716131300
0370 : 00 01 00 00 00 00 00 00  00 00 00 00 00 00 00 00   ................

Tracks and Write Offsets:
    DAT:

<rom name="copy1 (Track 1).bin" size="17578848" crc="db9ab3da" md5="705f4497275fe9be98693b2f597b7f3a" sha1="e12cf4f7fa89bae2a30f7879c208175a1cb972e5" />
<rom name="copy1 (Track 2).bin" size="58212000" crc="5e1d396d" md5="48079e7792e7ed6a7ceb2056d05cd65d" sha1="61bd11454d3ce0dd4ef046490b16d4f0abe3cd0b" />
<rom name="copy1 (Track 3).bin" size="39160800" crc="8c0251a4" md5="a55da022c806afc3cf957be24bdba129" sha1="acfc276b00ab59474a7ccc8f94f15b29248836cb" />
<rom name="copy1 (Track 4).bin" size="58035600" crc="48dd7e40" md5="9b843af8c363042adfc3009eb6780ce7" sha1="5987f131f830276dc1a12c18152653a4fc0308c1" />
<rom name="copy1 (Track 5).bin" size="57682800" crc="86973780" md5="073e7d5b5d561a54c33278adc10ae19e" sha1="785063b9378bc3e55443c570c3a6af26de154d24" />
<rom name="copy1 (Track 6).bin" size="58564800" crc="beb8b093" md5="a249ebb1e9bdbf6b77226acce0fffc02" sha1="4cccea9915fe7c31a89ff1c8b808a2e68ba04889" />
<rom name="copy1 (Track 7).bin" size="62798400" crc="fe37c217" md5="30fa1b156836a7556d0f9b9214032c83" sha1="47657635672cbd7c838225d5bccca4a6138f0060" />
<rom name="copy1 (Track 8).bin" size="58564800" crc="efc222fe" md5="86be3d8c8159397faf2e9a2cb4805687" sha1="ebeeabc355fd97d11d0e32a9bc1deb35203afc29" />
<rom name="copy1 (Track 9).bin" size="60152400" crc="a5d3ffe4" md5="68ae3f01403ac1d3ae4bec7a4c867e55" sha1="eaef95843c894c94ae1240805936bc5f58173880" />

    Cuesheet:

FILE "copy1 (Track 1).bin" BINARY
  TRACK 01 MODE1/2352
    INDEX 01 00:00:00
FILE "copy1 (Track 2).bin" BINARY
  TRACK 02 AUDIO
    INDEX 00 00:00:00
    INDEX 01 00:02:00
FILE "copy1 (Track 3).bin" BINARY
  TRACK 03 AUDIO
    INDEX 00 00:00:00
    INDEX 01 00:02:00
FILE "copy1 (Track 4).bin" BINARY
  TRACK 04 AUDIO
    INDEX 00 00:00:00
    INDEX 01 00:02:00
FILE "copy1 (Track 5).bin" BINARY
  TRACK 05 AUDIO
    INDEX 00 00:00:00
    INDEX 01 00:02:00
FILE "copy1 (Track 6).bin" BINARY
  TRACK 06 AUDIO
    INDEX 00 00:00:00
    INDEX 01 00:02:00
FILE "copy1 (Track 7).bin" BINARY
  TRACK 07 AUDIO
    INDEX 00 00:00:00
    INDEX 01 00:02:00
FILE "copy1 (Track 8).bin" BINARY
  TRACK 08 AUDIO
    INDEX 00 00:00:00
    INDEX 01 00:02:00
FILE "copy1 (Track 9).bin" BINARY
  TRACK 09 AUDIO
    INDEX 00 00:00:00
    INDEX 01 00:02:00

    Write Offset: 2
Disc label varients:
https://cdn.discordapp.com/attachments/ … 044535.jpg

Logs:
Copy 1
https://cdn.discordapp.com/attachments/ … _Copy1.rar
Copy 2
https://cdn.discordapp.com/attachments/ … _Copy2.rar

12

(0 replies, posted in New Dumps)

Common Disc Info:
    Title: Toushin Toshi II
    Foreign Title (Non-latin): 闘神都市II
    System: Fujitsu FM Towns Marty
    Media Type: CD-ROM
    Category: Games
    Region: Japan
    Languages: not checked
    Disc Serial: ALS-0011

#### COPY1    #####

Ringcode Information:
        Mastering Code (laser branded/etched): ALS-0011<tab>1
        Mastering SID Code: IFPI L275
        Data-Side Mould SID Code: IFPI 450C

#### COPY2    #####

    Ringcode Information:
        Mastering Code (laser branded/etched): ALS-0011<tab>2
        Mastering SID Code: IFPI L275
        Data-Side Mould SID Code: IFPI 450C




    Barcode: T4988650 60002 2
    Error Count: 0
    Comments:   dumped from 2 discs,   PC9801 and FMTowns disc
    Contents:

Version and Editions:
    Version:
    Edition/Release: Original (VERIFY THIS)

Extras:
    Primary Volume Descriptor (PVD):

0320 : 20 20 20 20 20 20 20 20  20 20 20 20 20 31 39 39                199
0330 : 35 30 34 32 37 31 37 31  38 31 37 30 30 00 31 39   5042717181700.19
0340 : 39 35 30 34 32 37 31 37  31 38 31 37 30 30 00 30   95042717181700.0
0350 : 30 30 30 30 30 30 30 30  30 30 30 30 30 30 30 00   000000000000000.
0360 : 31 39 39 35 30 34 32 37  31 37 31 38 31 37 30 30   1995042717181700
0370 : 00 01 00 00 00 00 00 00  00 00 00 00 00 00 00 00   ................

Tracks and Write Offsets:
    DAT:

<rom name="track (Track 01).bin" size="34804896" crc="982e5ef5" md5="99c63c9ebfac993069954bc34858c808" sha1="6144a4fc5bd8e2c6b3013d2d793450fdc53386b1" />
<rom name="track (Track 02).bin" size="28400400" crc="bac5dbd8" md5="347b624d074ea80aa1d7c9a263f454b2" sha1="9579da14a0f3241a8cac4d7c233028457943f4ce" />
<rom name="track (Track 03).bin" size="21168000" crc="d37e7fdc" md5="e9380432844dd9ae446de0d45f1ad369" sha1="cd91a0247e24be2867106807b6a322610c4e047c" />
<rom name="track (Track 04).bin" size="21520800" crc="640f86b2" md5="8db72ee562c0939449ce5eed404f2619" sha1="b7bef0582f149ff98a8b88a03e943519c49e4aa7" />
<rom name="track (Track 05).bin" size="22226400" crc="cc98a468" md5="e7f28d3f311ab7d11e60b5a0acfd63c9" sha1="98e2c26032fbbf574be7d22e3d2fa08def45a704" />
<rom name="track (Track 06).bin" size="19756800" crc="5aec47e5" md5="28d202b5716c2e6ee6c397261afefc08" sha1="7bc1246ef23e1444d1f6605a210965fd4f023e9f" />
<rom name="track (Track 07).bin" size="19933200" crc="0442b628" md5="91e11cb283da19fbc3779c03b5a04f43" sha1="23fd18124d8774dc7d01267ec736331bfd31fe45" />
<rom name="track (Track 08).bin" size="23637600" crc="f9ba8817" md5="6c897b89b482d1518ddc9fc8f057f55f" sha1="ab3dbe639578d67109d664f9cc4404576dcbaf93" />
<rom name="track (Track 09).bin" size="16405200" crc="af025920" md5="56fa56d86ae800ffd6df938ddd726b0e" sha1="a35b26e1af876d64dd42323f95cf515b1345ef54" />
<rom name="track (Track 10).bin" size="18169200" crc="5f653db2" md5="f16f384d53298ed7bd8b980fa7120c65" sha1="aca251bde8c3003bf741382b071e809653a638ac" />
<rom name="track (Track 11).bin" size="18522000" crc="5660c167" md5="adff960246cc5dc3357ec44447b6df74" sha1="0b36dbd89405c846c16a31084d0bbaff1289a5f4" />
<rom name="track (Track 12).bin" size="14817600" crc="95784b98" md5="646cc7915766483c657427b801f0464b" sha1="535ebb5ba398eba32eb6415a6041b5b10e370499" />
<rom name="track (Track 13).bin" size="16758000" crc="fc915682" md5="e2d460bcf615afa827a29c3ed404d4d5" sha1="798066a6a660abc57559844aed53843f2dbc5a5a" />
<rom name="track (Track 14).bin" size="16052400" crc="1a5b8774" md5="17d9621e3d9261a99e49417bd3c782fe" sha1="e1c9b084cc2fd28e79d91d7ae16b302d746724c3" />
<rom name="track (Track 15).bin" size="22226400" crc="2272549b" md5="e4616054958d0a755afaf229c23ecca1" sha1="208293b61596f24ab72ae890c4fd1acb95c4855d" />
<rom name="track (Track 16).bin" size="13230000" crc="11cd67c3" md5="5a9ef8b09ee327549cd15277a977d90a" sha1="529616208fc698c12bda6b2faee984bafcde59d2" />
<rom name="track (Track 17).bin" size="17110800" crc="8a271dc2" md5="0d8c25d8684fe4db0b0e6620642c69c1" sha1="c253aa6536008b5651c9a4d6034e3d9ed018830f" />
<rom name="track (Track 18).bin" size="16228800" crc="67d3efac" md5="e864e8caab75ca6341b19e7a9cfd155f" sha1="e70d60a44e2c6ffa97bab5bbad95620f13fe1567" />
<rom name="track (Track 19).bin" size="16581600" crc="adde03fb" md5="4191450eb6a4904a226b8d25fc984093" sha1="6cd0a3bf9e33f10a3c44a7029bd135d31b2ea59a" />
<rom name="track (Track 20).bin" size="20109600" crc="1f9c9336" md5="277e825a0aadd6e201f0591fc409d20e" sha1="60592ab801038b848ad084ab0044655c5812d4c5" />
<rom name="track (Track 21).bin" size="19051200" crc="8f1d1f22" md5="c7fc0dae8d942af631681178a18dacc0" sha1="e7cbc1c5b24115fdb3ff6bf783feed84f6bf66d7" />
<rom name="track (Track 22).bin" size="13582800" crc="76a6f32c" md5="1f23b654c594065ff8f02bd487024d30" sha1="1eca82aeb6b7a41e2622c9181405c2a6adf94461" />
<rom name="track (Track 23).bin" size="20109600" crc="e613203e" md5="dec9187478190bb39c69a238fbb34682" sha1="111c852acce742ac30cce4e6ef7713c860d37611" />
<rom name="track (Track 24).bin" size="19051200" crc="906068e3" md5="58385b57a415d03bf7209050af3344df" sha1="24cff808fa1ae9558f21f2c5a040e97decbb1df9" />
<rom name="track (Track 25).bin" size="19756800" crc="4af0bc16" md5="6e0dff4970e85b5f59068315f984b55a" sha1="946ce3108ffc674d38532f441596b30466e3ca3c" />
<rom name="track (Track 26).bin" size="17110800" crc="6b3e377f" md5="cfe8ff31ea2f21392990fbff3ff80061" sha1="71c6e20e4747629a51ed62f217db92ee8c289149" />
<rom name="track (Track 27).bin" size="14641200" crc="d7046973" md5="d0d2067857d71773d7e4d77ec5ab4a65" sha1="c40608293d3cf121878a4e9ffa9f5e1ecd873b0e" />
<rom name="track (Track 28).bin" size="15699600" crc="c48d878e" md5="378862dc6c0508940991e052739d818e" sha1="b8bb044a64ac92012b765d5e146afdd67bc5a9b0" />
<rom name="track (Track 29).bin" size="19933200" crc="6ed23384" md5="70f32e8e6f0fcaba8a43dec754e2ede6" sha1="54a03c8e789b5d1a3956c90ab1c2343ec502b73c" />
<rom name="track (Track 30).bin" size="17463600" crc="e78b34a2" md5="b623850b90b37896005d33904ae3d185" sha1="fbb85d1e4bfffa3f6c1b7337de074c3af91ee691" />
<rom name="track (Track 31).bin" size="19404000" crc="6454b575" md5="4e506e307eef2867bc1e98c8624eaf15" sha1="812b0ebb5c0df1b30c6e4cb1f0f565a0919eeb1c" />
<rom name="track (Track 32).bin" size="16581600" crc="737b80e1" md5="45277587bdf4f29c322e3e21bf8f86b0" sha1="eed754e416823e8800e1b40d7a27a92db8eb2dc6" />
<rom name="track (Track 33).bin" size="15170400" crc="be7c7537" md5="a6f49558a3892f27f35ebd5172dfcea4" sha1="3720720e22ece51367d8c0d2c838eaf7a5f7c7d7" />

    Cuesheet:

FILE "track (Track 01).bin" BINARY
  TRACK 01 MODE1/2352
    INDEX 01 00:00:00
FILE "track (Track 02).bin" BINARY
  TRACK 02 AUDIO
    INDEX 00 00:00:00
    INDEX 01 00:02:00
FILE "track (Track 03).bin" BINARY
  TRACK 03 AUDIO
    INDEX 00 00:00:00
    INDEX 01 00:02:00
FILE "track (Track 04).bin" BINARY
  TRACK 04 AUDIO
    INDEX 00 00:00:00
    INDEX 01 00:02:00
FILE "track (Track 05).bin" BINARY
  TRACK 05 AUDIO
    INDEX 00 00:00:00
    INDEX 01 00:02:00
FILE "track (Track 06).bin" BINARY
  TRACK 06 AUDIO
    INDEX 00 00:00:00
    INDEX 01 00:02:00
FILE "track (Track 07).bin" BINARY
  TRACK 07 AUDIO
    INDEX 00 00:00:00
    INDEX 01 00:02:00
FILE "track (Track 08).bin" BINARY
  TRACK 08 AUDIO
    INDEX 00 00:00:00
    INDEX 01 00:02:00
FILE "track (Track 09).bin" BINARY
  TRACK 09 AUDIO
    INDEX 00 00:00:00
    INDEX 01 00:02:00
FILE "track (Track 10).bin" BINARY
  TRACK 10 AUDIO
    INDEX 00 00:00:00
    INDEX 01 00:02:00
FILE "track (Track 11).bin" BINARY
  TRACK 11 AUDIO
    INDEX 00 00:00:00
    INDEX 01 00:02:00
FILE "track (Track 12).bin" BINARY
  TRACK 12 AUDIO
    INDEX 00 00:00:00
    INDEX 01 00:02:00
FILE "track (Track 13).bin" BINARY
  TRACK 13 AUDIO
    INDEX 00 00:00:00
    INDEX 01 00:02:00
FILE "track (Track 14).bin" BINARY
  TRACK 14 AUDIO
    INDEX 00 00:00:00
    INDEX 01 00:02:00
FILE "track (Track 15).bin" BINARY
  TRACK 15 AUDIO
    INDEX 00 00:00:00
    INDEX 01 00:02:00
FILE "track (Track 16).bin" BINARY
  TRACK 16 AUDIO
    INDEX 00 00:00:00
    INDEX 01 00:02:00
FILE "track (Track 17).bin" BINARY
  TRACK 17 AUDIO
    INDEX 00 00:00:00
    INDEX 01 00:02:00
FILE "track (Track 18).bin" BINARY
  TRACK 18 AUDIO
    INDEX 00 00:00:00
    INDEX 01 00:02:00
FILE "track (Track 19).bin" BINARY
  TRACK 19 AUDIO
    INDEX 00 00:00:00
    INDEX 01 00:02:00
FILE "track (Track 20).bin" BINARY
  TRACK 20 AUDIO
    INDEX 00 00:00:00
    INDEX 01 00:02:00
FILE "track (Track 21).bin" BINARY
  TRACK 21 AUDIO
    INDEX 00 00:00:00
    INDEX 01 00:02:00
FILE "track (Track 22).bin" BINARY
  TRACK 22 AUDIO
    INDEX 00 00:00:00
    INDEX 01 00:02:00
FILE "track (Track 23).bin" BINARY
  TRACK 23 AUDIO
    INDEX 00 00:00:00
    INDEX 01 00:02:00
FILE "track (Track 24).bin" BINARY
  TRACK 24 AUDIO
    INDEX 00 00:00:00
    INDEX 01 00:02:00
FILE "track (Track 25).bin" BINARY
  TRACK 25 AUDIO
    INDEX 00 00:00:00
    INDEX 01 00:02:00
FILE "track (Track 26).bin" BINARY
  TRACK 26 AUDIO
    INDEX 00 00:00:00
    INDEX 01 00:02:00
FILE "track (Track 27).bin" BINARY
  TRACK 27 AUDIO
    INDEX 00 00:00:00
    INDEX 01 00:02:00
FILE "track (Track 28).bin" BINARY
  TRACK 28 AUDIO
    INDEX 00 00:00:00
    INDEX 01 00:02:00
FILE "track (Track 29).bin" BINARY
  TRACK 29 AUDIO
    INDEX 00 00:00:00
    INDEX 01 00:02:00
FILE "track (Track 30).bin" BINARY
  TRACK 30 AUDIO
    INDEX 00 00:00:00
    INDEX 01 00:02:00
FILE "track (Track 31).bin" BINARY
  TRACK 31 AUDIO
    INDEX 00 00:00:00
    INDEX 01 00:02:00
FILE "track (Track 32).bin" BINARY
  TRACK 32 AUDIO
    INDEX 00 00:00:00
    INDEX 01 00:02:00
FILE "track (Track 33).bin" BINARY
  TRACK 33 AUDIO
    INDEX 00 00:00:00
    INDEX 01 00:02:00

    Write Offset: 2




Logs:
Copy1
https://cdn.discordapp.com/attachments/ … -copy1.rar
Copy2
https://cdn.discordapp.com/attachments/ … -copy2.rar

13

(0 replies, posted in New Dumps)

Common Disc Info:
    Title: Criss
    System: Fujitsu FM Towns Marty
    Media Type: CD-ROM
    Category: Applications
    Region: Japan
    Languages: not checked
    Disc Serial: HMA-205

    Ringcode Information:
        Mastering Code (laser branded/etched): HMA-205 1F45

    Barcode:
    Error Count: 0
    Comments:  Genre = 3D animation Tool
    Contents:

Version and Editions:
    Version: 1.00
    Edition/Release: Original (VERIFY THIS)

Extras:
    Primary Volume Descriptor (PVD):

0320 : 00 00 00 00 00 00 00 00  00 00 00 00 00 31 39 38   .............198
0330 : 39 30 36 32 33 30 39 32  38 34 30 30 30 00 31 39   9062309284000.19
0340 : 38 39 30 36 32 33 30 39  33 33 32 31 30 30 00 30   89062309332100.0
0350 : 30 30 30 30 30 30 30 30  30 30 30 30 30 30 30 00   000000000000000.
0360 : 30 30 30 30 30 30 30 30  30 30 30 30 30 30 30 30   0000000000000000
0370 : 00 01 00 00 00 00 00 00  00 00 00 00 00 00 00 00   ................

Tracks and Write Offsets:
    DAT:

<rom name="CRISS.bin" size="5292000" crc="8d458b0d" md5="c79c6639ee04ad082072129c296d3ffc" sha1="7394242a18e2b311b21c2ef0813140f597d81960" />

    Cuesheet:

CATALOG 2606891111232
FILE "CRISS.bin" BINARY
  TRACK 01 MODE1/2352
    INDEX 01 00:00:00

    Write Offset: 633

Logs: attached

Common Disc Info:
    Title: Free Software Collection 5
    System: Fujitsu FM Towns Marty
    Media Type: CD-ROM
    Category: Applications
    Region: Japan
    Languages: not checked
    Disc Serial: HMD-117B

    Ringcode Information:
        Mastering Code (laser branded/etched): HMD-117B<tab>2A1<tab>C<tab>38

    Barcode: T4988618040495
    Error Count: 0
    Comments:
    Contents: Fujitsu ID: A2760240

Version and Editions:
    Version:
    Edition/Release: Original (VERIFY THIS)

Extras:
    Primary Volume Descriptor (PVD):

0320 : 20 20 20 20 20 20 20 20  20 20 20 20 20 31 39 39                199
0330 : 33 30 37 31 33 31 39 32  38 31 34 30 30 00 31 39   3071319281400.19
0340 : 39 33 30 37 31 33 32 32  32 30 34 33 30 30 00 30   93071322204300.0
0350 : 30 30 30 30 30 30 30 30  30 30 30 30 30 30 30 00   000000000000000.
0360 : 30 30 30 30 30 30 30 30  30 30 30 30 30 30 30 30   0000000000000000
0370 : 00 01 00 00 00 00 00 00  00 00 00 00 00 00 00 00   ................

Tracks and Write Offsets:
    DAT:

<rom name="FREESOFT5 (Track 1).bin" size="211327200" crc="69b8bada" md5="ba16a7a7cb96af70cedfd076ba0797ac" sha1="d5bce55044418c7d232cb2ed76695ed38b01c12c" />
<rom name="FREESOFT5 (Track 2).bin" size="49039200" crc="6055be83" md5="f5940dfe970a5d0d088df65c7108a153" sha1="33c44728f0376c6b0102185037a8bb91ed091563" />
<rom name="FREESOFT5 (Track 3).bin" size="45158400" crc="c6b6b65b" md5="db57d13683a2fa0d9a8dc77d6e01f449" sha1="8927a40464f9fbbd3fea9ab9000a772da5c14107" />
<rom name="FREESOFT5 (Track 4).bin" size="41806800" crc="77f8c6d4" md5="6c952371a38f8aa8ccda286428430a16" sha1="55e152460edb6f8285b07dc1c9c46a91e6a6b1cb" />
<rom name="FREESOFT5 (Track 5).bin" size="132829200" crc="67c64d24" md5="85f681972e38aa981fce8f6bf4b793c9" sha1="cbee5b3a1e8f91985c86e287a784e1b03a4afe95" />
<rom name="FREESOFT5 (Track 6).bin" size="47628000" crc="f38e6a6c" md5="d975c1fabcbf9bdc7453287c1d8c1786" sha1="bfd163d5e0ab7fe962b8b0bb4b1e4cb5137332cf" />
<rom name="FREESOFT5 (Track 7).bin" size="22050000" crc="99072b27" md5="cdfc7e220548a30b70103c7a926a6c03" sha1="13977ef6ccb10beb17fb8d61c30d5327906051cc" />
<rom name="FREESOFT5 (Track 8).bin" size="94903200" crc="846678f0" md5="62137d83362a1469ca78939e62704bd2" sha1="1fa02152b2ec00c83d456e52f86bfa6f0428f914" />

    Cuesheet:

FILE "FREESOFT5 (Track 1).bin" BINARY
  TRACK 01 MODE1/2352
    INDEX 01 00:00:00
FILE "FREESOFT5 (Track 2).bin" BINARY
  TRACK 02 AUDIO
    INDEX 00 00:00:00
    INDEX 01 00:02:00
FILE "FREESOFT5 (Track 3).bin" BINARY
  TRACK 03 AUDIO
    INDEX 00 00:00:00
    INDEX 01 00:02:00
FILE "FREESOFT5 (Track 4).bin" BINARY
  TRACK 04 AUDIO
    INDEX 00 00:00:00
    INDEX 01 00:02:00
FILE "FREESOFT5 (Track 5).bin" BINARY
  TRACK 05 AUDIO
    INDEX 00 00:00:00
    INDEX 01 00:02:00
FILE "FREESOFT5 (Track 6).bin" BINARY
  TRACK 06 AUDIO
    INDEX 00 00:00:00
    INDEX 01 00:02:00
FILE "FREESOFT5 (Track 7).bin" BINARY
  TRACK 07 AUDIO
    INDEX 00 00:00:00
    INDEX 01 00:02:00
FILE "FREESOFT5 (Track 8).bin" BINARY
  TRACK 08 AUDIO
    INDEX 00 00:00:00
    INDEX 01 00:02:00

    Write Offset: 2105

Logs:
https://cdn.discordapp.com/attachments/ … 5-revB.rar

Common Disc Info:
    Title: Free Software Collection 5
    System: Fujitsu FM Towns Marty
    Media Type: CD-ROM
    Category: Applications
    Region: Japan
    Languages: not checked
    Disc Serial: HMD-117A

    Ringcode Information:
        Mastering Code (laser branded/etched): HMD-117A<tab>1B1<tab>C<tab>28

    Barcode: T4988618040495
    Error Count: 0
    Comments: Fujitsu ID: A2760240
    Contents: (OPTIONAL)

Version and Editions:
    Version:
    Edition/Release: Original (VERIFY THIS)

Extras:
    Primary Volume Descriptor (PVD):

0320 : 20 20 20 20 20 20 20 20  20 20 20 20 20 31 39 39                199
0330 : 32 30 38 31 38 31 33 30  35 30 30 30 30 00 31 39   2081813050000.19
0340 : 39 32 30 38 31 38 31 33  30 35 30 30 30 30 00 30   92081813050000.0
0350 : 30 30 30 30 30 30 30 30  30 30 30 30 30 30 30 00   000000000000000.
0360 : 30 30 30 30 30 30 30 30  30 30 30 30 30 30 30 30   0000000000000000
0370 : 00 01 00 00 00 00 00 00  00 00 00 00 00 00 00 00   ................

Tracks and Write Offsets:
    DAT:

<rom name="FREESOFT (Track 1).bin" size="211327200" crc="f6a2808d" md5="4512719a34ddafd22a11a41fc6c73760" sha1="9c8e3c13463cb1415a6ed76ea0b2a9057d84375f" />
<rom name="FREESOFT (Track 2).bin" size="49039200" crc="552219a1" md5="e35a287f5e4c8807fddd87cbb34a7db6" sha1="51b32a7634160a77cd6b57296d1d2b416b4b55fe" />
<rom name="FREESOFT (Track 3).bin" size="45158400" crc="22a80659" md5="f04027efc1625c76c305a62bdb7aa27f" sha1="8ff6b42c2b4eb0fb0b894275e0bb1dd97e86448e" />
<rom name="FREESOFT (Track 4).bin" size="41806800" crc="14ea613c" md5="f6d768d32f4033352f1406175d46c1f5" sha1="44eba92d54247b30d2fc1391df5dca4d07a4b681" />
<rom name="FREESOFT (Track 5).bin" size="132829200" crc="69026eea" md5="fcb6a10f5da0f1a9c6774a600b2ade0c" sha1="48a984eca090f78a360165e878f6fb156167aa12" />
<rom name="FREESOFT (Track 6).bin" size="47628000" crc="21f529a9" md5="2defb0c1f9de164c3746f202e27ff8e7" sha1="dbb80b2837551978b6ee5c000559a18b681a3523" />
<rom name="FREESOFT (Track 7).bin" size="22050000" crc="a73f6485" md5="7a1253c7483b5036be2dc34d42e45965" sha1="bbb0b49391b0dbb01603c571aebf73d421c46750" />
<rom name="FREESOFT (Track 8).bin" size="94903200" crc="0a8e8b82" md5="4cbaa7d99e7c0f7240a45a73cc29d633" sha1="af58a275a9ec83f0f7902405fc2aa7fafcd5e773" />

    Cuesheet:

FILE "FREESOFT (Track 1).bin" BINARY
  TRACK 01 MODE1/2352
    INDEX 01 00:00:00
FILE "FREESOFT (Track 2).bin" BINARY
  TRACK 02 AUDIO
    INDEX 00 00:00:00
    INDEX 01 00:02:00
FILE "FREESOFT (Track 3).bin" BINARY
  TRACK 03 AUDIO
    INDEX 00 00:00:00
    INDEX 01 00:02:00
FILE "FREESOFT (Track 4).bin" BINARY
  TRACK 04 AUDIO
    INDEX 00 00:00:00
    INDEX 01 00:02:00
FILE "FREESOFT (Track 5).bin" BINARY
  TRACK 05 AUDIO
    INDEX 00 00:00:00
    INDEX 01 00:02:00
FILE "FREESOFT (Track 6).bin" BINARY
  TRACK 06 AUDIO
    INDEX 00 00:00:00
    INDEX 01 00:02:00
FILE "FREESOFT (Track 7).bin" BINARY
  TRACK 07 AUDIO
    INDEX 00 00:00:00
    INDEX 01 00:02:00
FILE "FREESOFT (Track 8).bin" BINARY
  TRACK 08 AUDIO
    INDEX 00 00:00:00
    INDEX 01 00:02:00

    Write Offset: 727


Logs:   https://cdn.discordapp.com/attachments/ … 5-revA.rar

Common Disc Info:
    Title: Appare CD Vol. 2: Houou no Maki
    Foreign Title (Non-latin): 天晴CD Vol.2 鳳凰の巻
    System: Fujitsu FM Towns Marty
    Media Type: CD-ROM
    Category: Coverdiscs
    Region: Japan
    Languages: not checked
    Disc Serial: OFMT-002

    Ringcode Information:
        Mastering Code (laser branded/etched): OFMT-002<tab>1
        Mastering SID Code: IFPI L275
        Data-Side Mould SID Code: IFPI 4543

    Barcode:
    Error Count: 0
    Comments: Oh! FM Towns ID: OFMT-002
    Contents:

Version and Editions:
    Version:
    Edition/Release: Bundled with Magazine

Extras:
    Primary Volume Descriptor (PVD):

0320 : 20 20 20 20 20 20 20 20  20 20 20 20 20 31 39 39                199
0330 : 35 30 36 32 30 31 33 33  35 31 32 00 30 00 31 39   50620133512.0.19
0340 : 39 35 30 36 32 33 31 32  30 30 30 30 00 30 00 30   950623120000.0.0
0350 : 30 30 30 30 30 30 30 30  30 30 30 30 30 00 30 00   0000000000000.0.
0360 : 30 30 30 30 30 30 30 30  30 30 30 30 30 30 00 30   00000000000000.0
0370 : 00 01 00 00 00 00 00 00  00 00 00 00 00 00 00 00   ................

Tracks and Write Offsets:
    DAT:

<rom name="APPARE2 (Track 1).bin" size="453366816" crc="08401dfe" md5="53364779da7769337ce4335e77888b74" sha1="d054164f4d44b4d0271ca87c53c048ca87f21a16" />
<rom name="APPARE2 (Track 2).bin" size="45929856" crc="2070066a" md5="c91a0d2008cec9a23554b7b30a4177fc" sha1="f6b09e3802699c2ad5a020e83331a0e726421f37" />
<rom name="APPARE2 (Track 3).bin" size="30797088" crc="6d0e025f" md5="3a14454be8b4fd82c1a073bb4f9cf011" sha1="44086e46ff90c868d443c855eb580fcd1ea59a83" />
<rom name="APPARE2 (Track 4).bin" size="27497232" crc="371af7c5" md5="6c1d37367a44f84fb8f34247e57b4535" sha1="a82c4d7cb5d7ef043fce6f509bef7ec1da7e4a3b" />
<rom name="APPARE2 (Track 5).bin" size="27062112" crc="1c34d300" md5="bd9d98c5f8583b14083e878df11f351e" sha1="7997f0d2226b9c2bca71c0d4395e327d02c1ce03" />

    Cuesheet:

FILE "APPARE2 (Track 1).bin" BINARY
  TRACK 01 MODE1/2352
    INDEX 01 00:00:00
FILE "APPARE2 (Track 2).bin" BINARY
  TRACK 02 AUDIO
    INDEX 00 00:00:00
    INDEX 01 00:02:00
FILE "APPARE2 (Track 3).bin" BINARY
  TRACK 03 AUDIO
    INDEX 00 00:00:00
    INDEX 01 00:02:00
FILE "APPARE2 (Track 4).bin" BINARY
  TRACK 04 AUDIO
    INDEX 00 00:00:00
    INDEX 01 00:02:00
FILE "APPARE2 (Track 5).bin" BINARY
  TRACK 05 AUDIO
    INDEX 00 00:00:00
    INDEX 01 00:02:00

    Write Offset: 2

logs:   https://cdn.discordapp.com/attachments/ … o_Maki.rar

17

(0 replies, posted in New Dumps)

Common Disc Info:
    Title: Heretic
    Disc Title: <not the game, so the title is misleading - insert something here>
    System: IBM PC Compatible
    Media Type: CD-ROM
    Category: Games
    Region: dunno....
    Languages: English
    Disc Serial: n/a

    Ringcode Information:
        Mastering Code (laser branded/etched):  00F13<1670>MG-348 HERETIC PS-249
        Mastering SID Code: IFPI L483

    Barcode: 7 98936 00249 5
    Error Count: 0
    Comments: [T:ISBN] (OPTIONAL)
    Contents: cheats, levels etc for Heretic

Version and Editions:
    Version:
    Edition/Release: Original (VERIFY THIS)

Extras:
    Primary Volume Descriptor (PVD):

0320 : 20 20 20 20 20 20 20 20  20 20 20 20 20 30 30 30                000
0330 : 30 30 30 30 30 30 30 30  30 30 30 30 30 00 30 30   0000000000000.00
0340 : 30 30 30 30 30 30 30 30  30 30 30 30 30 30 00 30   00000000000000.0
0350 : 30 30 30 30 30 30 30 30  30 30 30 30 30 30 30 00   000000000000000.
0360 : 30 30 30 30 30 30 30 30  30 30 30 30 30 30 30 30   0000000000000000
0370 : 00 01 00 00 00 00 00 00  00 00 00 00 00 00 00 00   ................

Copy Protection:
    Copy Protection: None found

Tracks and Write Offsets:
    DAT:

<rom name="HERETIC.bin" size="46094496" crc="bc1f71c2" md5="86f1523299fb5b83f965e6bf8f5ec0c8" sha1="c1d8f2e1a7e9b7db61f3dedf4b6c11f33c06af2c" />

    Cuesheet:

CATALOG 0000000000000
FILE "HERETIC.bin" BINARY
  TRACK 01 MODE1/2352
    INDEX 01 00:00:00

    Write Offset: 222

Logs: attached

witchcraft.

Do you float @Sadikyo ?

19

(2 replies, posted in New Dumps)

yes, sorry, initial cue was bad.

see: http://forum.redump.org/post/82920/#p82920    for more info


Also - is missing Floppy Disk, which may or may not be required to play, not tested since dump /cue was fixed)

There's one thing that is true in life....

that is not a PSX disc

21

(6 replies, posted in General discussion)

I agree with the colons, but not the space.
the covers don't show a space in the Vol.2 naming.

But let's be honest here... I am wrong 80% of the time.

22

(6 replies, posted in General discussion)

User7 is correct, Should be submitted as

Desire Koushiki Digital Genga-shuu
and
PC-FX Best Character Koushiki Digital Genga-shuu Vol.2

even then the Moderator who adds the dumps will correct them to follow the proper naming convention.


*** EDIT ****
Didnt see the original poster. so like yeah man, go with ^those and they will get fixed, just be like me and say it's a load of Squiggles smile

(whatever I put is invariably wrong haha)

23

(2,638 replies, posted in General discussion)

sarami wrote:

The mode of track 1 on cuesheet is corrupt.
Try again whether it's fixed and upload logs http://www.mediafire.com/file/eq80y20l9 … st.7z/file

wow, how did i miss that. well spotted.
new logs: https://mega.nz/file/ehshhbSD#zWkDmDpVs … WIHm_0DvRw

24

(2,638 replies, posted in General discussion)

sarami wrote:

Logs, please.

of course:
https://mega.nz/file/Hs0hATjT#ceHRfZie8 … F3eymAvxW4

or the disc txt attached

25

(2,638 replies, posted in General discussion)

Yes, this fixed my issue, thank you.