See here for non latin title:
https://i.ebayimg.com/images/g/bcoAAOSw … -l1600.jpg

Logs: https://mega.nz/#!Oh0T0SSB!MWcdMqis5JHp … hrKgENVIAI

Common Disc Info:
    Title: Treasure of the Caribbean
    Foreign Title (Non-latin):
    System: SNK Neo Geo CD
    Media Type: CD-ROM
    Category: Games
    Region: World
    Languages: not checked
    Disc Serial: NGCD-500

    Ringcode Information:
        Mastering Code (laser branded/etched): CA TOCNEOGEO @
        Mastering SID Code: IFPI L039

    Barcode: 7 311501 309105
    EXE/Build Date: (REQUIRED)
    Error Count: 0
    Comments:
user manual is reversible so cover represents English or Japanese regions
last track is audio silence
    Contents: (OPTIONAL)

Version and Editions:
    Version: (REQUIRED, IF EXISTS)
    Edition/Release: Unlicensed
Extras:
    Primary Volume Descriptor (PVD):

0320 : 20 20 20 20 20 20 20 20  20 20 20 20 20 32 30 31                201
0330 : 31 31 32 32 32 31 35 30  37 34 36 30 30 04 32 30   1122215074600.20
0340 : 31 31 31 32 32 32 31 35  30 37 34 36 30 30 04 30   11122215074600.0
0350 : 30 30 30 30 30 30 30 30  30 30 30 30 30 30 30 00   000000000000000.
0360 : 30 30 30 30 30 30 30 30  30 30 30 30 30 30 30 30   0000000000000000
0370 : 00 01 00 00 00 00 00 00  00 00 00 00 00 00 00 00   ................

Tracks and Write Offsets:
    DAT:

<rom name="20111222_1507 (Track 01).bin" size="7813344" crc="454756ff" md5="ceabc4fb8ce9a1ec9139dda316400e73" sha1="e4a4ef277903dc87ef9dc9bc0c5dda4061c9cf4f" />
<rom name="20111222_1507 (Track 02).bin" size="11134368" crc="d23c4688" md5="d2e3af39f044c3d745b0e023ec022d06" sha1="b810c606511bf9d0ffdfc0bac14486ecfb551cfd" />
<rom name="20111222_1507 (Track 03).bin" size="73380048" crc="2d2f93cd" md5="5c0a6f1109025ef422b01aefcc5783f5" sha1="615f1fbcb583799d9d8aceb7431e879850e0fcff" />
<rom name="20111222_1507 (Track 04).bin" size="79029552" crc="c0f7bcd5" md5="2dc58df914c57af4fc9172d2ec1bef26" sha1="29b5fae486e6cb5b43de942236f953df5c6e3b39" />
<rom name="20111222_1507 (Track 05).bin" size="71973552" crc="9de609f7" md5="1299c8625b1439192507839b0eb4aca4" sha1="0f8d5e507a38c41514a2b1d0f40fd6a9348df7d4" />
<rom name="20111222_1507 (Track 06).bin" size="92351280" crc="a45303ae" md5="855fe02265a0c0b950d91431a62ae2ea" sha1="ad15389261453ecdb019aa113f88b5e2c8587d7f" />
<rom name="20111222_1507 (Track 07).bin" size="71973552" crc="9de609f7" md5="1299c8625b1439192507839b0eb4aca4" sha1="0f8d5e507a38c41514a2b1d0f40fd6a9348df7d4" />
<rom name="20111222_1507 (Track 08).bin" size="76748112" crc="ae4b5c9e" md5="8eb0ad8625462c710f796150938d5ba5" sha1="65f14839ed8804af3a05b23cb9bf3413f8b68a32" />
<rom name="20111222_1507 (Track 09).bin" size="80436048" crc="a710ec73" md5="f614fcba899e99d1ea6cac85edf14e67" sha1="1e68ebce788fd84f596558f0e7f250536f86789f" />
<rom name="20111222_1507 (Track 10).bin" size="68490240" crc="ae672ab8" md5="b01b9c546dccce33f0db2b8fc7b31a82" sha1="e036e15cbeaf20782ea5ebe6b0e525b437c111d9" />
<rom name="20111222_1507 (Track 11).bin" size="10781568" crc="2e7f017c" md5="1f4e0b44aa5e219b6d11ae2bd91d7a9b" sha1="5d51665aa82f5e79543b4faf8442592a7e8035b1" />
<rom name="20111222_1507 (Track 12).bin" size="8462496" crc="0fdf1d39" md5="83ea0f25b4bba8f5cf28ccbc032fb551" sha1="aaa7a46272158aee938e2e33beece67a701745e8" />
<rom name="20111222_1507 (Track 13).bin" size="10586352" crc="860bff04" md5="9b5cdcc3292713a41f7121a42296974b" sha1="16809c4132a2726cc851d8a128a0b9135e5b8ace" />
<rom name="20111222_1507 (Track 14).bin" size="9158688" crc="a9d82a63" md5="9e59b2cd668a8f0ce0c42fc10a752bbc" sha1="f227cb5eaacaedc590028826741288863b8e6d92" />
<rom name="20111222_1507 (Track 15).bin" size="705600" crc="02864c0e" md5="1234dd57f3af7775d57493b54d59bceb" sha1="aa64beff052e53741bba9c2f10aa781d05c96e38" />

    Cuesheet:

FILE "20111222_1507 (Track 01).bin" BINARY
  TRACK 01 MODE1/2352
    INDEX 01 00:00:00
FILE "20111222_1507 (Track 02).bin" BINARY
  TRACK 02 AUDIO
    INDEX 00 00:00:00
    INDEX 01 00:02:00
FILE "20111222_1507 (Track 03).bin" BINARY
  TRACK 03 AUDIO
    INDEX 01 00:00:00
FILE "20111222_1507 (Track 04).bin" BINARY
  TRACK 04 AUDIO
    INDEX 01 00:00:00
FILE "20111222_1507 (Track 05).bin" BINARY
  TRACK 05 AUDIO
    INDEX 01 00:00:00
FILE "20111222_1507 (Track 06).bin" BINARY
  TRACK 06 AUDIO
    INDEX 01 00:00:00
FILE "20111222_1507 (Track 07).bin" BINARY
  TRACK 07 AUDIO
    INDEX 01 00:00:00
FILE "20111222_1507 (Track 08).bin" BINARY
  TRACK 08 AUDIO
    INDEX 01 00:00:00
FILE "20111222_1507 (Track 09).bin" BINARY
  TRACK 09 AUDIO
    INDEX 01 00:00:00
FILE "20111222_1507 (Track 10).bin" BINARY
  TRACK 10 AUDIO
    INDEX 01 00:00:00
FILE "20111222_1507 (Track 11).bin" BINARY
  TRACK 11 AUDIO
    INDEX 01 00:00:00
FILE "20111222_1507 (Track 12).bin" BINARY
  TRACK 12 AUDIO
    INDEX 01 00:00:00
FILE "20111222_1507 (Track 13).bin" BINARY
  TRACK 13 AUDIO
    INDEX 01 00:00:00
FILE "20111222_1507 (Track 14).bin" BINARY
  TRACK 14 AUDIO
    INDEX 01 00:00:00
FILE "20111222_1507 (Track 15).bin" BINARY
  TRACK 15 AUDIO
    INDEX 01 00:00:00

    Write Offset: -12

3

(0 replies, posted in New Dumps)

Logs:   https://mega.nz/#!W1dxGCCY!UMeh1K6xUX3t … Dg9JIahYLs

Common Disc Info:
    Title: Crossed Swords 2
    Foreign Title (Non-latin): クロス・スウオードII
    System: SNK Neo Geo CD
    Media Type: CD-ROM
    Category: Games
    Region: Japan
    Languages: not checked
    Disc Serial: ADCD-102

    Ringcode Information:
        Mastering Code (laser branded/etched): ADCD-102 MT<tab>B01
        Mastering SID Code: IFPI L262
        Data-Side Mould SID Code: IFPI 4422
    Barcode:
    EXE/Build Date:
    Error Count: 0
    Comments: (OPTIONAL)
    Contents: genre: Swords and magic action

Version and Editions:
    Version:
    Edition/Release: Original

Extras:
    Primary Volume Descriptor (PVD):

0320 : 20 20 20 20 20 20 20 20  20 20 20 20 20 31 39 39                199
0330 : 35 30 34 31 33 32 32 30  30 35 38 30 30 A5 31 39   5041322005800.19
0340 : 39 35 30 34 31 33 32 32  30 30 35 38 30 30 A5 30   95041322005800.0
0350 : 30 30 30 30 30 30 30 30  30 30 30 30 30 30 30 00   000000000000000.
0360 : 30 30 30 30 30 30 30 30  30 30 30 30 30 30 30 30   0000000000000000
0370 : 00 01 00 00 00 00 00 00  00 00 00 00 00 00 00 00   ................

Tracks and Write Offsets:
    DAT:

<rom name="CR2CD (Track 01).bin" size="10139472" crc="a1b2684c" md5="b00ce436433384cde93123dc0e34b7ab" sha1="2ece2bc117448c29f003132a7ceb311bcef67ce0" />
<rom name="CR2CD (Track 02).bin" size="6209280" crc="d3a075e0" md5="6fc1a29a41d57ae64e269ee88d47a303" sha1="6382f5604912f170d4223dae00fcbd0a51bbe9e6" />
<rom name="CR2CD (Track 03).bin" size="34071072" crc="58af9452" md5="1aa18d6140758e4fbaac014eaf7171a4" sha1="429485554f4ee4a1eaa950ec8a829c0869bfe32b" />
<rom name="CR2CD (Track 04).bin" size="33984048" crc="2998cd12" md5="ac9e74696cdcf95b88b4678737b5c3cc" sha1="744b992b1072706268570e6872f5ba5c6d4dd21b" />
<rom name="CR2CD (Track 05).bin" size="34056960" crc="28d35c49" md5="daa2321c692bfe17df9cf2ec8177057e" sha1="177606460c681898243a98538a9b5e11cbf3afaf" />
<rom name="CR2CD (Track 06).bin" size="33986400" crc="4207f10f" md5="6503be7f0c49e26fb5904f119d8ac7f7" sha1="3df0059b78119c53a62146b78a1c3b326327f6dd" />
<rom name="CR2CD (Track 07).bin" size="34466208" crc="26256210" md5="c6fcfa092bfebbc37c7d408659d311dc" sha1="c6b707e81ad01d36e9e8da9b7fde7ddbf4ae882f" />
<rom name="CR2CD (Track 08).bin" size="34136928" crc="bf22756e" md5="c5cd2f9551b6256b35c69e237254753e" sha1="59f6c4368dbe7089dc36a6d9b3124186badaa033" />
<rom name="CR2CD (Track 09).bin" size="33817056" crc="a8bc8aca" md5="cfbc0c6fb26f7e1f7bf0b01193613388" sha1="3e6b7d2569e07bb1dd7d17a187e871db4cd7a719" />
<rom name="CR2CD (Track 10).bin" size="34089888" crc="be1b938b" md5="1e9fc8908fb87d188175b8ad849ee960" sha1="2df5aae083d43765362d7574c68b6e3c43c67f25" />
<rom name="CR2CD (Track 11).bin" size="7420560" crc="18ebd3a0" md5="ea08f9f6ca1117ef8eb32ec87e9acd83" sha1="6749837cc595e625de58dc4ca5674167a0e25237" />
<rom name="CR2CD (Track 12).bin" size="3640896" crc="3bed4ff8" md5="bdbbb3f10f1a7bc464e96c0b5476d0d7" sha1="06ad7d365f14b4c7de9a20c43dd40098a036ec34" />
<rom name="CR2CD (Track 13).bin" size="7596960" crc="47f21628" md5="b80e09a4620211789438b0b2742dc354" sha1="c4219e549ac1267df9550ba1c4fec10f4b7c2915" />
<rom name="CR2CD (Track 14).bin" size="4330032" crc="a3cc01f5" md5="dc5f4b8a27c083d9f538a94e4197424f" sha1="33425b8836f71f49ef4956e787367b9f92e7526d" />
<rom name="CR2CD (Track 15).bin" size="33918192" crc="e756f4c3" md5="591e26efea6c68e1466aa34c62a5afcb" sha1="492674847da8a17189ed0d2871b8fb6d8d3cf9c3" />
<rom name="CR2CD (Track 16).bin" size="33951120" crc="ca4582b5" md5="40078842894749d82845cb8b967cd79a" sha1="6af2dc862e4ae1f6f72cd4dfd12144014405d3ad" />
<rom name="CR2CD (Track 17).bin" size="34132224" crc="51e78a61" md5="7475fb8f07854c4d329423500b1dbae9" sha1="b7539c2039eef14d6b1a5eb84414a4561a544047" />
<rom name="CR2CD (Track 18).bin" size="4776912" crc="e4179452" md5="20f673c5408d0411bc55762a54fdb335" sha1="caca10f16d72422862b9deadb6a7c9fbf4d7cdf5" />
<rom name="CR2CD (Track 19).bin" size="33986400" crc="ca815274" md5="28922907ab99e75097d529f7912fa577" sha1="340ecaa26022c6dab633875b0e0476e16a35b8f8" />
<rom name="CR2CD (Track 20).bin" size="25088784" crc="57841c1e" md5="1e991c7ddc7b2747e8a68fbd8b16c097" sha1="16095c82722975963cd9158e99318c9015ad2d64" />
<rom name="CR2CD (Track 21).bin" size="7354704" crc="7c6a0d33" md5="b9fc3d55b39c5771ed75411f755006e7" sha1="16aa2a0ee542ea88ea8214d373ee7e36a8e474a8" />
<rom name="CR2CD (Track 22).bin" size="55217904" crc="8c1e22ab" md5="004fbbc5fff21e5c123cdb13cf305dfc" sha1="9522dd0d37989f3295e21d575982e9f770fc88d9" />
<rom name="CR2CD (Track 23).bin" size="2951760" crc="80169d2a" md5="0fb7c4d9ca00b456ca338712efebd64b" sha1="657edce9f30a7a54f2d362f0e502ef0ba169bf9f" />

    Cuesheet:

FILE "CR2CD (Track 01).bin" BINARY
  TRACK 01 MODE1/2352
    INDEX 01 00:00:00
FILE "CR2CD (Track 02).bin" BINARY
  TRACK 02 AUDIO
    INDEX 00 00:00:00
    INDEX 01 00:02:00
FILE "CR2CD (Track 03).bin" BINARY
  TRACK 03 AUDIO
    INDEX 00 00:00:00
    INDEX 01 00:02:00
FILE "CR2CD (Track 04).bin" BINARY
  TRACK 04 AUDIO
    INDEX 00 00:00:00
    INDEX 01 00:02:00
FILE "CR2CD (Track 05).bin" BINARY
  TRACK 05 AUDIO
    INDEX 00 00:00:00
    INDEX 01 00:02:00
FILE "CR2CD (Track 06).bin" BINARY
  TRACK 06 AUDIO
    INDEX 00 00:00:00
    INDEX 01 00:02:00
FILE "CR2CD (Track 07).bin" BINARY
  TRACK 07 AUDIO
    INDEX 00 00:00:00
    INDEX 01 00:02:00
FILE "CR2CD (Track 08).bin" BINARY
  TRACK 08 AUDIO
    INDEX 00 00:00:00
    INDEX 01 00:02:00
FILE "CR2CD (Track 09).bin" BINARY
  TRACK 09 AUDIO
    INDEX 00 00:00:00
    INDEX 01 00:02:00
FILE "CR2CD (Track 10).bin" BINARY
  TRACK 10 AUDIO
    INDEX 00 00:00:00
    INDEX 01 00:02:00
FILE "CR2CD (Track 11).bin" BINARY
  TRACK 11 AUDIO
    INDEX 00 00:00:00
    INDEX 01 00:02:00
FILE "CR2CD (Track 12).bin" BINARY
  TRACK 12 AUDIO
    INDEX 00 00:00:00
    INDEX 01 00:02:00
FILE "CR2CD (Track 13).bin" BINARY
  TRACK 13 AUDIO
    INDEX 00 00:00:00
    INDEX 01 00:02:00
FILE "CR2CD (Track 14).bin" BINARY
  TRACK 14 AUDIO
    INDEX 00 00:00:00
    INDEX 01 00:02:00
FILE "CR2CD (Track 15).bin" BINARY
  TRACK 15 AUDIO
    INDEX 00 00:00:00
    INDEX 01 00:02:00
FILE "CR2CD (Track 16).bin" BINARY
  TRACK 16 AUDIO
    INDEX 00 00:00:00
    INDEX 01 00:02:00
FILE "CR2CD (Track 17).bin" BINARY
  TRACK 17 AUDIO
    INDEX 00 00:00:00
    INDEX 01 00:02:00
FILE "CR2CD (Track 18).bin" BINARY
  TRACK 18 AUDIO
    INDEX 00 00:00:00
    INDEX 01 00:02:00
FILE "CR2CD (Track 19).bin" BINARY
  TRACK 19 AUDIO
    INDEX 00 00:00:00
    INDEX 01 00:02:00
FILE "CR2CD (Track 20).bin" BINARY
  TRACK 20 AUDIO
    INDEX 00 00:00:00
    INDEX 01 00:02:00
FILE "CR2CD (Track 21).bin" BINARY
  TRACK 21 AUDIO
    INDEX 00 00:00:00
    INDEX 01 00:02:00
FILE "CR2CD (Track 22).bin" BINARY
  TRACK 22 AUDIO
    INDEX 00 00:00:00
    INDEX 01 00:02:00
FILE "CR2CD (Track 23).bin" BINARY
  TRACK 23 AUDIO
    INDEX 00 00:00:00
    INDEX 01 00:02:00

    Write Offset: 2

4

(1 replies, posted in Verifications)

Comments:
Genre: Unit Shooting Game ?

5

(1 replies, posted in Verifications)

Verification of http://redump.org/disc/32436/

Addition mould and PVD needs adding (all NGCD should be checked and the PVD added IMHO).

Common Disc Info:
    Title: Last Resort
    Foreign Title (Non-latin): ラスト・リゾート
    System: SNK Neo Geo CD
    Media Type: CD-ROM
    Category: Games
    Region: Japan
    Languages: Japanese, English
    Disc Serial: NGCD-024

    Ringcode Information:
        Mastering Code (laser branded/etched):     NGCD-024 MT<tab>B01
        Additional Mould: U
    Barcode: T4964808 50036 9
    Error Count: 0
    Comments: (OPTIONAL)
    Contents: (OPTIONAL)

Version and Editions:
    Version: (REQUIRED, IF EXISTS)
    Edition/Release: Original (VERIFY THIS)

Extras:
    Primary Volume Descriptor (PVD):

0320 : 20 20 20 20 20 20 20 20  20 20 20 20 20 31 39 39                199
0330 : 34 30 38 30 37 32 32 33  31 33 33 30 30 00 31 39   4080722313300.19
0340 : 39 34 30 38 30 37 32 32  33 31 33 33 30 30 00 30   94080722313300.0
0350 : 30 30 30 30 30 30 30 30  30 30 30 30 30 30 30 00   000000000000000.
0360 : 31 39 39 34 30 38 30 37  32 32 33 31 33 33 30 30   1994080722313300
0370 : 00 01 00 00 00 00 00 00  00 00 00 00 00 00 00 00   ................

Tracks and Write Offsets:
    DAT:

<rom name="NGCD-024 (Track 01).bin" size="12801936" crc="a7f11b12" md5="d0b0a7c53f7d5070cc9389dcb4fe38e6" sha1="bcc4f2651ca698e84e3c8fe393121b0262ee5d86" />
<rom name="NGCD-024 (Track 02).bin" size="25627392" crc="7b55634e" md5="01df0b89454f9c83d9bfdcf6c141e049" sha1="0f2a3edbb709d6b4ef345b5ae461969e450a2470" />
<rom name="NGCD-024 (Track 03).bin" size="21005712" crc="e8f93573" md5="4c90525e7b3358d5ac4ae447499b4f4f" sha1="c456a95a8b541ed0d92648af9183c4cc58c61216" />
<rom name="NGCD-024 (Track 04).bin" size="40362672" crc="cbdd5b45" md5="2ceedb79fccd8b4bedbb297cf96ccab6" sha1="5674a42b76194b27adaf9a93ba98a6c6853f0bc2" />
<rom name="NGCD-024 (Track 05).bin" size="32709264" crc="ff46e5fe" md5="fd870c58f07315a4082df7b358e03e85" sha1="56c3e87fdeeee1de89b7c040dead316a78936ff5" />
<rom name="NGCD-024 (Track 06).bin" size="38309376" crc="7aac88a3" md5="74dbc214024cc4a06d6fa800ad0d2a19" sha1="d807e2801723443ae4749ca3736ab14afb0b889d" />
<rom name="NGCD-024 (Track 07).bin" size="2627184" crc="6d190692" md5="7822d8cf53ad7bcef7a735427e8d8538" sha1="a48895bed16b4626e1ce0578c95ae54af7b4e262" />
<rom name="NGCD-024 (Track 08).bin" size="4457040" crc="b2c26296" md5="6ae3669018017928b676009219f72012" sha1="d69543cef8569113e2bdef340d9087881e5d4e8e" />
<rom name="NGCD-024 (Track 09).bin" size="4807488" crc="b9d93154" md5="fdb333dd55f817c57838b6701f6a9870" sha1="bee3b2b8395186736b4f9b0bb4a1e37d5205df15" />
<rom name="NGCD-024 (Track 10).bin" size="2984688" crc="efc005d8" md5="27fba2ea6fec437fbcd7d564198d66cc" sha1="41f01af319ff360d89c28cb183516be9e09ce7b7" />
<rom name="NGCD-024 (Track 11).bin" size="25930800" crc="261d0a4b" md5="191d139891a87e396a15a3ea549db181" sha1="12c823a1309bb19a686d41274edecfb383d00082" />
<rom name="NGCD-024 (Track 12).bin" size="32857440" crc="0350ab4b" md5="ea0e46a38bcbf2c9a2e9d2e638236cb8" sha1="efada55f04ddc2d392ce58abadee23805df60bb7" />
<rom name="NGCD-024 (Track 13).bin" size="34687296" crc="9a2d8abf" md5="17761875d8182483ec76626c0617cd27" sha1="8eb4d8f1505ce9baba804b8505586e92f953d472" />
<rom name="NGCD-024 (Track 14).bin" size="5978784" crc="fe738c91" md5="3075401a3315ea408194c6969b83690b" sha1="a53ef28bf64fe00661c79a1bc4d01cb4982d3adc" />
<rom name="NGCD-024 (Track 15).bin" size="30733584" crc="527ee7b3" md5="661d971dac83e6ab998da25a002aa84d" sha1="739db919fb2ebff97942e84ff4c9abf64b480805" />
<rom name="NGCD-024 (Track 16).bin" size="27922944" crc="8117dc4c" md5="1a597e70b73fbeea89ee27df2c3f75d9" sha1="01a92a90f3d11b803c37ab611079433e3b1682e5" />
<rom name="NGCD-024 (Track 17).bin" size="8716512" crc="a5b422ab" md5="95f3bb256910fece254763647c3a4943" sha1="f5e9466acde26dc92d36e54ef97f3d3697727976" />
<rom name="NGCD-024 (Track 18).bin" size="39346608" crc="65a5f7ae" md5="fdd469bbe9ce2ea6639c46811c03422b" sha1="dbce1577a099e907762c43e65c05fb5a05834809" />
<rom name="NGCD-024 (Track 19).bin" size="11378976" crc="fd07b088" md5="12327ba439d2b0d3063d3613e1d40037" sha1="bc34a6c6dfbda261a9acdff8db7a98a6c567aad0" />
<rom name="NGCD-024 (Track 20).bin" size="3238704" crc="b8ff593d" md5="b9b73ceba0d15a7250e772ada3e8217b" sha1="38dac2a93d09bcb818ca483c04a6ff0243952002" />

    Cuesheet:

FILE "NGCD-024 (Track 01).bin" BINARY
  TRACK 01 MODE1/2352
    FLAGS DCP
    INDEX 01 00:00:00
FILE "NGCD-024 (Track 02).bin" BINARY
  TRACK 02 AUDIO
    FLAGS DCP
    INDEX 00 00:00:00
    INDEX 01 00:03:00
FILE "NGCD-024 (Track 03).bin" BINARY
  TRACK 03 AUDIO
    FLAGS DCP
    INDEX 01 00:00:00
FILE "NGCD-024 (Track 04).bin" BINARY
  TRACK 04 AUDIO
    FLAGS DCP
    INDEX 01 00:00:00
FILE "NGCD-024 (Track 05).bin" BINARY
  TRACK 05 AUDIO
    FLAGS DCP
    INDEX 01 00:00:00
FILE "NGCD-024 (Track 06).bin" BINARY
  TRACK 06 AUDIO
    FLAGS DCP
    INDEX 01 00:00:00
FILE "NGCD-024 (Track 07).bin" BINARY
  TRACK 07 AUDIO
    FLAGS DCP
    INDEX 01 00:00:00
FILE "NGCD-024 (Track 08).bin" BINARY
  TRACK 08 AUDIO
    FLAGS DCP
    INDEX 01 00:00:00
FILE "NGCD-024 (Track 09).bin" BINARY
  TRACK 09 AUDIO
    FLAGS DCP
    INDEX 01 00:00:00
FILE "NGCD-024 (Track 10).bin" BINARY
  TRACK 10 AUDIO
    FLAGS DCP
    INDEX 01 00:00:00
FILE "NGCD-024 (Track 11).bin" BINARY
  TRACK 11 AUDIO
    FLAGS DCP
    INDEX 01 00:00:00
FILE "NGCD-024 (Track 12).bin" BINARY
  TRACK 12 AUDIO
    FLAGS DCP
    INDEX 01 00:00:00
FILE "NGCD-024 (Track 13).bin" BINARY
  TRACK 13 AUDIO
    FLAGS DCP
    INDEX 01 00:00:00
FILE "NGCD-024 (Track 14).bin" BINARY
  TRACK 14 AUDIO
    FLAGS DCP
    INDEX 01 00:00:00
FILE "NGCD-024 (Track 15).bin" BINARY
  TRACK 15 AUDIO
    FLAGS DCP
    INDEX 01 00:00:00
FILE "NGCD-024 (Track 16).bin" BINARY
  TRACK 16 AUDIO
    FLAGS DCP
    INDEX 01 00:00:00
FILE "NGCD-024 (Track 17).bin" BINARY
  TRACK 17 AUDIO
    FLAGS DCP
    INDEX 01 00:00:00
FILE "NGCD-024 (Track 18).bin" BINARY
  TRACK 18 AUDIO
    FLAGS DCP
    INDEX 01 00:00:00
FILE "NGCD-024 (Track 19).bin" BINARY
  TRACK 19 AUDIO
    FLAGS DCP
    INDEX 01 00:00:00
FILE "NGCD-024 (Track 20).bin" BINARY
  TRACK 20 AUDIO
    FLAGS DCP
    INDEX 01 00:00:00

    Write Offset: 2

Logs:
https://mega.nz/#!yxlnEYga!Wtz84Z3oDLdf … lYkN-X5I9E

6

(0 replies, posted in New Dumps)

Title: Border Break
System: Sega RingEdge
Media Type: DVD-ROM-5
Category: Games
Region:Japan
Languages: zero way of checking but Japanese for sure (it's home region)
Disc Serial: DVR-0001
Ringcode Information:
    Mastering Code (laser branded/etched): DVR-0001<tab>OP0972B
    Mastering SID Code: IFPI L305
    Data-Side Mould SID Code: IFPI 4885
Barcode:
Comments:
Contents:
Version:
Edition/Release: Original
Primary Volume Descriptor (PVD):


DAT:

<rom name="BorderBreak.iso" size="3470262272" crc="745f5ad9" md5="b99095971f99a33e5757ebfe12e3a254" sha1="e7d2351698e35e3bfc29803b8c48a8d542ea81f2" />


Pretty sure these Ringedge discs are just Libcrypt / TruCrypt containers so, well, they're useless in their current form but meh, here it is anyway.

Very much Linked with the following:

Border Break No.1  http://forum.redump.org/topic/22798/
Border Break No.2  http://forum.redump.org/post/70604/


Logs attached.

7

(1 replies, posted in New Dumps)

if anyone can help with more accurate non-latin titles then please do.

8

(1 replies, posted in New Dumps)

OK, so,  some of these have some very questionable content and are not specifically game related but are very much part of the 3DO library.

####################################

Common Disc Info:
    Title: Shimada Youko - Quatre Katoru
    Foreign Title (Non-latin):   ?
    System: Photo CD
    Media Type: CD-ROM
    Category: Multimedia
    Region: Japan
    Languages: Japanese
    Disc Serial:  FZ-JJ1YP0501

    Ringcode Information:
        Mastering Code (laser branded/etched): FZ-JJ1YP0501 MT<tab>B01
        Mastering SID Code: IFPI L262
        Additional Mould: Q
        Toolstamp or Mastering Code (engraved/stamped): (REQUIRED, IF EXISTS)
    Barcode: 4 984824 069008
    Error Count:


Version and Editions:
    Version: (REQUIRED, IF EXISTS)
    Edition/Release: Original

Extras:
    Primary Volume Descriptor (PVD):

0320 : 20 20 20 20 20 20 20 20  20 20 20 20 20 31 39 39                199
0330 : 34 31 31 32 34 31 35 30  36 35 39 30 30 24 31 39   4112415065900$19
0340 : 39 34 31 31 32 34 31 35  30 36 35 39 30 30 24 30   94112415065900$0
0350 : 30 30 30 30 30 30 30 30  30 30 30 30 30 30 30 00   000000000000000.
0360 : 31 39 39 34 31 31 32 34  31 35 30 36 35 39 30 30   1994112415065900
0370 : 24 01 00 00 00 00 00 00  00 00 00 00 00 00 00 00   $...............

Tracks and Write Offsets:
    DAT:

<rom name="PCD0640 (Track 1).bin" size="710304" crc="7486a4ba" md5="43444d05d9233c364be108a31d68f107" sha1="fc9de651396afb4c22c96316c811becdfd187836" />
<rom name="PCD0640 (Track 2).bin" size="70087248" crc="63edb4bc" md5="9920046916d12cfe6833b0fd91e51e1c" sha1="9014569ca1686cf52106afa8b78ac2292a5df5ad" />
<rom name="PCD0640 (Track 3).bin" size="84192192" crc="334f0c6c" md5="4b7d59d9487d057136a38f859f64f4b5" sha1="c24f54f70e4c21a416816fc6eff95d4590b7b976" />

    Cuesheet:

FILE "PCD0640 (Track 1).bin" BINARY
  TRACK 01 MODE2/2352
    INDEX 01 00:00:00
FILE "PCD0640 (Track 2).bin" BINARY
  TRACK 02 MODE2/2352
    INDEX 00 00:00:00
    INDEX 01 00:02:00
FILE "PCD0640 (Track 3).bin" BINARY
  TRACK 03 AUDIO
    INDEX 00 00:00:00
    INDEX 01 00:03:00

    Write Offset: 2

[INFO] Number of sector(s) where EDC doesn't exist: 154


####################################

Common Disc Info:
    Title: Dazzling - Hara Kumiko
    Foreign Title (Non-latin): 原久美子 DAZZLING
    System: Photo CD
    Media Type: CD-ROM
    Category: Multimedia
    Region: Japan
    Languages: Japanese
    Disc Serial: FZ-JJ1YP0502

    Ringcode Information:
        Mastering Code (laser branded/etched): FZ-JJ1YP0502 MT<tab>B01
        Mastering SID Code: IFPI L262
        Additional Mould: U
    Barcode:
    Error Count: 0
    Comments: (OPTIONAL)
    Contents: (OPTIONAL)

Version and Editions:
    Version: (REQUIRED, IF EXISTS)
    Edition/Release: Original (VERIFY THIS)

Extras:
    Primary Volume Descriptor (PVD):

0320 : 20 20 20 20 20 20 20 20  20 20 20 20 20 31 39 39                199
0330 : 34 31 31 31 35 31 30 32  31 32 34 30 30 24 31 39   4111510212400$19
0340 : 39 34 31 31 31 35 31 30  32 31 32 34 30 30 24 30   94111510212400$0
0350 : 30 30 30 30 30 30 30 30  30 30 30 30 30 30 30 00   000000000000000.
0360 : 31 39 39 34 31 31 31 35  31 30 32 31 32 34 30 30   1994111510212400
0370 : 24 01 00 00 00 00 00 00  00 00 00 00 00 00 00 00   $...............

Tracks and Write Offsets:
    DAT:

<rom name="PCD0952 (Track 1).bin" size="710304" crc="5e1a7584" md5="f39bfc365a269b2b9c1aa2685c1520bc" sha1="56cafc754a857f3fcd848cc5069ba928ea22d8a5" />
<rom name="PCD0952 (Track 2).bin" size="74814768" crc="031af76a" md5="ee5334292b0b09c3a9e5b218bcff1466" sha1="8b025c29c484a9c0440e1324c0ed6556471ab32d" />
<rom name="PCD0952 (Track 3).bin" size="90584928" crc="90a83447" md5="6f716654be5bb696a5ba469275fb176e" sha1="455882b39f56cf3ed882fae32fb62808ab5ea842" />

    Cuesheet:

FILE "PCD0952 (Track 1).bin" BINARY
  TRACK 01 MODE2/2352
    INDEX 01 00:00:00
FILE "PCD0952 (Track 2).bin" BINARY
  TRACK 02 MODE2/2352
    INDEX 00 00:00:00
    INDEX 01 00:02:00
FILE "PCD0952 (Track 3).bin" BINARY
  TRACK 03 AUDIO
    INDEX 00 00:00:00
    INDEX 01 00:03:00

    Write Offset: 2

[INFO] Number of sector(s) where EDC doesn't exist: 154


#######################################


Common Disc Info:
    Title: Profile of The Great F1 Driver - Alain Prost - Alain Prost Professor no Shouzou
    Foreign Title (Non-latin): アラン・プロスト プロフェッサーの肖像
    System: Photo CD
    Media Type: CD-ROM
    Category: Multimedia
    Region: Japan
    Languages: Japanese
    Disc Serial: FZ-YPE0302

    Ringcode Information:
        Mastering Code (laser branded/etched): OP-6257<tab>FZ-YPE0302<tab>1M1
        Mastering SID Code: IFPI L223
    Barcode:
    Error Count: 75


Version and Editions:
    Version:
    Edition/Release: Original

Extras:
    Primary Volume Descriptor (PVD):

0320 : 20 20 20 20 20 20 20 20  20 20 20 20 20 31 39 39                199
0330 : 35 30 31 32 34 31 32 34  32 31 35 30 30 24 31 39   5012412421500$19
0340 : 39 35 30 31 32 34 31 32  34 32 31 35 30 30 24 30   95012412421500$0
0350 : 30 30 30 30 30 30 30 30  30 30 30 30 30 30 30 00   000000000000000.
0360 : 31 39 39 35 30 31 32 34  31 32 34 32 31 35 30 30   1995012412421500
0370 : 24 01 00 00 00 00 00 00  00 00 00 00 00 00 00 00   $...............

Tracks and Write Offsets:
    DAT:

<rom name="PCD0979 (Track 1).bin" size="710304" crc="e39f56fe" md5="aafc2c5ed27654ffba9cac773d5b88fa" sha1="03ced1fbac87c12d3a9ed4c8cf09078ed918c636" />
<rom name="PCD0979 (Track 2).bin" size="114518880" crc="fd4b5bd1" md5="20c2df8a87e0bdd889c4867bbb40fb87" sha1="f8426c3f18417e37b1f8221b0a1f5d3b06af4f32" />
<rom name="PCD0979 (Track 3).bin" size="231366240" crc="67e382b3" md5="59df13af8c875faa4b0f1b7d407e4e9b" sha1="14ad8cb218483ded6ab81da4c431fc8eff2edd88" />

    Cuesheet:

CATALOG 0000000000000
FILE "PCD0979 (Track 1).bin" BINARY
  TRACK 01 MODE2/2352
    INDEX 01 00:00:00
FILE "PCD0979 (Track 2).bin" BINARY
  TRACK 02 MODE2/2352
    INDEX 00 00:00:00
    INDEX 01 00:02:00
FILE "PCD0979 (Track 3).bin" BINARY
  TRACK 03 AUDIO
    INDEX 00 00:00:00
    INDEX 01 00:03:00

    Write Offset: 222

[ERROR] Number of sector(s) where mode2 NoEdc subheader(0x10 - 0x17) isn't same: 75


#############################################


Common Disc Info:
    Title: Profile of The Great F1 Driver - Ayrton Senna - Ayrton Senna no Shinjitsu
    Foreign Title (Non-latin):  アイルトン・セナの真実
    System: Photo CD
    Media Type: CD-ROM
    Category: Multimedia
    Region: Japan
    Languages: Japanese
    Disc Serial: FZ-YPE0301

    Ringcode Information:
        Mastering Code (laser branded/etched): SPPFNS001

    Barcode: T4984824064287
    Error Count: 75

Version and Editions:
    Version:
    Edition/Release: Original

Extras:
    Primary Volume Descriptor (PVD):

0320 : 20 20 20 20 20 20 20 20  20 20 20 20 20 31 39 39                199
0330 : 34 31 30 30 36 31 33 34  35 33 35 30 30 24 31 39   4100613453500$19
0340 : 39 34 31 30 30 36 31 33  34 35 33 35 30 30 24 30   94100613453500$0
0350 : 30 30 30 30 30 30 30 30  30 30 30 30 30 30 30 00   000000000000000.
0360 : 31 39 39 34 31 30 30 36  31 33 34 35 33 35 30 30   1994100613453500
0370 : 24 01 00 00 00 00 00 00  00 00 00 00 00 00 00 00   $...............

Tracks and Write Offsets:
    DAT:

<rom name="PCD1845 (Track 1).bin" size="710304" crc="68f88f2d" md5="6a7ca765bc16338078f2cb0aaacb74e9" sha1="f73a78f069cbb44b36e5e4befc232e2753cb244a" />
<rom name="PCD1845 (Track 2).bin" size="117355392" crc="2d7c78bc" md5="940a3bb5cf2017dc5ff48afab654ef4f" sha1="68d4b1ac8e7283caa0660070c0785fc3c4cb898e" />
<rom name="PCD1845 (Track 3).bin" size="178022880" crc="b5963ef8" md5="3d7b727f0507dc68a01a60ea46998496" sha1="312d8739ceb7bdf9e2a6e27d82c19453df0d47ff" />

    Cuesheet:

CATALOG 0000000000000
FILE "PCD1845 (Track 1).bin" BINARY
  TRACK 01 MODE2/2352
    INDEX 01 00:00:00
FILE "PCD1845 (Track 2).bin" BINARY
  TRACK 02 MODE2/2352
    INDEX 00 00:00:00
    INDEX 01 00:02:00
FILE "PCD1845 (Track 3).bin" BINARY
  TRACK 03 AUDIO
    INDEX 00 00:00:00
    INDEX 01 00:03:00

    Write Offset: 0

[ERROR] Number of sector(s) where mode2 NoEdc subheader(0x10 - 0x17) isn't same: 75


############################################


Common Disc Info:
    Title: Etsuko Nishio & Hajime Sawatari - Finger
    Foreign Title (Non-latin): フィンガー / 西尾悦子
    System: Photo CD
    Media Type: CD-ROM
    Category: Multimedia
    Region: Japan
    Languages: Japanese
    Disc Serial: FZ-JJ1YP0101

    Ringcode Information:
        Mastering Code (laser branded/etched): 4I13-4

    Barcode:
    Error Count: 225


Version and Editions:
    Version:
    Edition/Release: Original

Extras:
    Primary Volume Descriptor (PVD):

0320 : 20 20 20 20 20 20 20 20  20 20 20 20 20 31 39 39                199
0330 : 34 30 39 30 39 31 30 30  35 31 37 30 30 24 31 39   4090910051700$19
0340 : 39 34 30 39 30 39 31 30  30 35 31 37 30 30 24 30   94090910051700$0
0350 : 30 30 30 30 30 30 30 30  30 30 30 30 30 30 30 00   000000000000000.
0360 : 31 39 39 34 30 39 30 39  31 30 30 35 31 37 30 30   1994090910051700
0370 : 24 01 00 00 00 00 00 00  00 00 00 00 00 00 00 00   $...............

Tracks and Write Offsets:
    DAT:

<rom name="PCD9999 (Track 1).bin" size="710304" crc="bdbfdb82" md5="53fc24530814726d5aeeca540c333419" sha1="28d28afa85d5c62c5b39bdb7446d1914302123dc" />
<rom name="PCD9999 (Track 2).bin" size="166521600" crc="0e619339" md5="dce2b9a0dede47bdc3743faa650e8b39" sha1="787b9c1cf1c266934129b21dccd661bc1cbbf522" />
<rom name="PCD9999 (Track 3).bin" size="72011184" crc="e21947c0" md5="9c3e6e368620f5c7b4ef61e7160e7183" sha1="256d802d8f29eb5ebe601c43d69862da628fcd93" />

    Cuesheet:

CATALOG 0000000000000
FILE "PCD9999 (Track 1).bin" BINARY
  TRACK 01 MODE2/2352
    INDEX 01 00:00:00
FILE "PCD9999 (Track 2).bin" BINARY
  TRACK 02 MODE2/2352
    INDEX 00 00:00:00
    INDEX 01 00:02:00
FILE "PCD9999 (Track 3).bin" BINARY
  TRACK 03 AUDIO
    INDEX 00 00:00:00
    INDEX 01 00:03:00

    Write Offset: 0

[ERROR] Number of sector(s) where mode2 NoEdc subheader(0x10 - 0x17) isn't same: 75
[ERROR] Number of sector(s) where sync(0x00 - 0x0c) is zero: 150

new logs attached - using latest version of DICUI with DIC Version:

x86, AnsiBuild, 20190629 193630

F1ReB4LL wrote:

And, again, you've used the older DIC version, it should be dumped with the 20190627 one or newer to have the title keys included.

smile   that's because i'm special. Will dump it again tonight

And so continues the backlog of dumping:

Logs attached

Title: Shin Megami Tensei III NOCTURNE Special DVD
non Latin title:  真・女神転生III NOCTURNE Special DVD
System: DVD-Video
Media Type: DVD-ROM-5
Category: ? bonus discs?
Region: Japan
Languages: Japanese
Disc Serial:
Ringcode Information:
    Mastering Code (laser branded/etched): ATLUS-HA-02-002<tab>-RCD02-
    Mastering SID Code: IFPI L264

Barcode: (OPTIONAL)
Comments: Bundled with <?>
Contents: (OPTIONAL)
Version: (REQUIRED, IF EXISTS)
Edition/Release: Presumably Bundled with [PS2??] Special Edition?
Primary Volume Descriptor (PVD):

0320 : 20 20 20 20 20 20 20 20  20 20 20 20 20 32 30 30                200
0330 : 32 31 31 32 37 31 32 32  32 31 33 30 30 24 30 30   2112712221300$00
0340 : 30 30 30 30 30 30 30 30  30 30 30 30 30 30 00 30   00000000000000.0
0350 : 30 30 30 30 30 30 30 30  30 30 30 30 30 30 30 00   000000000000000.
0360 : 30 30 30 30 30 30 30 30  30 30 30 30 30 30 30 30   0000000000000000
0370 : 00 01 00 00 00 00 00 00  00 00 00 00 00 00 00 00   ................

Copy Protection:

Region: 2
Copyright Protection System Type: CSS/CPPM
Encrypted Disc Key: 1A 69 DA E2 D6
Player Key: 01 AF E3 12 80
Decrypted Disc Key: 03 3A F2 D5 A1

DAT:

<rom name="MEGAMI_TOKUTEN_SCN.iso" size="1120831488" crc="c99eacfc" md5="03d8617a7fed731c251da988ff72ca97" sha1="c7603b20c467cdd6912d795752e1457e5235e0dd" />

12

(30 replies, posted in General discussion)

wow, nice work, that does work really quickly too.

https://i.ibb.co/MsQch5X/xbox.png

That's a massive space saving.

13

(22 replies, posted in General discussion)

Nexy wrote:

Because it's META DATA and has nothing to do with the title name. All this crap should be kept in a separate file, json or xml or something.

I don't care at all about your p2p sharing and "sets" as all that stuff is not at all important to this projects goals. If you can't organize files by region yourself, that's your issue and nothing to do with preservation.


Aggressive much?

14

(22 replies, posted in General discussion)

Actually IMO:   Just as important as the integration of the Bonus discs in the DAT is the integration of metadata like the SBI files for the PSX DAT.

15

(22 replies, posted in General discussion)

Nexy wrote:

I personally never liked the languages or regions in the name.

I don't get how you think that would work.

http://redump.org/disc/633/
http://redump.org/disc/6858/
http://redump.org/disc/18697/
http://redump.org/disc/17273/

Would all just be named  "007 Racing"

anyway, back on topic

I fully agree that as it stands these discs absolutely need to have the originating system somehow defined in the Filename:
it is the quickest and easiest way to collate them.

the question is, from the sound of it, how to link them in the DB. (other than in the comments which obviously doesn't work for DAT functionality)
IF we go with the option of including Bonus discs in the system DATs (assuming they are linked somehow with one or more 'Parent' discs in the DB) what happens when there are discs from multiple regions have the exact same Bonus Disc,  What is the logic used?.

Eg:

Playstation2.game (Germany) (Special Edition)
Playstation2.game (France) (Special Edition)
Playstation2.game (Spain) (Special Edition)
Playstation2.game (Italy) (Special Edition)
Playstation2.game (United Kingdom) (Special Edition)

The bonus DVD Would be named presumably:

Playstation2.game (Europe) (Bonus DVD) (Bundled with Special Edition)

Which original becomes the parent?

and how do they become included in multiple DATs when the bonus discs matches accross systems and regions:
(I can't find any examples from a quick search, so this is a massive hypothetical) but for example:

say

Playstation2.game (Germany) (Special Edition)
Playstation2.game (France) (Special Edition)
Playstation2.game (Spain) (Special Edition)
Playstation2.game (Italy) (Special Edition)
Playstation2.game (United Kingdom) (Special Edition)
Xbox.game (Germany) (Special Edition)
Xbox.game (France) (Special Edition)
Xbox.game (Spain) (Special Edition)
Xbox.game (Italy) (Special Edition)
Xbox.game (United Kingdom) (Special Edition)
Gamecube.game (Germany) (Special Edition)
Gamecube.game (France) (Special Edition)
Gamecube.game (Spain) (Special Edition)
Gamecube.game (Italy) (Special Edition)
Gamecube.game (United Kingdom) (Special Edition)

all come with the very same Region 2 Bonus DVD

What does that DVD get named? and how is it included with the system DATs ?




Is the option to just include comments and Metadata in the DATs or keep them as is but add a lot more information to the comments section?  should you have to refer the the website to find this information out?

16

(2,065 replies, posted in General discussion)

Extract the track as raw data(2352) in ISObuster that should match the DIC output with all the ECC etc (rather than just the user data)

ask away. i might learn something too smile

Personally, all my dumps are all kept in their original bin format, Checked against the DAT,  renamed, tzipped and organized by RomVault.
Whilst tzip probably doesn't achieve the highest compression rate, it is certainly a lot faster than 7z or other methods.
A lot of emulators will allow you to open the zip directly too (although i don't know if that applies to current PSX emulators).

Logs attached

Title: Border Break(No.2)

System: Sega RingEdge
Media Type: DVD-ROM-9
Category: Games
Region: Japan
Languages: Japanese
Disc Serial: CDV-35053
Ringcode Information:
    Outer Mastering Code (laser branded/etched):  CDV-35053/1 MT 562
    Inner Mastering Code (laser branded/etched): CDV-35053/0 MT 561
    Outer Mastering SID Code: IFPI L155
    Inner Mastering SID Code: IFPI L155
    Data-Side Mould SID Code: IFPI 44DC
Barcode: (OPTIONAL)
Comments: (OPTIONAL)
Contents: (OPTIONAL)
Version: (REQUIRED, IF EXISTS)
Edition/Release: Original (VERIFY THIS)
Layerbreak: 1364800
Primary Volume Descriptor (PVD):

0320 : 20 20 20 20 20 20 20 20  20 20 20 20 20 30 30 30                000
0330 : 30 30 30 30 30 30 30 30  30 30 30 30 30 00 30 30   0000000000000.00
0340 : 30 30 30 30 30 30 30 30  30 30 30 30 30 30 00 30   00000000000000.0
0350 : 30 30 30 30 30 30 30 30  30 30 30 30 30 30 30 00   000000000000000.
0360 : 30 30 30 30 30 30 30 30  30 30 30 30 30 30 30 30   0000000000000000
0370 : 00 01 00 20 20 20 20 20  20 20 20 20 20 20 20 20   ...             

DAT:

<rom name="BB2.iso" size="5590220800" crc="4eecebf4" md5="69f55c757c92432a86108a71071f5950" sha1="ca9fe883a865c265f533aab9f811867f0fcb0d00" />

Logs attached

Title: Border Break(No.1)

System: Sega RingEdge
Media Type: DVD-ROM-9
Category: Games
Region: Japan
Languages: Japanese
Disc Serial: DVR-5053
Ringcode Information:
    Outer Mastering Code (laser branded/etched):  DVR-5053/1 MT 564
    Inner Mastering Code (laser branded/etched): DVR-5053/0 MT 561
    Outer Mastering SID Code: IFPI LT47
    Inner Mastering SID Code: IFPI LT47
    Data-Side Mould SID Code: IFPI 44DC
Barcode: (OPTIONAL)
Comments: (OPTIONAL)
Contents: (OPTIONAL)
Version: (REQUIRED, IF EXISTS)
Edition/Release: Original (VERIFY THIS)
Layerbreak: 2084960
Primary Volume Descriptor (PVD):


DAT:

<rom name="BB1.iso" size="8479768576" crc="d71c0bb5" md5="84ae0956bd085c2467bf77659d0d23eb" sha1="fe4d73f17ffaf44fa625d0aed3f9ad3696dd64ee" />

Logs from mine:  (Sega Screams Vol 1)
those tracks are indeed empty.

https://mega.nz/#!exEmHARI!_Aoi1EfFFhpC … wycNU6E304

ok, last follow up, it's 3AM here.

the img files match the combined CRC from the dumps page.

see attached image.

Obviously that's for batch conversion.
syntax to just do a single image would just be:

sbitools.exe -cue2ccd  <path to cue file>

It's worth noting that you should probably delete the LSD patches folder (or the contents thereof) before starting just in case a filename clashes with a PSX image filename.

Theres a couple of ways of scripting this


by far the easiest would be to use SBITools.
It should work perfectly for this purpose.

https://github.com/Kippykip/SBITools/releases

you could script it using forfiles.   (you could try a for loop but the spaces in the filenames will be a complete ballache to escape)

Something along the lines of (in this example I have a few cue/bin images extracted in one folder and have placed sbitools in the same folder. )


forfiles /M "*.cue" /C "cmd /C sbitools.exe -cue2ccd @file"

the output was: (apologies its a bit lengthy)

Z:\Saturn Extracted>forfiles /M "*.cue" /C "cmd /C sbitools.exe -cue2ccd @file"

SBITools v0.3.1 - http://kippykip.com
Split Track CUE image detected! Merging...
Exporting to: 'CCD\2Tax Gold (Japan).SUB'.
Directory 'CCD' doesn't exist! Creating...
Directory 'CCD\2Tax Gold (Japan)' doesn't exist! Creating...
Creating CCD file
Writing CCD headers
Writing CCD Entries
Writing TRACK info
Done writing CCD!
Merging image (This will take a moment)
Stitching '2TAX GOLD (JAPAN) (TRACK 01).BIN'.
Stitching '2TAX GOLD (JAPAN) (TRACK 02).BIN'.
Stitching '2TAX GOLD (JAPAN) (TRACK 03).BIN'.
Stitching '2TAX GOLD (JAPAN) (TRACK 04).BIN'.
Stitching '2TAX GOLD (JAPAN) (TRACK 05).BIN'.
Stitching '2TAX GOLD (JAPAN) (TRACK 06).BIN'.
Stitching '2TAX GOLD (JAPAN) (TRACK 07).BIN'.
Stitching '2TAX GOLD (JAPAN) (TRACK 08).BIN'.
Stitching '2TAX GOLD (JAPAN) (TRACK 09).BIN'.
Stitching '2TAX GOLD (JAPAN) (TRACK 10).BIN'.
Stitching '2TAX GOLD (JAPAN) (TRACK 11).BIN'.
Stitching '2TAX GOLD (JAPAN) (TRACK 12).BIN'.
Stitching '2TAX GOLD (JAPAN) (TRACK 13).BIN'.
Stitching '2TAX GOLD (JAPAN) (TRACK 14).BIN'.
Stitching '2TAX GOLD (JAPAN) (TRACK 15).BIN'.
Stitching '2TAX GOLD (JAPAN) (TRACK 16).BIN'.
Stitching '2TAX GOLD (JAPAN) (TRACK 17).BIN'.
Stitching '2TAX GOLD (JAPAN) (TRACK 18).BIN'.
Stitching '2TAX GOLD (JAPAN) (TRACK 19).BIN'.
Stitching '2TAX GOLD (JAPAN) (TRACK 20).BIN'.
Stitching '2TAX GOLD (JAPAN) (TRACK 21).BIN'.
Stitching '2TAX GOLD (JAPAN) (TRACK 22).BIN'.
Stitching '2TAX GOLD (JAPAN) (TRACK 23).BIN'.
Stitching '2TAX GOLD (JAPAN) (TRACK 24).BIN'.
Stitching '2TAX GOLD (JAPAN) (TRACK 25).BIN'.
Stitching '2TAX GOLD (JAPAN) (TRACK 26).BIN'.
Stitching '2TAX GOLD (JAPAN) (TRACK 27).BIN'.
Stitching '2TAX GOLD (JAPAN) (TRACK 28).BIN'.
Stitching '2TAX GOLD (JAPAN) (TRACK 29).BIN'.
Stitching '2TAX GOLD (JAPAN) (TRACK 30).BIN'.
Stitching '2TAX GOLD (JAPAN) (TRACK 31).BIN'.
Stitching '2TAX GOLD (JAPAN) (TRACK 32).BIN'.
Stitching '2TAX GOLD (JAPAN) (TRACK 33).BIN'.
Stitching '2TAX GOLD (JAPAN) (TRACK 34).BIN'.
Stitching '2TAX GOLD (JAPAN) (TRACK 35).BIN'.
Stitching '2TAX GOLD (JAPAN) (TRACK 36).BIN'.
Stitching '2TAX GOLD (JAPAN) (TRACK 37).BIN'.
Stitching '2TAX GOLD (JAPAN) (TRACK 38).BIN'.
Stitching '2TAX GOLD (JAPAN) (TRACK 39).BIN'.
Stitching '2TAX GOLD (JAPAN) (TRACK 40).BIN'.
Finished merging split track image!
Creating modified CUE
Done writing CUE!
Generating blank .SUB with psxt001z
Could not find '2Tax Gold (Japan).sbi'! Skipping...
Could not find '2Tax Gold (Japan).lsd'! Skipping...
LibCrypt .SBI/.LSD patches not found in CUE directory! Ignoring .SUB patching...
Adding CD Audio track data to subchannel
Adding '2 second lead-in' for Track: 2
Adding timecode data for Track: 2
Adding '2 second lead-in' for Track: 3
Adding timecode data for Track: 3
Adding '2 second lead-in' for Track: 4
Adding timecode data for Track: 4
Adding '2 second lead-in' for Track: 5
Adding timecode data for Track: 5
Adding '2 second lead-in' for Track: 6
Adding timecode data for Track: 6
Adding '2 second lead-in' for Track: 7
Adding timecode data for Track: 7
Adding '2 second lead-in' for Track: 8
Adding timecode data for Track: 8
Adding '2 second lead-in' for Track: 9
Adding timecode data for Track: 9
Adding '2 second lead-in' for Track: 10
Adding timecode data for Track: 10
Adding '2 second lead-in' for Track: 11
Adding timecode data for Track: 11
Adding '2 second lead-in' for Track: 12
Adding timecode data for Track: 12
Adding '2 second lead-in' for Track: 13
Adding timecode data for Track: 13
Adding '2 second lead-in' for Track: 14
Adding timecode data for Track: 14
Adding '2 second lead-in' for Track: 15
Adding timecode data for Track: 15
Adding '2 second lead-in' for Track: 16
Adding timecode data for Track: 16
Adding '2 second lead-in' for Track: 17
Adding timecode data for Track: 17
Adding '2 second lead-in' for Track: 18
Adding timecode data for Track: 18
Adding '2 second lead-in' for Track: 19
Adding timecode data for Track: 19
Adding '2 second lead-in' for Track: 20
Adding timecode data for Track: 20
Adding '2 second lead-in' for Track: 21
Adding timecode data for Track: 21
Adding '2 second lead-in' for Track: 22
Adding timecode data for Track: 22
Adding '2 second lead-in' for Track: 23
Adding timecode data for Track: 23
Adding '2 second lead-in' for Track: 24
Adding timecode data for Track: 24
Adding '2 second lead-in' for Track: 25
Adding timecode data for Track: 25
Adding '2 second lead-in' for Track: 26
Adding timecode data for Track: 26
Adding '2 second lead-in' for Track: 27
Adding timecode data for Track: 27
Adding '2 second lead-in' for Track: 28
Adding timecode data for Track: 28
Adding '2 second lead-in' for Track: 29
Adding timecode data for Track: 29
Adding '2 second lead-in' for Track: 30
Adding timecode data for Track: 30
Adding '2 second lead-in' for Track: 31
Adding timecode data for Track: 31
Adding '2 second lead-in' for Track: 32
Adding timecode data for Track: 32
Adding '2 second lead-in' for Track: 33
Adding timecode data for Track: 33
Adding '2 second lead-in' for Track: 34
Adding timecode data for Track: 34
Adding '2 second lead-in' for Track: 35
Adding timecode data for Track: 35
Adding '2 second lead-in' for Track: 36
Adding timecode data for Track: 36
Adding '2 second lead-in' for Track: 37
Adding timecode data for Track: 37
Adding '2 second lead-in' for Track: 38
Adding timecode data for Track: 38
Adding '2 second lead-in' for Track: 39
Adding timecode data for Track: 39
Adding '2 second lead-in' for Track: 40
Adding timecode data for Track: 40
Finished adding CD Audio subchannel data!
Done converting!
Everything exported to: 'CCD\2Tax Gold (Japan)\'
SBITools v0.3.1 - http://kippykip.com
Split Track CUE image detected! Merging...
Exporting to: 'CCD\3D Baseball - The Majors (Japan).SUB'.
Directory 'CCD\3D Baseball - The Majors (Japan)' doesn't exist! Creating...
Creating CCD file
Writing CCD headers
Writing CCD Entries
Writing TRACK info
Done writing CCD!
Merging image (This will take a moment)
Stitching '3D BASEBALL - THE MAJORS (JAPAN) (TRACK 1).BIN'.
Stitching '3D BASEBALL - THE MAJORS (JAPAN) (TRACK 2).BIN'.
Finished merging split track image!
Creating modified CUE
Done writing CUE!
Generating blank .SUB with psxt001z
Could not find '3D Baseball - The Majors (Japan).sbi'! Skipping...
Could not find '3D Baseball - The Majors (Japan).lsd'! Skipping...
LibCrypt .SBI/.LSD patches not found in CUE directory! Ignoring .SUB patching...
Adding CD Audio track data to subchannel
Adding '2 second lead-in' for Track: 2
Adding timecode data for Track: 2
Finished adding CD Audio subchannel data!
Done converting!
Everything exported to: 'CCD\3D Baseball - The Majors (Japan)\'
SBITools v0.3.1 - http://kippykip.com
Split Track CUE image detected! Merging...
Exporting to: 'CCD\2do Aru Koto wa Sando R (Japan).SUB'.
Directory 'CCD\2do Aru Koto wa Sando R (Japan)' doesn't exist! Creating...
Creating CCD file
Writing CCD headers
Writing CCD Entries
Writing TRACK info
Done writing CCD!
Merging image (This will take a moment)
Stitching '2DO ARU KOTO WA SANDO R (JAPAN) (TRACK 1).BIN'.
Stitching '2DO ARU KOTO WA SANDO R (JAPAN) (TRACK 2).BIN'.
Finished merging split track image!
Creating modified CUE
Done writing CUE!
Generating blank .SUB with psxt001z
Could not find '2do Aru Koto wa Sando R (Japan).sbi'! Skipping...
Could not find '2do Aru Koto wa Sando R (Japan).lsd'! Skipping...
LibCrypt .SBI/.LSD patches not found in CUE directory! Ignoring .SUB patching...
Adding CD Audio track data to subchannel
Adding '2 second lead-in' for Track: 2
Adding timecode data for Track: 2
Finished adding CD Audio subchannel data!
Done converting!
Everything exported to: 'CCD\2do Aru Koto wa Sando R (Japan)\'
SBITools v0.3.1 - http://kippykip.com
Split Track CUE image detected! Merging...
Exporting to: 'CCD\3D Baseball (USA).SUB'.
Directory 'CCD\3D Baseball (USA)' doesn't exist! Creating...
Creating CCD file
Writing CCD headers
Writing CCD Entries
Writing TRACK info
Done writing CCD!
Merging image (This will take a moment)
Stitching '3D BASEBALL (USA) (TRACK 1).BIN'.
Stitching '3D BASEBALL (USA) (TRACK 2).BIN'.
Finished merging split track image!
Creating modified CUE
Done writing CUE!
Generating blank .SUB with psxt001z
Could not find '3D Baseball (USA).sbi'! Skipping...
Could not find '3D Baseball (USA).lsd'! Skipping...
LibCrypt .SBI/.LSD patches not found in CUE directory! Ignoring .SUB patching...
Adding CD Audio track data to subchannel
Adding '2 second lead-in' for Track: 2
Adding timecode data for Track: 2
Finished adding CD Audio subchannel data!
Done converting!
Everything exported to: 'CCD\3D Baseball (USA)\'

Z:\Saturn Extracted>

the result was a new subfolder called CCD was created, in which is a IMG/CCD/SUB/CUE image created from the redump images.

try it out, you will see what I mean.

25

(17 replies, posted in General discussion)

@AMOK.

Might be worth having a look at the code that combines the ~CRC32 values if iR0bo0t is willing to share or writing something from scratch, pretty sure it cant be that hard and maybe looking to script something (Python/PHP?) to generating the combined CRC32 from the DAT files themselves.  at least that way you wont need to scrape the pages in cases of corrections / updates.   

Slightly off topic:

from the sounds of it you are probably heavily invested in the the Phoebe/Rhea ODE but maybe worth a look at the upcoming Satiator from professor abraisive,

I am currently awaiting the beta board for testing.

one of the main advantages being his cue parser is specifically designed for split bin/cue images along with leaving the actual optical drive untouched obviously.  plus there in nothing in Saturn Subs that isnt covered by the redump .cue