title:  Virtua Fighter 2
system: Sega Saturn
Media: CD-ROM
Region: Europe
Languages:  (not checked)
Barcode:  4 974365 810146 >
Serial:  MK81014-50   (sega ID   670-8048-50)
Offset:    +18
Version 1.000
Build Date:   1995-12-06
Comments:   Grey/Green label original release, CD Made in EU.

Ringcode Info:
Mastering Code:  MK-81014P00623<tab>A

DAT:
    <rom name="VIRTUA_FIGHTER_2 (Track 01).bin" size="61321344" crc="46ee74f3" md5="d5f3255b5f7373e75cda2e468767cc01" sha1="168c6380fcf034446b05a502485833afce4751a7" />
    <rom name="VIRTUA_FIGHTER_2 (Track 02).bin" size="14055552" crc="88056746" md5="b457bce82b9b0a09ae9e0069e4fb39ad" sha1="bd0a27f1d81691e5c53b8b049288f85375c85c16" />
    <rom name="VIRTUA_FIGHTER_2 (Track 03).bin" size="16513392" crc="cbe4a782" md5="3acb9c360389b7858f395116fd8da0f9" sha1="eee4f6b4db3112aaea1893c37bd6bde39e0bbf16" />
    <rom name="VIRTUA_FIGHTER_2 (Track 04).bin" size="14227248" crc="b4bf16aa" md5="bda5ee0edc0adc6d37bf0059e665db2e" sha1="aa5221d9db352346cc6b6dc30f40c86b5c4237dc" />
    <rom name="VIRTUA_FIGHTER_2 (Track 05).bin" size="14286048" crc="32ccc3a8" md5="84ee9e13c79ca3cb0fe2619604435c49" sha1="2d140f399215fa83d30bcfde2dda5a399cafa4e6" />
    <rom name="VIRTUA_FIGHTER_2 (Track 06).bin" size="13178256" crc="48ee39fb" md5="9897be23877c627e014a6fd5f97a68d7" sha1="063707e9a195778981bbb1a86aab491132ec35f4" />
    <rom name="VIRTUA_FIGHTER_2 (Track 07).bin" size="17395392" crc="9225bd29" md5="1b3f120e1db01302accde92c3ad8bcc0" sha1="785a9d5293d69015e9b74db79276da97e6b4c123" />
    <rom name="VIRTUA_FIGHTER_2 (Track 08).bin" size="16301712" crc="04d6a1b9" md5="ff53cd078f2884635dd462a6f3d1acd8" sha1="0682becee9f3d3bfd65ee28cfe7a430f97f855ce" />
    <rom name="VIRTUA_FIGHTER_2 (Track 09).bin" size="16153536" crc="e58dad43" md5="01b547ca8f3596659589fd546000e45c" sha1="ef74c443c1b3c7c0d2bdae6513b39f64c27b29ae" />
    <rom name="VIRTUA_FIGHTER_2 (Track 10).bin" size="16710960" crc="d2ab24da" md5="5224abe67058a9a1c21990602dcd78e8" sha1="ecd21b4fc8d7f637d46f956ee212b809442d7f78" />
    <rom name="VIRTUA_FIGHTER_2 (Track 11).bin" size="13269984" crc="fa86908a" md5="1a57072c8d21d8834a974b78ef5f019c" sha1="58048528b8b98de56c65ce4c8376944afcbc82f0" />
    <rom name="VIRTUA_FIGHTER_2 (Track 12).bin" size="16478112" crc="07886ba0" md5="68242cf6912572a4a12cee8ab5363e36" sha1="16c1e0f38e7808257afcdd4ac8600f0fdc495e58" />
    <rom name="VIRTUA_FIGHTER_2 (Track 13).bin" size="13286448" crc="faf1646d" md5="fecfb1c43d9f5e461fde32224080d069" sha1="9d0f73f794226422e386a90c23f1d25e0c05a625" />
    <rom name="VIRTUA_FIGHTER_2 (Track 14).bin" size="5990544" crc="e45c1674" md5="daf8de28a1072a8efd1cb386e8452154" sha1="a9811ce372550c0e2bd65167e17ac09bedd134d4" />
    <rom name="VIRTUA_FIGHTER_2 (Track 15).bin" size="1058400" crc="191a77c3" md5="0d4487e940d9dde967916da113cbcb3b" sha1="9db28b26cab272a7db7deab08191fa962738d97c" />
    <rom name="VIRTUA_FIGHTER_2 (Track 16).bin" size="2991744" crc="f6aecdf7" md5="d4efe3b01f4399a11e467b981c6015ec" sha1="eb2cc48e34a46fafb88c2131e05d0863641696fc" />
    <rom name="VIRTUA_FIGHTER_2 (Track 17).bin" size="8594208" crc="06fac2f6" md5="08e2fd3efdb671c2d088275650f8ac7e" sha1="93b17f8380d69b928edb1840865f00d1ed54b3e8" />
    <rom name="VIRTUA_FIGHTER_2 (Track 18).bin" size="1418256" crc="4a1662ba" md5="3b71a3ec473e9791c15b4f8289d96df0" sha1="9aafc8a30522a01daedf34fdc1e1055760430c08" />
    <rom name="VIRTUA_FIGHTER_2 (Track 19).bin" size="1613472" crc="a97315bd" md5="ffabb808db0658b3db2db380b8c1a9d3" sha1="a057a0ed1fc343845f657a2337ea4b070600edf6" />
    <rom name="VIRTUA_FIGHTER_2 (Track 20).bin" size="2439024" crc="f9574a3a" md5="ba4b4dc222660fd359fd757ca3a8e4f0" sha1="456d25e79609dd6698f19a77f7b9704bf5c83a51" />
    <rom name="VIRTUA_FIGHTER_2 (Track 21).bin" size="32062464" crc="073a15ca" md5="4e6bbd59e3d8fe5041fd41d888c03640" sha1="d980a03e4cd73b685cd5bc07ca8869ccf6d6e57a" />
    <rom name="VIRTUA_FIGHTER_2 (Track 22).bin" size="27135024" crc="4bc9cce5" md5="3e4f97dabe25b49e9c0dc1eff24edd52" sha1="415b887389e0df643a322f6e5e2eb9657def2bb1" />
    <rom name="VIRTUA_FIGHTER_2 (Track 23).bin" size="31827264" crc="7b32ad42" md5="e5e218b554a148fab6226c5b26c24262" sha1="f9664dd6cc9f11a2f58b8b97f1d5031aaa514e8b" />
    <rom name="VIRTUA_FIGHTER_2 (Track 24).bin" size="30714768" crc="77c7b5f4" md5="e4e3fa76ba572d3d26574d01682edfef" sha1="118b376343464ed7043b5b11d1cd6e038391e989" />
    <rom name="VIRTUA_FIGHTER_2 (Track 25).bin" size="27172656" crc="4e32e897" md5="4f17e84708fb453bfa3823640025b5d6" sha1="31cf8688e7ea10248db7a59bf6c142c5e2d8d321" />
    <rom name="VIRTUA_FIGHTER_2 (Track 26).bin" size="30115008" crc="a9555b8b" md5="0433fd73bdbda012f193a4fd1e7300e9" sha1="52cabd17c8cd7327c3ceb849c4dc3e287db0e5b6" />
    <rom name="VIRTUA_FIGHTER_2 (Track 27).bin" size="38368176" crc="d78236ae" md5="71b22f7583be11bf618d985d73742252" sha1="7151e2c301ef39dd8209da588a4e91e7e349184a" />
    <rom name="VIRTUA_FIGHTER_2 (Track 28).bin" size="30329040" crc="20e64d9a" md5="1f5b556643b8b1a5dfffdc7f8630bc8b" sha1="ed8537acefff9a1e2b476ca235b45df605e538cf" />
    <rom name="VIRTUA_FIGHTER_2 (Track 29).bin" size="24493728" crc="cc2a0643" md5="3a56f15e5c88c522187ff43077322a0b" sha1="ad81eb94ee14c4d793861d8cdcbb7cfe395daa16" />
    <rom name="VIRTUA_FIGHTER_2 (Track 30).bin" size="25415712" crc="517e148f" md5="d74c46eb2fea87818539c58c4bd769da" sha1="63dcdde3f3886d5d86b9d3e61276b4ec8ac5749e" />
    <rom name="VIRTUA_FIGHTER_2 (Track 31).bin" size="26431776" crc="05f58c6b" md5="c479034c36351ee589d25754e39af2e7" sha1="0741128a8470146440c69b359f8c487c7538536e" />
    <rom name="VIRTUA_FIGHTER_2 (Track 32).bin" size="27925296" crc="bef76a5b" md5="c8696cb226dd9fea9516528a0acdb240" sha1="617856faefddccb13845321bd2e6ff51fcb1a16f" />
    <rom name="VIRTUA_FIGHTER_2 (Track 33).bin" size="14565936" crc="945dbc2c" md5="2cd888e9edf18acd0363bef7e775b220" sha1="d7318cc331b3cc33f658752c60b44f1398ca2344" />
    <rom name="VIRTUA_FIGHTER_2 (Track 34).bin" size="13632192" crc="41a1e92a" md5="3eaedb06dc08375e89241a9bb1a388ac" sha1="832e37be21a91856d9ff043e90b378100ebdfbaf" />


CUE: 
FILE "VIRTUA_FIGHTER_2 (Track 01).bin" BINARY
  TRACK 01 MODE1/2352
    INDEX 01 00:00:00
FILE "VIRTUA_FIGHTER_2 (Track 02).bin" BINARY
  TRACK 02 AUDIO
    INDEX 00 00:00:00
    INDEX 01 00:02:00
FILE "VIRTUA_FIGHTER_2 (Track 03).bin" BINARY
  TRACK 03 AUDIO
    INDEX 00 00:00:00
    INDEX 01 00:02:00
FILE "VIRTUA_FIGHTER_2 (Track 04).bin" BINARY
  TRACK 04 AUDIO
    INDEX 00 00:00:00
    INDEX 01 00:02:00
FILE "VIRTUA_FIGHTER_2 (Track 05).bin" BINARY
  TRACK 05 AUDIO
    INDEX 00 00:00:00
    INDEX 01 00:02:00
FILE "VIRTUA_FIGHTER_2 (Track 06).bin" BINARY
  TRACK 06 AUDIO
    INDEX 00 00:00:00
    INDEX 01 01:14:52
FILE "VIRTUA_FIGHTER_2 (Track 07).bin" BINARY
  TRACK 07 AUDIO
    INDEX 00 00:00:00
    INDEX 01 00:01:74
FILE "VIRTUA_FIGHTER_2 (Track 08).bin" BINARY
  TRACK 08 AUDIO
    INDEX 00 00:00:00
    INDEX 01 00:02:00
FILE "VIRTUA_FIGHTER_2 (Track 09).bin" BINARY
  TRACK 09 AUDIO
    INDEX 00 00:00:00
    INDEX 01 00:02:00
FILE "VIRTUA_FIGHTER_2 (Track 10).bin" BINARY
  TRACK 10 AUDIO
    INDEX 00 00:00:00
    INDEX 01 00:02:00
FILE "VIRTUA_FIGHTER_2 (Track 11).bin" BINARY
  TRACK 11 AUDIO
    INDEX 00 00:00:00
    INDEX 01 00:02:00
FILE "VIRTUA_FIGHTER_2 (Track 12).bin" BINARY
  TRACK 12 AUDIO
    INDEX 00 00:00:00
    INDEX 01 00:02:00
FILE "VIRTUA_FIGHTER_2 (Track 13).bin" BINARY
  TRACK 13 AUDIO
    INDEX 00 00:00:00
    INDEX 01 00:01:74
FILE "VIRTUA_FIGHTER_2 (Track 14).bin" BINARY
  TRACK 14 AUDIO
    INDEX 00 00:00:00
    INDEX 01 00:02:00
FILE "VIRTUA_FIGHTER_2 (Track 15).bin" BINARY
  TRACK 15 AUDIO
    INDEX 00 00:00:00
    INDEX 01 00:02:00
FILE "VIRTUA_FIGHTER_2 (Track 16).bin" BINARY
  TRACK 16 AUDIO
    INDEX 00 00:00:00
    INDEX 01 00:02:00
FILE "VIRTUA_FIGHTER_2 (Track 17).bin" BINARY
  TRACK 17 AUDIO
    INDEX 00 00:00:00
    INDEX 01 00:02:00
FILE "VIRTUA_FIGHTER_2 (Track 18).bin" BINARY
  TRACK 18 AUDIO
    INDEX 00 00:00:00
    INDEX 01 00:01:74
FILE "VIRTUA_FIGHTER_2 (Track 19).bin" BINARY
  TRACK 19 AUDIO
    INDEX 00 00:00:00
    INDEX 01 00:02:00
FILE "VIRTUA_FIGHTER_2 (Track 20).bin" BINARY
  TRACK 20 AUDIO
    INDEX 00 00:00:00
    INDEX 01 00:02:00
FILE "VIRTUA_FIGHTER_2 (Track 21).bin" BINARY
  TRACK 21 AUDIO
    INDEX 00 00:00:00
    INDEX 01 00:02:00
FILE "VIRTUA_FIGHTER_2 (Track 22).bin" BINARY
  TRACK 22 AUDIO
    INDEX 00 00:00:00
    INDEX 01 00:02:00
FILE "VIRTUA_FIGHTER_2 (Track 23).bin" BINARY
  TRACK 23 AUDIO
    INDEX 00 00:00:00
    INDEX 01 00:02:00
FILE "VIRTUA_FIGHTER_2 (Track 24).bin" BINARY
  TRACK 24 AUDIO
    INDEX 00 00:00:00
    INDEX 01 00:02:00
FILE "VIRTUA_FIGHTER_2 (Track 25).bin" BINARY
  TRACK 25 AUDIO
    INDEX 00 00:00:00
    INDEX 01 00:02:00
FILE "VIRTUA_FIGHTER_2 (Track 26).bin" BINARY
  TRACK 26 AUDIO
    INDEX 00 00:00:00
    INDEX 01 00:02:00
FILE "VIRTUA_FIGHTER_2 (Track 27).bin" BINARY
  TRACK 27 AUDIO
    INDEX 00 00:00:00
    INDEX 01 00:02:00
FILE "VIRTUA_FIGHTER_2 (Track 28).bin" BINARY
  TRACK 28 AUDIO
    INDEX 00 00:00:00
    INDEX 01 00:02:00
FILE "VIRTUA_FIGHTER_2 (Track 29).bin" BINARY
  TRACK 29 AUDIO
    INDEX 00 00:00:00
    INDEX 01 00:02:00
FILE "VIRTUA_FIGHTER_2 (Track 30).bin" BINARY
  TRACK 30 AUDIO
    INDEX 00 00:00:00
    INDEX 01 00:02:00
FILE "VIRTUA_FIGHTER_2 (Track 31).bin" BINARY
  TRACK 31 AUDIO
    INDEX 00 00:00:00
    INDEX 01 00:02:00
FILE "VIRTUA_FIGHTER_2 (Track 32).bin" BINARY
  TRACK 32 AUDIO
    INDEX 00 00:00:00
    INDEX 01 00:02:00
FILE "VIRTUA_FIGHTER_2 (Track 33).bin" BINARY
  TRACK 33 AUDIO
    INDEX 00 00:00:00
    INDEX 01 00:02:00
FILE "VIRTUA_FIGHTER_2 (Track 34).bin" BINARY
  TRACK 34 AUDIO
    INDEX 00 00:00:00
    INDEX 01 00:02:00


PVD: 
0320 : 20 20 20 20 20 20 20 20  20 20 20 20 20 31 39 39                199
0330 : 35 31 32 30 36 31 37 35  39 31 38 30 30 14 31 39   5120617591800.19
0340 : 39 35 31 32 30 36 31 37  35 39 31 38 30 30 14 30   95120617591800.0
0350 : 30 30 30 30 30 30 30 30  30 30 30 30 30 30 30 00   000000000000000.
0360 : 30 30 30 30 30 30 30 30  30 30 30 30 30 30 30 30   0000000000000000
0370 : 00 01 00 00 00 00 00 00  00 00 00 00 00 00 00 00   ................


HEADER:
0000 : 53 45 47 41 20 53 45 47  41 53 41 54 55 52 4E 20   SEGA SEGASATURN
0010 : 53 45 47 41 20 45 4E 54  45 52 50 52 49 53 45 53   SEGA ENTERPRISES
0020 : 4D 4B 2D 38 31 30 31 34  20 20 56 31 2E 30 30 30   MK-81014  V1.000
0030 : 31 39 39 35 31 32 30 36  43 44 2D 31 2F 31 20 20   19951206CD-1/1 
0040 : 45 20 20 20 20 20 20 20  20 20 20 20 20 20 20 20   E               
0050 : 4A 20 20 20 20 20 20 20  20 20 20 20 20 20 20 20   J               
0060 : 56 49 52 54 55 41 20 46  49 47 48 54 45 52 20 32   VIRTUA FIGHTER 2
0070 : 20 20 20 20 20 20 20 20  20 20 20 20 20 20 20 20                   
0080 : 20 20 20 20 20 20 20 20  20 20 20 20 20 20 20 20                   
0090 : 20 20 20 20 20 20 20 20  20 20 20 20 20 20 20 20                   
00A0 : 20 20 20 20 20 20 20 20  20 20 20 20 20 20 20 20                   
00B0 : 20 20 20 20 20 20 20 20  20 20 20 20 20 20 20 20                   
00C0 : 20 20 20 20 20 20 20 20  20 20 20 20 20 20 20 20                   
00D0 : 00 00 00 00 00 00 00 00  00 00 00 00 00 00 00 00   ................
00E0 : 00 00 80 00 00 00 00 00  00 00 00 00 00 00 00 00   ................
00F0 : 06 00 40 00 00 00 00 00  00 00 00 00 00 00 00 00   ..@.............


Logs:

https://mega.nz/#!bxcyjYTT!DkUuxQM6B9sV … rBWLBo7hFo

2

(0 replies, posted in New Dumps)

Title:  Soccer Kid
Barcode:  5 017898 901741
serial:
Media Type:  CD-Rom
category: Games
Region:  Europe
Languages:  English (not checked)
Offset:   0

Ring info:
Mastering Code:   CDD5315 KRI-SKID3DO :<tab>·MASTERED BY NIMBUS·
toolstamp   1:0
Mould SID:  ifpi 2309

CUE:
CATALOG 0000000000000
FILE "disc.bin" BINARY
  TRACK 01 MODE1/2352
    INDEX 01 00:00:00

DAT:
    <rom name="disc.bin" size="650986560" crc="8f50f90a" md5="ddeb7b8d722a39c1e145d8335af03639" sha1="3bf87d8f0a93bfa21cf975c5cd2ae9716349ce0e" />


Logs:

https://mega.nz/#!DlEEWQrA!481wkHIrZAPb … MxELRHb1l8

Title: Tom Clancy's Rainbow Six 3
System: Sony Playstation 2
Media Type: CD-ROM
Category: Demos
Region: Europe
Languages: English (not checked)
Disc Serial: SLED-52304

Ringcode Information:
    Mastering Ring: A0100502080<tab>18<tab>Sony DADC
    Mastering SID Code:  IFPI L558
    Mould SID:   IFPI 9458
Barcode: N/A
Comments:  other ID:  0162571
Contents:
Version: 1.00
Edition/Release: Demo
offset:    -12

Primary Volume Descriptor (PVD):
0320 : 20 20 20 20 20 20 20 20  20 20 20 20 20 32 30 30                200
0330 : 33 31 31 32 37 30 34 30  30 30 30 30 30 24 30 30   3112704000000$00
0340 : 30 30 30 30 30 30 30 30  30 30 30 30 30 30 00 30   00000000000000.0
0350 : 30 30 30 30 30 30 30 30  30 30 30 30 30 30 30 00   000000000000000.
0360 : 30 30 30 30 30 30 30 30  30 30 30 30 30 30 30 30   0000000000000000
0370 : 00 01 00 00 00 00 00 00  00 00 00 00 00 00 00 00   ................

DAT:

    <rom name="TCRS3.bin" size="315257376" crc="37176444" md5="381280d0c18bf658e6dc0601aba7415e" sha1="c8623be3da1f4dd89f90a789d13660e691f1c4d9" />

CUE:
FILE "TCRS3.bin" BINARY
  TRACK 01 MODE2/2352
    INDEX 01 00:00:00



logs:   

https://mega.nz/#!ehVkQIrD!sQ6XBcSTzSWP … bjxVwB_-dg

4

(7 replies, posted in New Dumps)

<rom name="Track 03.bin" size="765630096" crc="10aff900" md5="9c793487734daa79ef663269e3433451" sha1="667f5ded7284ce9a837de1704685ae50398fb003" />
<rom name="Track 04.bin" size="1585248" crc="3d68312d" md5="ce764d16a9806f16f0ce97c86a274fef" sha1="d2f998a762f7167f037b0e550dd64e34d9f73c2e" />
<rom name="Track 05.bin" size="1568784" crc="9f89ca44" md5="74c0fd1c0debf0dd760c4d7ecd5cc0a4" sha1="690a8254e4fe410c7cb108c2b8f1026066f585e8" />
<rom name="Track 06.bin" size="2119152" crc="860d304d" md5="e68c8f3aeabb0d2ef62715e3d7ddd873" sha1="6899610d02d9ff4897d1deef47a8608efabe10be" />
<rom name="Track 07.bin" size="1672272" crc="38deb9dc" md5="5965b610832b4811cd0fae7de7f3a784" sha1="5af16892a559b8134fc9ce7d5cca1e6dfd77f00f" />
<rom name="Track 08.bin" size="12665520" crc="8255facf" md5="ff2acf5c00e179a692b228b48de00f96" sha1="79af2fc56f76eaa391392b8183ec862676bdd495" />
<rom name="Track 09.bin" size="13469904" crc="c2b9733a" md5="9c5207baa9c80be6aee8526962e2ab8f" sha1="f0b56a441194b9e2cc98be8ad11ae94cb1b3bbe6" />
<rom name="Track 10.bin" size="13507536" crc="2df8bfc3" md5="ee11e26d7ed5ea967f1d56f5046bfb42" sha1="be29947e695dd2d8246cf284e13e6747ce7e38a8" />
<rom name="Track 11.bin" size="11741184" crc="b0b2fa31" md5="cf51575b396e9efff30746f027dac22c" sha1="f78db595786466ce9c14ab3c6e282e5c37145b5e" />
<rom name="Track 12.bin" size="8121456" crc="b1c30fb8" md5="00275feb99cecb2f4a5e066ad3761736" sha1="d36df355c4ad36c9d75f7539b3847b22e38414d9" />
<rom name="Track 13.bin" size="12987744" crc="e0176448" md5="ac650fb52039a0a880716f20ffd4f7b9" sha1="d99262eb933540cf0fa1de96cbd58d8f0354753e" />
<rom name="Track 14.bin" size="48916896" crc="892b99bc" md5="62a80ea87ffd9fcd52625c45d527c187" sha1="7f40c27165515a7885cbc8b43e8486663a8ccf58" />
<rom name="Track 15.bin" size="47684448" crc="ee5b6997" md5="54ef16b1c497781c1fe6c6af3d1910f7" sha1="ae69933e2f441623ed3098f8257e5343dba6d2bf" />
<rom name="Track 16.bin" size="48244224" crc="6e6d7971" md5="a47e7ce56955ac4d68e40b824d18c8ab" sha1="c81137cdcc4a7f9e5d1bf8ba4ad1be57af83bad5" />
<rom name="Track 17.bin" size="19284048" crc="38382b32" md5="4c675b96d50a1434e810b41db9c658c0" sha1="d774ffe88bba4390de4882d9353d24c363e678ef" />
<rom name="Track 18.bin" size="26735184" crc="5c538460" md5="74fa20f55a0b8cb3f0e4d449942392b3" sha1="cd821d6c60bb97ffdb08ea769d704f16df33e7bc" />
<rom name="Track 19.bin" size="1853376" crc="d3560455" md5="534ded3520f9ed2b595a20cfe7d039c3" sha1="136b1616ab59bab6857b7ebfe752b47f5b766c97" />
<rom name="Track 20.bin" size="1674624" crc="67a48657" md5="b9bf1e66cdafa473ac947fc1df514a5d" sha1="7ade7f714d7f91b613ed03130a1fb53172117ff7" />
<rom name="Track 21.bin" size="1702848" crc="013d1fe5" md5="4d39e680d633217e606eb18afa75a904" sha1="6307f825496a862ec4322a9ec2d85e917d7803fe" />
<rom name="Track 22.bin" size="24775968" crc="6d310657" md5="5279c38ac569f7c7dbccfea327d5d294" sha1="bc86086050c7610921632e60c733f71320787159" />
<rom name="Track 23.bin" size="23381232" crc="9b545ef4" md5="fdae68ebd46a32ecf0bd6ebc0cbc5301" sha1="3baaf75944502c23c38ef087e44886854aa6ffe0" />
<rom name="Track 24.bin" size="44890272" crc="3ec200d6" md5="3482909f84b698d4fb3c57b73222f666" sha1="865a76f55f9134ab27e5006e4ae5a11db069adb5" />
<rom name="Track 25.bin" size="48564096" crc="072b8edc" md5="a9a6713c7a5afef5426ab686b8f2919f" sha1="48f7ad3cfa58d58adbdda13e2e1f0a59a180889a" />
<rom name="Track 26.bin" size="2984688" crc="ef3f9734" md5="dce0c03975cb6d90e7b7d29239108884" sha1="17190a55f30092d51db8eb9ca74e12825dfdf985" />

Title: Pro Evolution Soccer 4

System: Sony Playstation 2
Media Type: CD-ROM
Category: Demos
Region: Europe
Languages: English (not checked)
Disc Serial: SLED-52873

Ringcode Information:
        Mastering Ring: A0100560063-0101<tab>28<tab>Sony DADC
    Mastering SID Code: IFPI L558
        Toolstamp:     A2
Barcode:
Comments:  other ID:  7025741
Contents:
Version: 1.02
Edition/Release: Demo

Primary Volume Descriptor (PVD):
0320 : 20 20 20 20 20 20 20 20  20 20 20 20 20 32 30 30                200
0330 : 34 30 38 32 37 31 32 30  30 31 32 30 30 24 30 30   4082712001200$00
0340 : 30 30 30 30 30 30 30 30  30 30 30 30 30 30 00 30   00000000000000.0
0350 : 30 30 30 30 30 30 30 30  30 30 30 30 30 30 30 00   000000000000000.
0360 : 30 30 30 30 30 30 30 30  30 30 30 30 30 30 30 30   0000000000000000
0370 : 00 01 00 00 00 00 00 00  00 00 00 00 00 00 00 00   ................

DAT:

    <rom name="disc.bin" size="708511776" crc="6cf881a6" md5="45d62f1cf862b8e6c47d373a5c55d2f2" sha1="7d150261fc7c0d1221f828facd49bf25a1b9371e" />

CUE:

FILE "disc.bin" BINARY
  TRACK 01 MODE2/2352
    INDEX 01 00:00:00


logs:   
https://mega.nz/#!HktnzAJB!vFKOfaTOqLxN … 2nZm5TwNM8

Alternatively....

open your cue file in ISObuster and right click each track and > extract RAW, 2352 bytes/block

and save each track as track xx.bin

redump bin = wav just without the RIFF header.
just strip the first 22 bytes (google it and double check that - i'm going from memory here) and rename to .bin

edit.... it might actually be 44 bytes, i can't remember, anyway as i say google will help.

if you're still around @LedZeppelin68 and still have the source code and fancy updating it?

Had to use this today - doesn't work going from TOSEC to redump with the new .cue based DATs

if you open the DAT with your editor of choice and replace all instances of ".cue" with ".gdi" it will work again. (ctrl+h is your friend)

or if you're like me an inline sed will do the trick

sed -i 's/.cue/.gdi/g' /path-to-and/name-of-dat.dat

More reading:

http://collectorsedition.org/game-db/dr … -xbox-ntsc

http://collectorsedition.org/uploads/2011/02/driver_parallel_lines_limited_edition_xbox_ntsc_atari_05.jpg

besides, if you've even bothered to look at the game's wikipedia article you might learn something really interesting regarding its "limited edition" release

yes and the wikipedia article clearly states that it was a bonus DVD and soundtrack.
nothing in the slightest about the game differing.

in summary:
The limited Edition came with a seperate 'Making of' bonus disc and soundtrack CD - Both of which are dumped. (was the same bonus package for PS2 and Xbox as far as i can tell)  the XBOX game itself looks to be the same as retail

the PS2 was a different game disc and again both are dumped. 

https://i.ebayimg.com/images/g/sw0AAOSwysFcHr3m/s-l1600.jpg

https://animeshumi.com/eBay/Games/GAMECUBE2/IMG_0875.JPG

oops missed a bit.

Mould SID:  IFPI 3905

we can get this one out of Yellow status
http://redump.org/disc/3558/

Logs: 
https://mega.nz/#!O58g0YqT!OOXXhBbCLHgm … o6c6TWBJDY

DAT:

    <rom name="PUZZLE_BUBBLE3 (Track 01).bin" size="24552528" crc="25431be9" md5="4a401bb9b41ea9dfd4f30220aec7945b" sha1="a6119f6f262f75c25dfa9cf927e87e9b563ab99e" />
    <rom name="PUZZLE_BUBBLE3 (Track 02).bin" size="1058400" crc="08f21395" md5="2b0067426687fd8b90afb80b59241f99" sha1="a54003791d9c9e7855a525907588b1e00d5e065b" />
    <rom name="PUZZLE_BUBBLE3 (Track 03).bin" size="13013616" crc="6a9e9413" md5="4246a18ccb1e897bbbd16cd3f502004c" sha1="81d00a5a56f3a17f48eb9edb6583b9177c9cfbff" />
    <rom name="PUZZLE_BUBBLE3 (Track 04).bin" size="16238208" crc="2eda1e77" md5="363ae92e76e3f9dbaa71b503b3eef5f9" sha1="f5893c7cd33634d8cc57aef266538521f46acd8c" />
    <rom name="PUZZLE_BUBBLE3 (Track 05).bin" size="16261728" crc="8da6b7a8" md5="b3f0f4c8c74139743bbca715860727d4" sha1="730714c40d8cdeb8564a9306c61883da4ace063c" />
    <rom name="PUZZLE_BUBBLE3 (Track 06).bin" size="5026224" crc="31f6ece6" md5="c4a2a5ef0553895c29d3a86d5540a920" sha1="1e0d8cfbecd5be1a4a66d4987878d48185a4f3aa" />
    <rom name="PUZZLE_BUBBLE3 (Track 07).bin" size="8295504" crc="487bb3b9" md5="7ed28ec7211c7b245dcd43704b6c9573" sha1="2875f394a5a5f2efefaab48ce55fdf14292544b9" />
    <rom name="PUZZLE_BUBBLE3 (Track 08).bin" size="46249728" crc="d8aa784e" md5="438300047d16e86fdeb03c13dd4aaf6e" sha1="1991ac78ade636fb164d539d7f9f6c4ebfd8f47d" />
    <rom name="PUZZLE_BUBBLE3 (Track 09).bin" size="48298320" crc="3e94440e" md5="079ae7c6909fd170f492011ec3a1ce5f" sha1="69e536909f77028cead5f5be559526b725a54450" />
    <rom name="PUZZLE_BUBBLE3 (Track 10).bin" size="46781280" crc="0465a11c" md5="1e0993535cc49ebf649651ba35b114e3" sha1="89f31296edc2854525bfb0e87715d169e6356515" />
    <rom name="PUZZLE_BUBBLE3 (Track 11).bin" size="45878112" crc="c7cdedb2" md5="92dd713df79147d48cbbf9625cc8b951" sha1="5ac5807e19007db6a81b8a9f0d5dc8831a2a64a3" />
    <rom name="PUZZLE_BUBBLE3 (Track 12).bin" size="1578192" crc="27328d09" md5="49e498b8788c366a52ae3eaa1c092c7e" sha1="9dcfdb88fc3094518fe31129d9e3d7a7fbba5720" />
    <rom name="PUZZLE_BUBBLE3 (Track 13).bin" size="9212784" crc="6ecfbaf6" md5="26b14aa673154f7a5b516fb3f8e5f414" sha1="bfd60dfcba0259490e07bc977e7bdea401e1f2e6" />
    <rom name="PUZZLE_BUBBLE3 (Track 14).bin" size="1234800" crc="fda07164" md5="6c9a267212d58485b6b7f143867a53b3" sha1="15b7aebe09b44147bdfef35df82705f366e26304" />
    <rom name="PUZZLE_BUBBLE3 (Track 15).bin" size="1778112" crc="ea919f2c" md5="cb74084dfe44915fafa0ae7132d29a1c" sha1="1aa04113dc812eb429661ec53b2944324eab1ffc" />
    <rom name="PUZZLE_BUBBLE3 (Track 16).bin" size="24961776" crc="cfe5c4dc" md5="50d93b37eba8e85349333bb2b6634cd4" sha1="d2a24b0f5e1098a3c6d8f9ef50b3eec0cfcf7a1d" />

CUE:

CATALOG 0000000000000
FILE "PUZZLE_BUBBLE3 (Track 01).bin" BINARY
  TRACK 01 MODE1/2352
    INDEX 01 00:00:00
FILE "PUZZLE_BUBBLE3 (Track 02).bin" BINARY
  TRACK 02 AUDIO
    INDEX 00 00:00:00
    INDEX 01 00:02:00
FILE "PUZZLE_BUBBLE3 (Track 03).bin" BINARY
  TRACK 03 AUDIO
    INDEX 00 00:00:00
    INDEX 01 00:02:00
FILE "PUZZLE_BUBBLE3 (Track 04).bin" BINARY
  TRACK 04 AUDIO
    INDEX 00 00:00:00
    INDEX 01 00:02:00
FILE "PUZZLE_BUBBLE3 (Track 05).bin" BINARY
  TRACK 05 AUDIO
    INDEX 00 00:00:00
    INDEX 01 00:02:00
FILE "PUZZLE_BUBBLE3 (Track 06).bin" BINARY
  TRACK 06 AUDIO
    INDEX 00 00:00:00
    INDEX 01 00:02:00
FILE "PUZZLE_BUBBLE3 (Track 07).bin" BINARY
  TRACK 07 AUDIO
    INDEX 00 00:00:00
    INDEX 01 00:02:00
FILE "PUZZLE_BUBBLE3 (Track 08).bin" BINARY
  TRACK 08 AUDIO
    INDEX 00 00:00:00
    INDEX 01 00:02:00
FILE "PUZZLE_BUBBLE3 (Track 09).bin" BINARY
  TRACK 09 AUDIO
    INDEX 00 00:00:00
    INDEX 01 00:02:00
FILE "PUZZLE_BUBBLE3 (Track 10).bin" BINARY
  TRACK 10 AUDIO
    INDEX 00 00:00:00
    INDEX 01 00:02:00
FILE "PUZZLE_BUBBLE3 (Track 11).bin" BINARY
  TRACK 11 AUDIO
    INDEX 00 00:00:00
    INDEX 01 00:02:00
FILE "PUZZLE_BUBBLE3 (Track 12).bin" BINARY
  TRACK 12 AUDIO
    INDEX 00 00:00:00
    INDEX 01 00:02:00
FILE "PUZZLE_BUBBLE3 (Track 13).bin" BINARY
  TRACK 13 AUDIO
    INDEX 00 00:00:00
    INDEX 01 00:02:00
FILE "PUZZLE_BUBBLE3 (Track 14).bin" BINARY
  TRACK 14 AUDIO
    INDEX 00 00:00:00
    INDEX 01 00:02:00
FILE "PUZZLE_BUBBLE3 (Track 15).bin" BINARY
  TRACK 15 AUDIO
    INDEX 00 00:00:00
    INDEX 01 00:02:00
FILE "PUZZLE_BUBBLE3 (Track 16).bin" BINARY
  TRACK 16 AUDIO
    INDEX 00 00:00:00
    INDEX 01 00:02:00

Offset:  0
Serial: T-1109G
Build date: 1997-02-05
Version: 1.002
Barcode:  T4988611970010

Mastering Code:  T-1109GP-01398<tab>2MB1<tab>C<tab>73
Mastering SID:  IFPI L223

Header:

0000 : 53 45 47 41 20 53 45 47  41 53 41 54 55 52 4E 20   SEGA SEGASATURN 
0010 : 53 45 47 41 20 54 50 20  54 2D 31 31 20 20 20 20   SEGA TP T-11    
0020 : 54 2D 31 31 30 39 47 20  20 20 56 31 2E 30 30 32   T-1109G   V1.002
0030 : 31 39 39 37 30 32 30 35  43 44 2D 31 2F 31 20 20   19970205CD-1/1  
0040 : 4A 54 20 20 20 20 20 20  20 20 20 20 20 20 20 20   JT              
0050 : 4A 20 20 20 20 20 20 20  20 20 20 20 20 20 20 20   J               
0060 : 50 55 5A 5A 4C 45 20 42  4F 42 42 4C 45 20 33 20   PUZZLE BOBBLE 3 
0070 : 20 20 20 20 20 20 20 20  20 20 20 20 20 20 20 20                   
0080 : 20 20 20 20 20 20 20 20  20 20 20 20 20 20 20 20                   
0090 : 20 20 20 20 20 20 20 20  20 20 20 20 20 20 20 20                   
00A0 : 20 20 20 20 20 20 20 20  20 20 20 20 20 20 20 20                   
00B0 : 20 20 20 20 20 20 20 20  20 20 20 20 20 20 20 20                   
00C0 : 20 20 20 20 20 20 20 20  20 20 20 20 20 20 20 20                   
00D0 : 00 00 00 00 00 00 00 00  00 00 00 00 00 00 00 00   ................
00E0 : 00 00 18 00 00 00 00 00  00 00 00 00 00 00 00 00   ................
00F0 : 06 00 40 00 00 00 00 00  00 00 00 00 00 00 00 00   ..@.............

I have a badly scratched disc of this somewhere i'll see if I can get it to dump.

Thanks.

Good evening.

Can i get a wiki account please, need to mark off discs i'm buying in the miss lists.

Thanks

16

(3 replies, posted in General discussion)

Annnnd well XBC > SS.bin -> sector ranges > Freecell  gave no error but the dump matches.
I guess it was good after all.


http://i.imgur.com/RfePISQ.png

To the dump forum it goes.

17

(3 replies, posted in General discussion)

Spoke too soon,

they appeared in main error after it finished calculating the hash for the file.

i'll retry with XBC

18

(3 replies, posted in General discussion)

I've supped many a gallon of rum and coke since I last did an OG Xbox dump.
never dumped one with DIC before either

Am I to assume this is bad?
there's nothing In _mainError.txt and the dump went on and completed.

http://i.imgur.com/TzKAEHj.png

I dumped this disc a while ago but didn't submit it
have since sold / traded the disc so can't verify the ring
but can verify the cue / tracks.


Logs from my dump.
https://mega.nz/#!310HCYrT!mU02jhR0D3pN … YviJJfeoi8

20

(1,759 replies, posted in General discussion)

What does this mean ?

LBA[004903, 0x01327]: Track[02]: Invalid sync. Skip descrambling
========== LBA[004903, 0x01327]: Main Channel ==========
       +0 +1 +2 +3 +4 +5 +6 +7  +8 +9 +A +B +C +D +E +F
0000 : 00 00 00 00 00 00 00 00  00 00 00 00 00 00 00 00   ................
0010 : 00 00 00 00 00 00 00 00  00 00 00 00 00 00 00 00   ................
0020 : 00 00 00 00 00 00 00 00  00 00 00 00 00 00 00 00   ................
0030 : 00 00 00 00 00 00 00 00  00 00 00 00 00 00 00 00   ................
.
.
Repeated.
.
.
.
.

LBA[004977, 0x01371]: Track[02]: Invalid sync. Skip descrambling
========== LBA[004977, 0x01371]: Main Channel ==========
       +0 +1 +2 +3 +4 +5 +6 +7  +8 +9 +A +B +C +D +E +F
0000 : 00 00 00 00 00 00 00 00  00 00 00 00 00 00 00 00   ................
0010 : 00 00 00 00 00 00 00 00  00 00 00 00 00 00 00 00   ................
0020 : 00 00 00 00 00 00 00 00  00 00 00 00 00 00 00 00   ................
0030 : 00 00 00 00 00 00 00 00  00 00 00 00 00 00 00 00   ................
0040 : 00 00 00 00 00 00 00 00  00 00 00 00 00 00 00 00   ................

i assume the dump is still good?

Was from this disc: http://forum.redump.org/topic/20520/pcf … chan-kick/

The full logs: https://1fichier.com/?khesqgz83urpjavks6kd

Jackal wrote:

Kludge could prolly help you out, but he's AFK.

How fast do you need it? When do you start working again (I'm assuming you're here because you have vacation)?

It’s not an immediate need, Just soon or i’ll Get distracted.

Nah I’m back at work now,
Only had Xmas day and Boxing Day off.

Things have calmed down a lot lately though, we employed some new staff who are actually up to the job so I’m not so busy anymore (Linux sysadmins are hard to come by) And have sorted more care for mum so I don’t have to look after her so much now so have more free time as not travelling down to see to her every other day.

so my old faithful plextor doesn't work after getting it back out of storage, the laser/pickup doesn't work so it will not detect a disc is inserted so obviously doesn't even spin it up.
need a new one ASAP.

if i remember rightly the new 8xx series ones are no good (rebranded crap)

anyone have a good source for one in the UK?

Are the old SCSI ones any good for CD dumping?

23

(66 replies, posted in General discussion)

Why dont we come up with a new format .RGDI   ?

keeping mostly the same format as GDI but with pregap offsets in it.

would be no less or more work for emulator devs to incorporate that into their current gdi/cue parser routines.

i started reading this thread but got lost in all the technical jargon:  https://dknute.livejournal.com/42778.html

24

(1,759 replies, posted in General discussion)

Manually specifying the .bin file extension at the end of the command should do it.

alternatively just dump it with an arbitrary name like dump.bin and rename it with the DAT.
it should match http://redump.org/disc/29848/

Glad to see you finally got your hands on a copy.
hope it wasnt too pricey, it's gone insane lately.


A Murder of Crows wrote:

EDIT:

Seems i am having a problem formulating a command that would work to dump a game with periods in the title.

>DiscImageCreator.exe cd E: "D:\dump\E\Daytona USA C.C.E. Net Link Edition [(Star)2S(Star) 81218 B A1]" 40 /c2

This should create a set of files called

Daytona USA C.C.E. Net Link Edition [(Star)2S(Star) 81218 B A1].*

but instead the final period is seen as the point of extension.

is there any command arguments that would help me avoid this issue?

ooh interested to see if there's any differences. probably not if the header date and build matches but you never know,
they might have actually fixed the issue with cold booting the console with BUG! in the drive.