Common Disc Info:
    Title: Snatcher: Sound Clip
    Foreign Title (Non-latin): スナッチャー・サウンドクリップ
    System: Audio CD
    Media Type: CD-ROM
    Category: Pre-order bonus discs.
    Region: Japan
    Languages: not checked
    Disc Serial: P01-8

    Ringcode Information:
        Mastering Code (laser branded/etched): SNATCHER<tab>P01-8

    Barcode:
    Error Count:
    Comments:

Promotional give-away by Konami which was sent to whoever filled out the survey card included with the Snatcher Pilot Disk for the PC Engine.

    Contents:

Tracklist:
01     Main Title (Arrange Version)
02     Introduction
03     Short Story ~Nightmare of Gillian 1~
04     Bonus Mini Drama "All controversy begins with doubt"
05     Short Story ~Nightmare of Gillian 2~
06     Trailer ~COMING SOON~

01     メインタイトル(アレンジ・バージョン)
02     イントロダクション
03     ショートストーリー ~ナイトメア・オブ・ギリアン1~
04     番外篇ミニドラマ 「疑い−すべての闘争はそこからはじまる」
05     ショートストーリー ~ナイトメア・オブ・ギリアン2~
06     トレーラー ~COMING SOON~

Version and Editions:
    Version:
    Edition/Release: Original

Extras:
    Primary Volume Descriptor (PVD): Disc has no PVD

Tracks and Write Offsets:
    DAT:

<rom name="Snatcher (Track 1).bin" size="33127920" crc="f4e9a984" md5="e4101aaa7e0bd495f37742f31b14715a" sha1="5fc492f9abdb86ba94eefa2c0f2c0a049584550d" />
<rom name="Snatcher (Track 2).bin" size="18674880" crc="b36b55d0" md5="e79d6fc24984b91d3f8bcb6333b75835" sha1="d0c9de61470c567ecd8fe1692379316d7ff3f455" />
<rom name="Snatcher (Track 3).bin" size="16398144" crc="b8c447ff" md5="29c8dfeadff44b60df9f17f72728c6f7" sha1="ed32996ac7fbae7c505dc7d6f2bd77263c2c6603" />
<rom name="Snatcher (Track 4).bin" size="106298640" crc="aff00adc" md5="3187e3e69de163c79e92f8a6ccf52645" sha1="d4cbb85f963f42266f5e785ab34641404cc2e93d" />
<rom name="Snatcher (Track 5).bin" size="16111200" crc="0b6e3cf7" md5="2b4210c6f91c4b66ffd7ad073c5e3587" sha1="483195f836206718600483b805f1484f54f62bd3" />
<rom name="Snatcher (Track 6).bin" size="10202976" crc="8d6c1a9d" md5="84a628ef809ba75491b4fe858159caea" sha1="fc9e28621791977106df4c0693056d4ca0e56c03" />

    Cuesheet:

FILE "Snatcher (Track 1).bin" BINARY
  TRACK 01 AUDIO
    INDEX 01 00:00:00
FILE "Snatcher (Track 2).bin" BINARY
  TRACK 02 AUDIO
    INDEX 00 00:00:00
    INDEX 01 00:01:67
FILE "Snatcher (Track 3).bin" BINARY
  TRACK 03 AUDIO
    INDEX 00 00:00:00
    INDEX 01 00:01:25
FILE "Snatcher (Track 4).bin" BINARY
  TRACK 04 AUDIO
    INDEX 00 00:00:00
    INDEX 01 00:01:35
FILE "Snatcher (Track 5).bin" BINARY
  TRACK 05 AUDIO
    INDEX 00 00:00:00
    INDEX 01 00:01:65
FILE "Snatcher (Track 6).bin" BINARY
  TRACK 06 AUDIO
    INDEX 00 00:00:00
    INDEX 01 00:01:40

    Write Offset: 0

Logs:  attached

2

(0 replies, posted in New Dumps)

Common Disc Info:
    Title: Princess Maker 2
    Foreign Title (Non-latin): プリンセス・メーカー2
    System: IBM PC Compatible
    Media Type: CD-ROM
    Category: Games
    Region: Japan
    Languages: not checked
    Disc Serial: n/a

    Ringcode Information:
        Mastering Code (laser branded/etched):  <PRINCESS-2W>GF721B
        Mastering SID Code: IFPI l461
        Data-Side Mould SID Code: IFPI 7827

    Barcode: (OPTIONAL)
    Error Count: 0
    Comments:
    Contents:

Version and Editions:
    Version:
    Edition/Release: Original

Extras:
    Primary Volume Descriptor (PVD):

0320 : 20 20 20 20 20 20 20 20  20 20 20 20 20 31 39 39                199
0330 : 35 30 37 32 30 30 33 35  35 30 33 30 30 00 31 39   5072003550300.19
0340 : 39 35 30 37 32 30 30 33  35 35 30 33 30 30 00 30   95072003550300.0
0350 : 30 30 30 30 30 30 30 30  30 30 30 30 30 30 30 00   000000000000000.
0360 : 30 30 30 30 30 30 30 30  30 30 30 30 30 30 30 30   0000000000000000
0370 : 00 01 00 00 00 00 00 00  00 00 00 00 00 00 00 00   ................

Copy Protection:
    Copy Protection: None found

Tracks and Write Offsets:
    DAT:

<rom name="PM2.bin" size="251986224" crc="68c639cb" md5="0aa7e2f513acb0ed2e5e6f11bb8911ba" sha1="8a933abb527764a2a5cb4b4084b7936d4c4444a5" />

    Cuesheet:

FILE "PM2.bin" BINARY
  TRACK 01 MODE1/2352
    INDEX 01 00:00:00

    Write Offset: -582

Logs:  https://mega.nz/#!K9sEHQKZ!1k6uiHoFcKCK … kXJUzIZwNI

This must be multi-system

http://redump.org/disc/24398/

Madroms wrote:

comments:
- with desync so tracks with sub indexes created
- track 14 is reported as Audio when, I think, it must be mode 2 like all the other tracks (a movie .dat file points to the track 14 LBA)

probably worth reporting to Sarami @
http://forum.redump.org/topic/10483

the likelyhood of being able to find a copy of that disc to confirm is slim to none though.

5

(2,433 replies, posted in General discussion)

RibShark wrote:

I have read 30+ sectors into the lead out with 0xF1, not sure why you can't unless the lead out on your disc doesn't contain many sectors.

30 would be +17640 ?
What insane discs are you dumping?

6

(2,433 replies, posted in General discussion)

sarami wrote:

Updated test version. http://www.mediafire.com/file/eq80y20l9 … st.7z/file
@wiggy2k, @Lizard
Logs, please.

looks good now, thank you

LBA[123395, 0x1e203], MSF[27:27:20], mode 1
LBA[123396, 0x1e204], MSF[27:27:21], mode 1 User data vs. ecc/edc doesn't match
LBA[123397, 0x1e205], MSF[00:00:00], zero sync
LBA[123398, 0x1e206], MSF[00:00:00], zero sync
LBA[123399, 0x1e207], audio
LBA[123400, 0x1e208], audio

New logs: https://mega.nz/#!2tdCnYIR!cRZvRGcKhkHV … ASF4uMfg0E

7

(2,433 replies, posted in General discussion)

Sarami,

Can you take a look at this dump.

http://forum.redump.org/topic/26627/fmt … nd-sarami/

LBA for some empty audio sectors is coming out as -150 tried a few recent DIC versions.

8

(1 replies, posted in Guests & account requests)

Hi a_team,

The data for Playstation is fully viewable to unregistered users @ http://redump.org/discs/system/psx/
Currently there are hashes for 10,205 Discs for that system to assist you in verifying that your own backups are correct.
you can apply various filters or use the search function at the top of the page to help find the disc that you are interested in.

DAT files and cuesheets are available to download to use with your preferred file management software to assist with renaming and compressing your backups to match our naming convention.

If by 'looking for' you are under the impression that you can download the game discs here, then you are mistaken, Redump is simply a database of file hashes, cataloging optical media for many different gaming consoles and computing platforms. There are no 'ISOs' or 'ROMs' available on the site. This is a common misconception, the Redump community wouldn't still be around after so many years if that were the case.

Wiggy

Common Disc Info:
    Title: Grauen no Torikago: Kapitel 6: Senritsu
    Foreign Title (Non-latin): グラウエンの鳥籠Kapitel6「戦慄」
    System: Sega Dreamcast
    Media Type: GD-ROM
    Category: Games (I would actually say Multimedia but the other 5 volumes seem to be in the games category)
    Region: Japan
    Languages: Japanese
    Disc Serial: HDR-0038

    Ringcode Information:
        Mastering Code (laser branded/etched): <HDR-0038-0454>HK702C
        Mastering SID Code: IFPI L463
        Data-Side Mould SID Code: IFPI 783B

    Barcode:
    EXE/Build Date: 2000-06-27
    Error Count: 0
    Comments:  Sega ID: 673-01787
    Interactive movie game sold exclusively through the Dreamcast Direct online service, and also relies on an internet connection (and now deceased servers) in order to function.


Version and Editions:
    Version: 1.001
    Edition/Release: Original

Extras:
    Primary Volume Descriptor (PVD):

0320 : 20 20 20 20 20 20 20 20  20 20 20 20 20 32 30 30                200
0330 : 30 30 36 32 37 31 30 33  36 32 37 30 30 24 32 30   0062710362700$20
0340 : 30 30 30 36 32 37 31 30  33 36 32 37 30 30 24 30   00062710362700$0
0350 : 30 30 30 30 30 30 30 30  30 30 30 30 30 30 30 00   000000000000000.
0360 : 30 30 30 30 30 30 30 30  30 30 30 30 30 30 30 30   0000000000000000
0370 : 00 01 00 00 00 00 00 00  00 00 00 00 00 00 00 00   ................

Header:

0000 : 53 45 47 41 20 53 45 47  41 4B 41 54 41 4E 41 20   SEGA SEGAKATANA 
0010 : 53 45 47 41 20 45 4E 54  45 52 50 52 49 53 45 53   SEGA ENTERPRISES
0020 : 36 31 37 36 20 47 44 2D  52 4F 4D 31 2F 31 20 20   6176 GD-ROM1/1  
0030 : 4A 20 20 20 20 20 20 20  32 37 39 39 38 31 30 20   J       2799810 
0040 : 48 44 52 2D 30 30 33 38  20 20 56 31 2E 30 30 31   HDR-0038  V1.001
0050 : 32 30 30 30 30 36 32 37  20 20 20 20 20 20 20 20   20000627        
0060 : 31 53 54 5F 52 45 41 44  2E 42 49 4E 20 20 20 20   1ST_READ.BIN    
0070 : 53 45 47 41 20 45 4E 54  45 52 50 52 49 53 45 53   SEGA ENTERPRISES
0080 : 47 52 41 55 45 4E 20 56  4F 4C 2E 36 20 20 20 20   GRAUEN VOL.6    
0090 : 20 20 20 20 20 20 20 20  20 20 20 20 20 20 20 20                   
00A0 : 20 20 20 20 20 20 20 20  20 20 20 20 20 20 20 20                   
00B0 : 20 20 20 20 20 20 20 20  20 20 20 20 20 20 20 20                   
00C0 : 20 20 20 20 20 20 20 20  20 20 20 20 20 20 20 20                   
00D0 : 20 20 20 20 20 20 20 20  20 20 20 20 20 20 20 20                   
00E0 : 20 20 20 20 20 20 20 20  20 20 20 20 20 20 20 20                   
00F0 : 20 20 20 20 20 20 20 20  20 20 20 20 20 20 20 20                   

Tracks and Write Offsets:
    DAT:

<rom name="GRAUEN_VOL6 (Track 1).bin" size="705600" crc="13064bac" md5="26a6fbe24a10ba3e6c1a726c2db7e949" sha1="ad28ff3cb52e8bef52f7802b0d563ab0bb231884" />
<rom name="GRAUEN_VOL6 (Track 2).bin" size="2088576" crc="1859ea65" md5="652a31166a58b8f933e8a924e7c88780" sha1="0ecd537e42946f3e74c80c9fcb8d0bccccfc96f1" />
<rom name="GRAUEN_VOL6 (Track 3).bin" size="1185760800" crc="79de175a" md5="7a571567882c370584519fb0d8ad0bba" sha1="b2ce3b82aa4dabb67653a86f2eb3f155737e89f8" />

Cuesheet:

FILE "Track 01.bin" BINARY
  TRACK 01 MODE1/2352
    INDEX 01 00:00:00
FILE "Track 02.bin" BINARY
  TRACK 02 AUDIO
    INDEX 00 00:00:00
    INDEX 01 00:02:00
FILE "Track 03.bin" BINARY
  TRACK 03 MODE1/2352
    INDEX 01 00:00:00


    Write Offset: 24 / 24



DCDumper Log:

DCdumper.exe e: -c446261 -df -ft -t0 -p20 

Handle acquired.
Load disc: Done.
Sector map created.

..................:::::::::::::::: PASS 1 ::::::::::::::::..................
Reading section 1: 044990-055278 - Initial dump.
Reading section 2: 055279-065567 - Initial dump.
Reading section 3: 065568-075856 - Initial dump.
Reading section 4: 075857-086145 - Initial dump.
Reading section 5: 086146-096434 - Initial dump.
Reading section 6: 096435-106723 - Initial dump.
Reading section 7: 106724-117012 - Initial dump.
Reading section 8: 117013-127301 - Initial dump.
Reading section 9: 127302-137590 - Initial dump.
Reading section 10: 137591-147879 - Initial dump.
Reading section 11: 147880-158168 - Initial dump.
Reading section 12: 158169-168457 - Initial dump.
Reading section 13: 168458-178746 - Initial dump.
Reading section 14: 178747-189035 - Initial dump.
Reading section 15: 189036-199324 - Initial dump.
Reading section 16: 199325-209613 - Initial dump.
Reading section 17: 209614-219902 - Initial dump.
Reading section 18: 219903-230191 - Initial dump.
Reading section 19: 230192-240480 - Initial dump.
Reading section 20: 240481-250769 - Initial dump.
Reading section 21: 250770-261058 - Initial dump.
Reading section 22: 261059-271347 - Initial dump.
Reading section 23: 271348-281636 - Initial dump.
Reading section 24: 281637-291925 - Initial dump.
Reading section 25: 291926-302214 - Initial dump.
Reading section 26: 302215-312503 - Initial dump.
Reading section 27: 312504-322792 - Initial dump.
Reading section 28: 322793-333081 - Initial dump.
Reading section 29: 333082-343370 - Initial dump.
Reading section 30: 343371-353659 - Initial dump.
Reading section 31: 353660-363948 - Initial dump.
Reading section 32: 363949-374237 - Initial dump.
Reading section 33: 374238-384526 - Initial dump.
Reading section 34: 384527-394815 - Initial dump.
Reading section 35: 394816-405104 - Initial dump.
Reading section 36: 405105-415393 - Initial dump.
Reading section 37: 415394-425682 - Initial dump.
Reading section 38: 425683-435971 - Initial dump.
Reading section 39: 435972-446260 - Initial dump.
Reading section 40: 446261-549150 - Initial dump.

..................:::::::::::::::: PASS 2 ::::::::::::::::..................
Reading section 1: 044990-055278 - MATCH: e1005356eb52eb3e5875e20b9867ea2b
Reading section 2: 055279-065567 - MATCH: 24fb8bf8ceda88df40f0d5c064722b30
Reading section 3: 065568-075856 - MATCH: 5d10ac97eb89ff5a49a3b7b666734216
Reading section 4: 075857-086145 - MATCH: b3b2080bf5e47e448370591d47f9a4a1
Reading section 5: 086146-096434 - MATCH: 6c4ac0b9cafcfa31b9c4470ac5573f16
Reading section 6: 096435-106723 - MATCH: 82ad9427c4d0154153f2c14f8f8abe38
Reading section 7: 106724-117012 - MATCH: 0e876a2c5fa20a4e37e5a864ccc750d5
Reading section 8: 117013-127301 - MATCH: a9dac5e46ac7e8a2e9f3f03ddf65fa76
Reading section 9: 127302-137590 - MATCH: ac840ac84c8577b481499cab9c80e026
Reading section 10: 137591-147879 - MATCH: 5d27a6e012fcfef3fb625e9484a017fe
Reading section 11: 147880-158168 - MATCH: 816a4ebd4922436b1eaecd3bd0f57336
Reading section 12: 158169-168457 - MATCH: 74c49bce5a412931cf4a93b87b0c8183
Reading section 13: 168458-178746 - MATCH: bf91abd36cf393e761014deab72c566b
Reading section 14: 178747-189035 - MATCH: b2c626febc9bfdbccae7bcc712c168bd
Reading section 15: 189036-199324 - MATCH: e70b59d662d7f850d0a02b7305fd2894
Reading section 16: 199325-209613 - MATCH: af1a6b96d8d0c253e9fdd24949387167
Reading section 17: 209614-219902 - MATCH: 7893e8953cf31173ab0cfacf0b0edea3
Reading section 18: 219903-230191 - MATCH: 452edc0e0e4aca92e15aaf08d88f22c9
Reading section 19: 230192-240480 - MATCH: 60f42e0ba3fc769b894ffe51b1a49fa0
Reading section 20: 240481-250769 - MATCH: bea6ae7ffb18943d7467e795ab0b1dbb
Reading section 21: 250770-261058 - MATCH: cff4373c44c4e5f84246e80f2bed1413
Reading section 22: 261059-271347 - MATCH: 2425d2af5cfff8b1bbb0e40fcb3e6ff3
Reading section 23: 271348-281636 - MATCH: 44b0d9fc62fa74a8e2b0ab8054298d06
Reading section 24: 281637-291925 - MATCH: facc8dccbf1f16f012a58bfa1fc5ebb0
Reading section 25: 291926-302214 - MATCH: 306cb7a95622d5fc77ce5947837d980a
Reading section 26: 302215-312503 - MATCH: 67db61bd597b2cc861572d7274c1e376
Reading section 27: 312504-322792 - MATCH: 8cacea470c7af6ff56080d5ea54fbe8d
Reading section 28: 322793-333081 - MATCH: cefcf1d04a9a00293a45a2be168dff09
Reading section 29: 333082-343370 - MATCH: 860fe5fa60b5afe76688bb94b63d31b6
Reading section 30: 343371-353659 - MATCH: d6393734a1160d427ea0cfaa1eb3ad6f
Reading section 31: 353660-363948 - MATCH: 50d9aba8eba0cd07311ca722e53e8add
Reading section 32: 363949-374237 - MATCH: d9a6bb9b1a5d1758bd78223d6ba2483c
Reading section 33: 374238-384526 - MATCH: fd5e6aaef3c1a7d67f6e574e676232b1
Reading section 34: 384527-394815 - MATCH: be41247425bef76b2d9853c23ca1a23a
Reading section 35: 394816-405104 - MATCH: 0fde86fe824135eee9155bfed7e1fe9d
Reading section 36: 405105-415393 - MATCH: e975b040dede03ab099dc230201ce36b
Reading section 37: 415394-425682 - MATCH: f8166517bd0f3123bc2154a56a87a1a8
Reading section 38: 425683-435971 - MATCH: bff80412c7f589e13fa4faf60c26b850
Reading section 39: 435972-446260 - MATCH: 454decb7f793f9a0024a9d51581a0acc
Reading section 40: 446261-549150 - read error.

..................:::::::::::::::: PASS 3 ::::::::::::::::..................
Reading section 40: 446261-549150 - MATCH: 54894ad050cfdfae1337b1a9a35a59da
Creating dense.bin: Done. Pass this to ice.exe

IP.txt

Application title:
GRAUEN VOL.6

Developer:
SEGA ENTERPRISES

Publisher:
SEGA ENTERPRISES

Disc number:
GD-ROM1/1

Supported regions:
J

Internal serial:
HDR-0038

Version number:
V1.001

Release date (YYYY-MM-DD):
2000-06-27

CRC16: TRUE
6176

Disc identifier: TRUE
SEGA SEGAKATANA

First read file name:
1ST_READ.BIN

UNKNOWN (reserved?):


Additional flags: 2799810
-------------------------
Minimal set of buttons required by application:
 Start, A, B, Direction buttons: TRUE
 C button: FALSE
 D button: FALSE
 X button: TRUE
 Y button: TRUE
 Z button: FALSE
 Expanded direction buttons: FALSE
 Analog R Trigger: TRUE
 Analog L Trigger: TRUE
 Standard analog X: TRUE
 Standard analog Y: TRUE
 Expanded analog X: FALSE
 Expanded analog Y: FALSE

Supported peripherals:
 Mouse: FALSE
 Gun controller: FALSE
 Keyboard: TRUE

Supported expanded peripherals:
 Memory card: TRUE
 Sound input peripheral (SIP): FALSE
 Vibrator: FALSE
 Other devices: FALSE

VGA Box supported: TRUE
Use WindowsCE: FALSE

ICE.exe Output:

ice @20090609 / themabus@inbox.lv
---------------------------------
dense.bin
---------------------------------
Accessing                       : ok
Seeking 1st valid Mode1 sector  : ok
 LBA found                      : 44990
 @file offset                   : $00000078
 Scrambled                      : TRUE
Seeking LBA 45000               : ok
 Combined offset (samples)      : 30
Parsing IP.BIN                  : ok
 Writting 'ip.txt'              : ok
Parsing TOC                     : ok
 TOC entries                    : 4
 Writting 'redump.cue'          : ok
---------------------------------
03  Mode1   45000  549149  504150 ok
---------------------------------
done

EccEdc check result:
User data vs. ecc/edc match all


Logs attached

10

(2 replies, posted in Verifications)

Title =  Taxi 2: Le Jeu

11

(6 replies, posted in General discussion)

didn't it take google engineers like 100 years of CPU time to do a POC collision for SHA-1 ?

edit:  nope i was a mile off,

    Nine quintillion (9,223,372,036,854,775,808) SHA1 computations in total
    6,500 years of CPU computation to complete the attack first phase
    110 years of GPU computation to complete the second phase

I don't think we have anything to be worried about there for the forseable future.

12

(1 replies, posted in New Dumps)

T-10310G

insert Heart Eyes emoji here!

Common Disc Info:
    Title: Breakdown Premium DVD
    Foreign Title (Non-latin): ブレークダウン PREMIUM DVD
    System: DVD-Video
    Media Type: DVD-ROM-5
    Category:  Bonus disc i guess, otherwise Games
    Region: Japan
    Languages: not checked
    Disc Serial: NM 008H01

    Ringcode Information:
        Mastering Code (laser branded/etched): NM 008H01 MT H02A
        Mastering SID Code: IFPI L267

        Additional Mould: 03K

    Barcode: 4 907892 091030
    Comments: Bundled with R:Racing Evolution: Life in the Fast Lane, for Microsoft XBOX http://redump.org/disc/56013/
    Contents:

Version and Editions:
    Version:
    Edition/Release: Bundled with XBOX Game

Extras:
    Primary Volume Descriptor (PVD):

0320 : 20 20 20 20 20 20 20 20  20 20 20 20 20 32 30 30                200
0330 : 33 31 31 30 34 31 34 33  37 33 34 30 30 24 30 30   3110414373400$00
0340 : 30 30 30 30 30 30 30 30  30 30 30 30 30 30 00 30   00000000000000.0
0350 : 30 30 30 30 30 30 30 30  30 30 30 30 30 30 30 00   000000000000000.
0360 : 30 30 30 30 30 30 30 30  30 30 30 30 30 30 30 30   0000000000000000
0370 : 00 01 00 00 00 00 00 00  00 00 00 00 00 00 00 00   ................

Copy Protection:
    Copy Protection:

Region: 2
Copyright Protection System Type: CSS/CPPM
Encrypted Disc Key: 21 82 64 6A F8
Player Key: 01 AF E3 12 80
Decrypted Disc Key: 00 00 04 EA 8F

Size & Checksum:
    Size: 476979200
    CRC32: a0ee0f3d
    MD5: 191535286937df3d7d2c2105bc87ff60
    SHA1: d8174e51a3715e380fb2ce2cf94f01194d1ba1e0


Logs Attached.

14

(9 replies, posted in Guests & account requests)

bilsmaks wrote:

click convert it instantly says complete and nothing is in the output

ah OK,

Delete the .cue file from your source (working) directory.

it will then work

15

(9 replies, posted in Guests & account requests)

which image exactly ?
is that the only track that needs fixing? that behaviour doesn't sound right.

here for example is my recently submitted dump (for Redump) of "Chocolat - Maid Cafe 'Curio' Taikenban"
it's not even in the redump DB yet.

if i put my binary files in the working folder.
add the destination DAT (in this case "Sega Dreamcast - Samplers (TOSEC-v2019-12-22_CM).dat")
select the dump and destination folder and click convert.

all three files (tracks) are rebuilt to the folder i selected as the destination:


https://i.ibb.co/7bYKbZC/Capture.jpg



The output folder then contains a set of files that match the TOSEC / Dumpcast dump:

https://i.ibb.co/7S73syD/output.jpg

16

(9 replies, posted in Guests & account requests)

@bilsmaks.

What is your problem?

Which way are you converting?

if you see my comment at the end of that thread, since we switched to .cue instead of .gdi for these discs (it's a long and very much maligned topic) then some manual steps editing the dat are required when converting in certain circumstances.

“My IFPI is L155, vs Wiggy's L166. “

That will be an affirmative, 155 it is.

18

(8 replies, posted in General discussion)

bin = wav just without the wave header.

http://redump.org/discs/sort/system/dumper/nitro322/

?none of your dumps have audio tracks, i'd say redump all the discs you are talking about and add them as verifications anyway.

Redumped / Edited.

New complete logs attached

Logs: attached

ice.exe output

ice @20090609 / themabus@inbox.lv
---------------------------------
dense.bin
---------------------------------
Accessing                       : ok
Seeking 1st valid Mode1 sector  : ok
 LBA found                      : 44991
 @file offset                   : $00000060
 Scrambled                      : TRUE
Seeking LBA 45000               : ok
 Combined offset (samples)      : -564
Parsing IP.BIN                  : ok
 Writting 'ip.txt'              : ok
Parsing TOC                     : ok
 TOC entries                    : 4
 Writting 'redump.cue'          : ok
---------------------------------
03  Mode1   45000  549149  504150 ok
---------------------------------
done

IP.txt

Application title:
CHOCOLAT - MAID CAFE CURIO -

Developer:
SEGA LC-T-471

Publisher:
SEGA ENTERPRISES

Disc number:
GD-ROM1/1

Supported regions:
J

Internal serial:
6108395

Version number:
V1.002

Release date (YYYY-MM-DD):
2003-10-08

CRC16: TRUE
C5EA

Disc identifier: TRUE
SEGA SEGAKATANA

First read file name:
1ST_READ.BIN

UNKNOWN (reserved?):


Additional flags: 0019210
-------------------------
Minimal set of buttons required by application:
 Start, A, B, Direction buttons: TRUE
 C button: FALSE
 D button: FALSE
 X button: TRUE
 Y button: TRUE
 Z button: FALSE
 Expanded direction buttons: FALSE
 Analog R Trigger: FALSE
 Analog L Trigger: FALSE
 Standard analog X: FALSE
 Standard analog Y: FALSE
 Expanded analog X: FALSE
 Expanded analog Y: FALSE

Supported peripherals:
 Mouse: FALSE
 Gun controller: FALSE
 Keyboard: FALSE

Supported expanded peripherals:
 Memory card: FALSE
 Sound input peripheral (SIP): FALSE
 Vibrator: TRUE
 Other devices: FALSE

VGA Box supported: TRUE
Use WindowsCE: FALSE

Header:

0000 : 53 45 47 41 20 53 45 47  41 4B 41 54 41 4E 41 20   SEGA SEGAKATANA 
0010 : 53 45 47 41 20 45 4E 54  45 52 50 52 49 53 45 53   SEGA ENTERPRISES
0020 : 43 35 45 41 20 47 44 2D  52 4F 4D 31 2F 31 20 20   C5EA GD-ROM1/1  
0030 : 4A 20 20 20 20 20 20 20  30 30 31 39 32 31 30 20   J       0019210 
0040 : 36 31 30 38 33 39 35 20  20 20 56 31 2E 30 30 32   6108395   V1.002
0050 : 32 30 30 33 31 30 30 38  20 20 20 20 20 20 20 20   20031008        
0060 : 31 53 54 5F 52 45 41 44  2E 42 49 4E 20 20 20 20   1ST_READ.BIN    
0070 : 53 45 47 41 20 4C 43 2D  54 2D 34 37 31 20 20 20   SEGA LC-T-471   
0080 : 43 48 4F 43 4F 4C 41 54  20 2D 20 4D 41 49 44 20   CHOCOLAT - MAID 
0090 : 43 41 46 45 20 43 55 52  49 4F 20 2D 20 20 20 20   CAFE CURIO -    
00A0 : 20 20 20 20 20 20 20 20  20 20 20 20 20 20 20 20                   
00B0 : 20 20 20 20 20 20 20 20  20 20 20 20 20 20 20 20                   
00C0 : 20 20 20 20 20 20 20 20  20 20 20 20 20 20 20 20                   
00D0 : 20 20 20 20 20 20 20 20  20 20 20 20 20 20 20 20                   
00E0 : 20 20 20 20 20 20 20 20  20 20 20 20 20 20 20 20                   
00F0 : 20 20 20 20 20 20 20 20  20 20 20 20 20 20 20 20                   

Logs Attached

ice.exe

ice @20090609 / themabus@inbox.lv
---------------------------------
dense.bin
---------------------------------
Accessing                       : ok
Seeking 1st valid Mode1 sector  : ok
 LBA found                      : 44990
 @file offset                   : $00000078
 Scrambled                      : TRUE
Seeking LBA 45000               : ok
 Combined offset (samples)      : 30
Parsing IP.BIN                  : ok
 Writting 'ip.txt'              : ok
Parsing TOC                     : ok
 TOC entries                    : 4
 Writting 'redump.cue'          : ok
---------------------------------
03  Mode1   45000  549149  504150 ok
---------------------------------
done

IP.txt

Application title:
POWER SMASH (SHOP TRIAL VERSION)

Developer:
SEGA ENTERPRISES

Publisher:
SEGA ENTERPRISES

Disc number:
GD-ROM1/1

Supported regions:
J

Internal serial:
6107958

Version number:
V0.901

Release date (YYYY-MM-DD):
2000-09-08

CRC16: TRUE
66AB

Disc identifier: TRUE
SEGA SEGAKATANA

First read file name:
1ST_READ.BIN

UNKNOWN (reserved?):


Additional flags: 07BB210
-------------------------
Minimal set of buttons required by application:
 Start, A, B, Direction buttons: TRUE
 C button: TRUE
 D button: FALSE
 X button: TRUE
 Y button: TRUE
 Z button: TRUE
 Expanded direction buttons: FALSE
 Analog R Trigger: TRUE
 Analog L Trigger: TRUE
 Standard analog X: TRUE
 Standard analog Y: TRUE
 Expanded analog X: FALSE
 Expanded analog Y: FALSE

Supported peripherals:
 Mouse: FALSE
 Gun controller: FALSE
 Keyboard: FALSE

Supported expanded peripherals:
 Memory card: FALSE
 Sound input peripheral (SIP): FALSE
 Vibrator: TRUE
 Other devices: FALSE

VGA Box supported: TRUE
Use WindowsCE: FALSE

CUE:

FILE "Track 01.bin" BINARY
  TRACK 01 MODE1/2352
    INDEX 01 00:00:00
FILE "Track 02.bin" BINARY
  TRACK 02 AUDIO
    INDEX 00 00:00:00
    INDEX 01 00:02:00
FILE "Track 03.bin" BINARY
  TRACK 03 MODE1/2352
    INDEX 01 00:00:00

Header:

0000 : 53 45 47 41 20 53 45 47  41 4B 41 54 41 4E 41 20   SEGA SEGAKATANA 
0010 : 53 45 47 41 20 45 4E 54  45 52 50 52 49 53 45 53   SEGA ENTERPRISES
0020 : 36 36 41 42 20 47 44 2D  52 4F 4D 31 2F 31 20 20   66AB GD-ROM1/1  
0030 : 4A 20 20 20 20 20 20 20  30 37 42 42 32 31 30 20   J       07BB210 
0040 : 36 31 30 37 39 35 38 20  20 20 56 30 2E 39 30 31   6107958   V0.901
0050 : 32 30 30 30 30 39 30 38  20 20 20 20 20 20 20 20   20000908        
0060 : 31 53 54 5F 52 45 41 44  2E 42 49 4E 20 20 20 20   1ST_READ.BIN    
0070 : 53 45 47 41 20 45 4E 54  45 52 50 52 49 53 45 53   SEGA ENTERPRISES
0080 : 50 4F 57 45 52 20 53 4D  41 53 48 20 28 53 48 4F   POWER SMASH (SHO
0090 : 50 20 54 52 49 41 4C 20  56 45 52 53 49 4F 4E 29   P TRIAL VERSION)
00A0 : 20 20 20 20 20 20 20 20  20 20 20 20 20 20 20 20                   
00B0 : 20 20 20 20 20 20 20 20  20 20 20 20 20 20 20 20                   
00C0 : 20 20 20 20 20 20 20 20  20 20 20 20 20 20 20 20                   
00D0 : 20 20 20 20 20 20 20 20  20 20 20 20 20 20 20 20                   
00E0 : 20 20 20 20 20 20 20 20  20 20 20 20 20 20 20 20                   
00F0 : 20 20 20 20 20 20 20 20  20 20 20 20 20 20 20 20                   

HD area:

ICE output:

ice @20090609 / themabus@inbox.lv
---------------------------------
dense.bin
---------------------------------
Accessing                       : ok
Seeking 1st valid Mode1 sector  : ok
 LBA found                      : 44990
 @file offset                   : $0000004C
 Scrambled                      : TRUE
Seeking LBA 45000               : ok
 Combined offset (samples)      : 19
Parsing IP.BIN                  : ok
 Writting 'ip.txt'              : ok
Parsing TOC                     : ok
 TOC entries                    : 39
 Writting 'redump.cue'          : ok
---------------------------------
03  Mode1   45000  461725  416726 ok
04  Audio  461726  474493   12768 ok
05  Audio  474494  487155   12662 ok
06  Audio  487156  487893     738 ok
07  Audio  487894  488631     738 ok
08  Audio  488632  489369     738 ok
09  Audio  489370  490107     738 ok
10  Audio  490108  490845     738 ok
11  Audio  490846  491583     738 ok
12  Audio  491584  492321     738 ok
13  Audio  492322  493059     738 ok
14  Audio  493060  493797     738 ok
15  Audio  493798  494535     738 ok
16  Audio  494536  509997   15462 ok
17  Audio  509998  516898    6901 ok
18  Audio  516899  517636     738 ok
19  Audio  517637  531553   13917 ok
20  Audio  531554  532291     738 ok
21  Audio  532292  533029     738 ok
22  Audio  533030  533767     738 ok
23  Audio  533768  536690    2923 ok
24  Audio  536691  537428     738 ok
25  Audio  537429  538166     738 ok
26  Audio  538167  538904     738 ok
27  Audio  538905  539642     738 ok
28  Audio  539643  541543    1901 ok
29  Audio  541544  542209     666 ok
30  Audio  542210  542947     738 ok
31  Audio  542948  543652     705 ok
32  Audio  543653  544390     738 ok
33  Audio  544391  545128     738 ok
34  Audio  545129  545866     738 ok
35  Audio  545867  546604     738 ok
36  Audio  546605  547342     738 ok
37  Audio  547343  548080     738 ok
38  Mode1  548081  549149    1069 ok (75)
---------------------------------
done

IP.txt

Application title:
GUILTY GEAR X SAMPLE

Developer:
T-24

Publisher:
SEGA ENTERPRISES

Disc number:
GD-ROM1/1

Supported regions:
J

Internal serial:
6107937

Version number:
V1.001

Release date (YYYY-MM-DD):
2000-08-21

CRC16: TRUE
F52E

Disc identifier: TRUE
SEGA SEGAKATANA

First read file name:
1ST_READ.BIN

UNKNOWN (reserved?):


Additional flags: 07BB310
-------------------------
Minimal set of buttons required by application:
 Start, A, B, Direction buttons: TRUE
 C button: TRUE
 D button: FALSE
 X button: TRUE
 Y button: TRUE
 Z button: TRUE
 Expanded direction buttons: FALSE
 Analog R Trigger: TRUE
 Analog L Trigger: TRUE
 Standard analog X: TRUE
 Standard analog Y: TRUE
 Expanded analog X: FALSE
 Expanded analog Y: FALSE

Supported peripherals:
 Mouse: FALSE
 Gun controller: FALSE
 Keyboard: FALSE

Supported expanded peripherals:
 Memory card: FALSE
 Sound input peripheral (SIP): FALSE
 Vibrator: TRUE
 Other devices: TRUE

VGA Box supported: TRUE
Use WindowsCE: FALSE

CUE:

FILE "Track 01.bin" BINARY
  TRACK 01 MODE1/2352
    INDEX 01 00:00:00
FILE "Track 02.bin" BINARY
  TRACK 02 AUDIO
    INDEX 00 00:00:00
    INDEX 01 00:02:00
FILE "Track 03.bin" BINARY
  TRACK 03 MODE1/2352
    INDEX 01 00:00:00
FILE "Track 04.bin" BINARY
  TRACK 04 AUDIO
    INDEX 00 00:00:00
    INDEX 01 00:02:00
FILE "Track 05.bin" BINARY
  TRACK 05 AUDIO
    INDEX 00 00:00:00
    INDEX 01 00:02:00
FILE "Track 06.bin" BINARY
  TRACK 06 AUDIO
    INDEX 00 00:00:00
    INDEX 01 00:02:00
FILE "Track 07.bin" BINARY
  TRACK 07 AUDIO
    INDEX 00 00:00:00
    INDEX 01 00:02:00
FILE "Track 08.bin" BINARY
  TRACK 08 AUDIO
    INDEX 00 00:00:00
    INDEX 01 00:02:00
FILE "Track 09.bin" BINARY
  TRACK 09 AUDIO
    INDEX 00 00:00:00
    INDEX 01 00:02:00
FILE "Track 10.bin" BINARY
  TRACK 10 AUDIO
    INDEX 00 00:00:00
    INDEX 01 00:02:00
FILE "Track 11.bin" BINARY
  TRACK 11 AUDIO
    INDEX 00 00:00:00
    INDEX 01 00:02:00
FILE "Track 12.bin" BINARY
  TRACK 12 AUDIO
    INDEX 00 00:00:00
    INDEX 01 00:02:00
FILE "Track 13.bin" BINARY
  TRACK 13 AUDIO
    INDEX 00 00:00:00
    INDEX 01 00:02:00
FILE "Track 14.bin" BINARY
  TRACK 14 AUDIO
    INDEX 00 00:00:00
    INDEX 01 00:02:00
FILE "Track 15.bin" BINARY
  TRACK 15 AUDIO
    INDEX 00 00:00:00
    INDEX 01 00:02:00
FILE "Track 16.bin" BINARY
  TRACK 16 AUDIO
    INDEX 00 00:00:00
    INDEX 01 00:02:00
FILE "Track 17.bin" BINARY
  TRACK 17 AUDIO
    INDEX 00 00:00:00
    INDEX 01 00:02:00
FILE "Track 18.bin" BINARY
  TRACK 18 AUDIO
    INDEX 00 00:00:00
    INDEX 01 00:02:00
FILE "Track 19.bin" BINARY
  TRACK 19 AUDIO
    INDEX 00 00:00:00
    INDEX 01 00:02:00
FILE "Track 20.bin" BINARY
  TRACK 20 AUDIO
    INDEX 00 00:00:00
    INDEX 01 00:02:00
FILE "Track 21.bin" BINARY
  TRACK 21 AUDIO
    INDEX 00 00:00:00
    INDEX 01 00:02:00
FILE "Track 22.bin" BINARY
  TRACK 22 AUDIO
    INDEX 00 00:00:00
    INDEX 01 00:02:00
FILE "Track 23.bin" BINARY
  TRACK 23 AUDIO
    INDEX 00 00:00:00
    INDEX 01 00:02:00
FILE "Track 24.bin" BINARY
  TRACK 24 AUDIO
    INDEX 00 00:00:00
    INDEX 01 00:02:00
FILE "Track 25.bin" BINARY
  TRACK 25 AUDIO
    INDEX 00 00:00:00
    INDEX 01 00:02:00
FILE "Track 26.bin" BINARY
  TRACK 26 AUDIO
    INDEX 00 00:00:00
    INDEX 01 00:02:00
FILE "Track 27.bin" BINARY
  TRACK 27 AUDIO
    INDEX 00 00:00:00
    INDEX 01 00:02:00
FILE "Track 28.bin" BINARY
  TRACK 28 AUDIO
    INDEX 00 00:00:00
    INDEX 01 00:02:00
FILE "Track 29.bin" BINARY
  TRACK 29 AUDIO
    INDEX 00 00:00:00
    INDEX 01 00:02:00
FILE "Track 30.bin" BINARY
  TRACK 30 AUDIO
    INDEX 00 00:00:00
    INDEX 01 00:02:00
FILE "Track 31.bin" BINARY
  TRACK 31 AUDIO
    INDEX 00 00:00:00
    INDEX 01 00:02:00
FILE "Track 32.bin" BINARY
  TRACK 32 AUDIO
    INDEX 00 00:00:00
    INDEX 01 00:02:00
FILE "Track 33.bin" BINARY
  TRACK 33 AUDIO
    INDEX 00 00:00:00
    INDEX 01 00:02:00
FILE "Track 34.bin" BINARY
  TRACK 34 AUDIO
    INDEX 00 00:00:00
    INDEX 01 00:02:00
FILE "Track 35.bin" BINARY
  TRACK 35 AUDIO
    INDEX 00 00:00:00
    INDEX 01 00:02:00
FILE "Track 36.bin" BINARY
  TRACK 36 AUDIO
    INDEX 00 00:00:00
    INDEX 01 00:02:00
FILE "Track 37.bin" BINARY
  TRACK 37 AUDIO
    INDEX 00 00:00:00
    INDEX 01 00:02:00
FILE "Track 38.bin" BINARY
  TRACK 38 MODE1/2352
    INDEX 00 00:00:00
    INDEX 01 00:03:00

Header:

0000 : 53 45 47 41 20 53 45 47  41 4B 41 54 41 4E 41 20   SEGA SEGAKATANA 
0010 : 53 45 47 41 20 45 4E 54  45 52 50 52 49 53 45 53   SEGA ENTERPRISES
0020 : 46 35 32 45 20 47 44 2D  52 4F 4D 31 2F 31 20 20   F52E GD-ROM1/1  
0030 : 4A 20 20 20 20 20 20 20  30 37 42 42 33 31 30 20   J       07BB310 
0040 : 36 31 30 37 39 33 37 20  20 20 56 31 2E 30 30 31   6107937   V1.001
0050 : 32 30 30 30 30 38 32 31  20 20 20 20 20 20 20 20   20000821        
0060 : 31 53 54 5F 52 45 41 44  2E 42 49 4E 20 20 20 20   1ST_READ.BIN    
0070 : 54 2D 32 34 20 20 20 20  20 20 20 20 20 20 20 20   T-24            
0080 : 47 55 49 4C 54 59 20 47  45 41 52 20 58 20 53 41   GUILTY GEAR X SA
0090 : 4D 50 4C 45 20 20 20 20  20 20 20 20 20 20 20 20   MPLE            
00A0 : 20 20 20 20 20 20 20 20  20 20 20 20 20 20 20 20                   
00B0 : 20 20 20 20 20 20 20 20  20 20 20 20 20 20 20 20                   
00C0 : 20 20 20 20 20 20 20 20  20 20 20 20 20 20 20 20                   
00D0 : 20 20 20 20 20 20 20 20  20 20 20 20 20 20 20 20                   
00E0 : 20 20 20 20 20 20 20 20  20 20 20 20 20 20 20 20                   
00F0 : 20 20 20 20 20 20 20 20  20 20 20 20 20 20 20 20                   

Common Disc Info:
    Title: Chocolat: Maid Cafe "Curio"
    Foreign Title (Non-latin): ショコラ~maidcafe“curio”~
    System: Sega Dreamcast
    Media Type: GD-ROM
    Category: Demos
    Region: Japan
    Languages: not Checked
    Disc Serial: 610-8395

    Ringcode Information:
        Mastering Code (laser branded/etched):  610-8395-0900<tab>1MS1<tab>C<tab>3X
        Mastering SID Code: IFPI L223
        Data-Side Mould SID Code: IFPI 39B7
        Label-Side Mould SID Code: (REQUIRED, IF EXISTS)

    Barcode:
    EXE/Build Date: 2003-10-08
    Error Count: 0
    Comments:
    Contents:

Version and Editions:
    Version:  1.002
    Edition/Release: Original

Extras:
    Primary Volume Descriptor (PVD):

0320 : 20 20 20 20 20 20 20 20  20 20 20 20 20 32 30 30                200
0330 : 33 31 30 30 37 32 33 33  34 30 31 30 30 24 32 30   3100723340100$20
0340 : 30 33 31 30 30 37 32 33  33 34 30 31 30 30 24 30   03100723340100$0
0350 : 30 30 30 30 30 30 30 30  30 30 30 30 30 30 30 00   000000000000000.
0360 : 30 30 30 30 30 30 30 30  30 30 30 30 30 30 30 30   0000000000000000
0370 : 00 01 00 00 00 00 00 00  00 00 00 00 00 00 00 00   ................

Tracks and Write Offsets:
    DAT:
<rom name="Track 01.bin" size="705600" crc="60b4057c" md5="3d6b30772f7fffc352058d9a7a72049f" sha1="efc1a3ed37d873edc874436cf2fe1b18efd28112"/>
<rom name="Track 02.bin" size="5268480" crc="cc64e5d5" md5="4ef539c4f9fce5a719a2282115464eb1" sha1="2be6dc6c95cece5e406b85c7e1f8651e677ac084"/>
<rom name="Track 03.bin" size="1185760800" crc="a7451710" md5="40063879b1825d013144d3e203bcbaa1" sha1="61ded0ebafe3d53248904eeb718b572cb72d3ea9"/>

    Cuesheet:

FILE "Track 01.bin" BINARY
  TRACK 01 MODE1/2352
    INDEX 01 00:00:00
FILE "Track 02.bin" BINARY
  TRACK 02 AUDIO
    INDEX 00 00:00:00
    INDEX 01 00:02:00
FILE "Track 03.bin" BINARY
  TRACK 03 MODE1/2352
    INDEX 01 00:00:00



    Write Offset: -570

Logs and HD area coming in a a minute