1

(3 replies, posted in Fixes & additions)

After recent discussions I tried my hardest too big_smile

2

(3 replies, posted in Fixes & additions)

https://upload.wikimedia.org/wikipedia/en/b/b1/Shaggy-wasn%27t-me.jpg

3

(0 replies, posted in New Dumps)

CD1:

Common Disc Info:
    Title: LOOM
    Foreign Title (Non-latin):
    Disc Number / Letter: 1
    Disc Title:
    System: Fujitsu FM Towns Marty
    Media Type: CD-ROM
    Category: Games
    Region: Japan
    Languages:
    Disc Serial: HMC-111-1
    Ringcode Information:
        Mastering Code (laser branded/etched): HMC-111-1<tab>1A2<tab>C<tab>13
    Barcode: T4988618018517
    Error Count: 0
    Comments: other numbers on disc  TSC090     A2760080
    Contents: (OPTIONAL)

Version and Editions:
    Version: (REQUIRED, IF EXISTS)
    Edition/Release: Original (VERIFY THIS)

Extras:
    Primary Volume Descriptor (PVD):

0320 : 20 20 20 20 20 20 20 20  20 20 20 20 20 31 39 39                199
0330 : 31 30 33 31 38 32 30 31  36 30 33 30 30 00 31 39   1031820160300.19
0340 : 39 31 30 33 31 38 32 30  32 30 34 32 30 30 00 30   91031820204200.0
0350 : 30 30 30 30 30 30 30 30  30 30 30 30 30 30 30 00   000000000000000.
0360 : 30 30 30 30 30 30 30 30  30 30 30 30 30 30 30 30   0000000000000000
0370 : 00 01 00 00 00 00 00 00  00 00 00 00 00 00 00 00   ................

Tracks and Write Offsets:
    DAT:

<rom name="LOOMCD1 (Track 01).bin" size="20815200" crc="f724b1c6" md5="1ec4be65d0b020ca7941eddb88fef140" sha1="f23ad9842ecadf1c52c51d840baf06ae50518d5c" />
<rom name="LOOMCD1 (Track 02).bin" size="28106400" crc="fae70f1d" md5="58770edcee19d207236037b45244caaa" sha1="85eb6df1f8da0e1efc64ac4274bb7f71818c8e4e" />
<rom name="LOOMCD1 (Track 03).bin" size="23014320" crc="91d9abfa" md5="6947c2160d4ddf3cc6d1881ac4162fd7" sha1="6b31cdf89309442eb5b9e524dd160719bc2ca819" />
<rom name="LOOMCD1 (Track 04).bin" size="32892720" crc="3a42d949" md5="b02c68938ad60077f028842d3b81d0dd" sha1="4c5f7ff197fa6f0df52886314935a8b6ec8af474" />
<rom name="LOOMCD1 (Track 05).bin" size="15840720" crc="69519c3c" md5="24b8e88b08f6a97f88a7821588e2159a" sha1="c8e4d200ad0daa2a91d260f36650092959531cce" />
<rom name="LOOMCD1 (Track 06).bin" size="30752400" crc="8d5d56e0" md5="6f41d7ad1c21a92d8f78724f9d8b8d5c" sha1="b2b4c12b2ebb8bcf62abd274beba40748c712a09" />
<rom name="LOOMCD1 (Track 07).bin" size="17745840" crc="4181f3cb" md5="ca8eb3c986a90bc28e3d6240a3ea323f" sha1="341f8dc2da94f1cb4257201ca21ac2c4fa5755e8" />
<rom name="LOOMCD1 (Track 08).bin" size="57024240" crc="1488beff" md5="cc475bf09c0a28b35710ead5c5c4c30e" sha1="707629918b1911fbfe3a1825317b043232b75eb9" />
<rom name="LOOMCD1 (Track 09).bin" size="48004320" crc="8dc24b25" md5="abf1ea757005f6135b6e326418994a3f" sha1="e28462c39e048c12bc734d1c8323f731f7536778" />
<rom name="LOOMCD1 (Track 10).bin" size="29388240" crc="1d4aa0d9" md5="bfe17417345117b26e81b6313bb4342c" sha1="672e1aafc67e6b67e786b8e9055633f01256373d" />
<rom name="LOOMCD1 (Track 11).bin" size="26177760" crc="99cb69be" md5="0316b31edda34a44736af209dc67ad4d" sha1="1ea0a6aed12348884720ccfddb861f7bebf0624c" />
<rom name="LOOMCD1 (Track 12).bin" size="35397600" crc="0efe34bf" md5="0202d95fbc14a794808c6fa09db2a80b" sha1="4bf5864e98e45a6e1bd0cad1648c3352a33e37df" />
<rom name="LOOMCD1 (Track 13).bin" size="16652160" crc="014f1489" md5="968e7663dd300547119a510671557317" sha1="840f7c127ddefc299340c7ac041f9a0b69c1fac5" />
<rom name="LOOMCD1 (Track 14).bin" size="31822560" crc="9c363269" md5="e851871c63881d4783354f40672e397f" sha1="a72f7c4a32ccff0abd04123b7f9d01559b5f4a26" />
<rom name="LOOMCD1 (Track 15).bin" size="16746240" crc="69a94e73" md5="2c70aef9ec1a745bce7d9f3cfc72a087" sha1="6291c733d9613bcd435ca5afcaacb962f4dedbe5" />
<rom name="LOOMCD1 (Track 16).bin" size="56130480" crc="1981427d" md5="1ae4bed08cc005ea77d6b40104b0b503" sha1="e6138581d61781f11edbe1732b033c27e55ca222" />
<rom name="LOOMCD1 (Track 17).bin" size="49568400" crc="bbf820bc" md5="1f9c9bcfa836d765a7973163bfaafd19" sha1="473456b71bbf248079460747d2c7fbe135854fc1" />
<rom name="LOOMCD1 (Track 18).bin" size="6397440" crc="d796e415" md5="31cea2f2078ed4dd3429f9b801fffa62" sha1="2520da05b2859dd94c65dd33650b2d5f051aec39" />
<rom name="LOOMCD1 (Track 19).bin" size="14970480" crc="48ba2192" md5="4ac8d7a3aca6463e2fc0fc2d09072a8b" sha1="34c1800b0c1d5c6f33996544010ec76ae9a06ca8" />

    Cuesheet:

FILE "LOOMCD1 (Track 01).bin" BINARY
  TRACK 01 MODE1/2352
    INDEX 01 00:00:00
FILE "LOOMCD1 (Track 02).bin" BINARY
  TRACK 02 AUDIO
    INDEX 00 00:00:00
    INDEX 01 00:04:25
FILE "LOOMCD1 (Track 03).bin" BINARY
  TRACK 03 AUDIO
    INDEX 00 00:00:00
    INDEX 01 00:05:35
FILE "LOOMCD1 (Track 04).bin" BINARY
  TRACK 04 AUDIO
    INDEX 00 00:00:00
    INDEX 01 00:02:35
FILE "LOOMCD1 (Track 05).bin" BINARY
  TRACK 05 AUDIO
    INDEX 00 00:00:00
    INDEX 01 00:03:60
FILE "LOOMCD1 (Track 06).bin" BINARY
  TRACK 06 AUDIO
    INDEX 00 00:00:00
    INDEX 01 00:06:25
FILE "LOOMCD1 (Track 07).bin" BINARY
  TRACK 07 AUDIO
    INDEX 00 00:00:00
    INDEX 01 00:07:45
FILE "LOOMCD1 (Track 08).bin" BINARY
  TRACK 08 AUDIO
    INDEX 00 00:00:00
    INDEX 01 00:03:65
FILE "LOOMCD1 (Track 09).bin" BINARY
  TRACK 09 AUDIO
    INDEX 00 00:00:00
    INDEX 01 00:01:35
FILE "LOOMCD1 (Track 10).bin" BINARY
  TRACK 10 AUDIO
    INDEX 00 00:00:00
    INDEX 01 00:04:65
FILE "LOOMCD1 (Track 11).bin" BINARY
  TRACK 11 AUDIO
    INDEX 00 00:00:00
    INDEX 01 00:03:65
FILE "LOOMCD1 (Track 12).bin" BINARY
  TRACK 12 AUDIO
    INDEX 00 00:00:00
    INDEX 01 00:03:50
FILE "LOOMCD1 (Track 13).bin" BINARY
  TRACK 13 AUDIO
    INDEX 00 00:00:00
    INDEX 01 00:03:30
FILE "LOOMCD1 (Track 14).bin" BINARY
  TRACK 14 AUDIO
    INDEX 00 00:00:00
    INDEX 01 00:05:60
FILE "LOOMCD1 (Track 15).bin" BINARY
  TRACK 15 AUDIO
    INDEX 00 00:00:00
    INDEX 01 00:02:00
FILE "LOOMCD1 (Track 16).bin" BINARY
  TRACK 16 AUDIO
    INDEX 00 00:00:00
    INDEX 01 00:02:00
FILE "LOOMCD1 (Track 17).bin" BINARY
  TRACK 17 AUDIO
    INDEX 00 00:00:00
    INDEX 01 00:02:00
FILE "LOOMCD1 (Track 18).bin" BINARY
  TRACK 18 AUDIO
    INDEX 00 00:00:00
    INDEX 01 00:02:30
FILE "LOOMCD1 (Track 19).bin" BINARY
  TRACK 19 AUDIO
    INDEX 00 00:00:00
    INDEX 01 00:03:30

    Write Offset: 301



CD2:


Common Disc Info:
    Title: LOOM
    Foreign Title (Non-latin):
    Disc Number / Letter: 2
    Disc Title: Audio drama /  オーディオドラマ
    System: FMTOWNS
    Media Type: CD-ROM
    Category: Games
    Region: Japan
    Languages:
    Disc Serial: HMC-111-2

    Ringcode Information:
        Mastering Code (laser branded/etched): HMC-111-2<tab>1A1<tab>C<tab>13
    Barcode:  T4988618018517
    Error Count: 0
    Comments: other numbers on disc  TSC090     A2760080
    Contents:

Version and Editions:
    Version:
    Edition/Release: Original

Extras:
    Primary Volume Descriptor (PVD): Disc has no PVD

Tracks and Write Offsets:
    DAT:

<rom name="LOOMCD2 (Track 1).bin" size="327751200" crc="3aeaf878" md5="0527dfacefbf7ce72cbbf563ed0f9506" sha1="568943bfb7afae0db9f6d8846ac9f6b450fed681" />
<rom name="LOOMCD2 (Track 2).bin" size="311346000" crc="642c608a" md5="252f9716ee7a9170f682fe93d5c3a9d2" sha1="0431179ff3ccfdf602b01a4e1895558598ba5402" />
<rom name="LOOMCD2 (Track 3).bin" size="66150000" crc="4044a075" md5="745dd5058ef02a2da327c518a5b2948a" sha1="e2aa1682a945bf07586acc0fa2c49c4dcadbfe2f" />
<rom name="LOOMCD2 (Track 4).bin" size="15170400" crc="f21b0d9f" md5="2dcdd4f5760594cf6c628c36efce6254" sha1="3967583d8e23b1daf9eb0747466a598fd05056c5" />
<rom name="LOOMCD2 (Track 5).bin" size="26283600" crc="156c382d" md5="bf10494bb15d10beaacba87920cc8278" sha1="33dd754f82c0aa1e2bd6fdeb9e1adfcffad84099" />
<rom name="LOOMCD2 (Track 6).bin" size="16228800" crc="095d53b6" md5="6444727f19f72e1050f46ba10b15dc68" sha1="245a136b840213e3d9ae263ba34d7f4fc8a44fc7" />

    Cuesheet:

FILE "LOOMCD2 (Track 1).bin" BINARY
  TRACK 01 AUDIO
    INDEX 01 00:00:00
FILE "LOOMCD2 (Track 2).bin" BINARY
  TRACK 02 AUDIO
    INDEX 00 00:00:00
    INDEX 01 00:03:00
FILE "LOOMCD2 (Track 3).bin" BINARY
  TRACK 03 AUDIO
    INDEX 00 00:00:00
    INDEX 01 00:03:00
FILE "LOOMCD2 (Track 4).bin" BINARY
  TRACK 04 AUDIO
    INDEX 00 00:00:00
    INDEX 01 00:04:00
FILE "LOOMCD2 (Track 5).bin" BINARY
  TRACK 05 AUDIO
    INDEX 00 00:00:00
    INDEX 01 00:04:00
FILE "LOOMCD2 (Track 6).bin" BINARY
  TRACK 06 AUDIO
    INDEX 00 00:00:00
    INDEX 01 00:04:00

    Write Offset: 0

Logs:

https://mega.nz/#!S11lmCbC!UdMBPboQGsLB … 3-Wqe-K1wY

4

(0 replies, posted in Verifications)

Matches:  http://redump.org/disc/64836/

New offset + ring. (plus this version has no MCN)

Common Disc Info:
    Title: Turbo Outrun
    Foreign Title (Non-latin): ターボ アウトラン
    System: Fujitsu FM Towns Marty
    Media Type: CD-ROM
    Category: Games
    Region: Japan
    Languages: Japanese
    Disc Serial: HMA-225

    Ringcode Information:
        Mastering Code (laser branded/etched): HMA-225<tab>1
        Mastering SID Code: IFPI L274
        Data-Side Mould SID Code: IFPI 450F
        Barcode: T4981670207202
    Error Count: 0
    Comments: Hit-parade disc has no Catalogue, original does.
    Contents: (OPTIONAL)

Version and Editions:
    Version:
    Edition/Release: CRI GOKAN PACK  /  Sega Game Hit-Parade

Extras:
    Primary Volume Descriptor (PVD):

0320 : 00 00 00 00 00 00 00 00  00 00 00 00 00 31 39 38   .............198
0330 : 39 31 31 32 38 31 39 35  36 32 36 30 30 00 31 39   9112819562600.19
0340 : 38 39 31 31 32 38 31 39  35 39 34 31 30 30 00 30   89112819594100.0
0350 : 30 30 30 30 30 30 30 30  30 30 30 30 30 30 30 00   000000000000000.
0360 : 30 30 30 30 30 30 30 30  30 30 30 30 30 30 30 30   0000000000000000
0370 : 00 01 00 00 00 00 00 00  00 00 00 00 00 00 00 00   ................

Tracks and Write Offsets:
    DAT:

<rom name="TurboOutrun (Track 1).bin" size="4939200" crc="05d56e54" md5="29d75b9faf7d0742d668826719932ff8" sha1="ca13203bdfe5864658cb5ecd398e8f458be38a52" />
<rom name="TurboOutrun (Track 2).bin" size="15876000" crc="34715674" md5="00230183463553203fb905d70d752187" sha1="ca620ec3cd4702e1535549e1098cb8c2c46fc33f" />
<rom name="TurboOutrun (Track 3).bin" size="56977200" crc="f7228fa5" md5="a5a605efaf56adffd864b558be2f07cc" sha1="49d8f4a77cc1031aad28d5a48280cb3446a1cb34" />
<rom name="TurboOutrun (Track 4).bin" size="13935600" crc="68672527" md5="c32b81277bd5fb6e31203c81e424c69a" sha1="e62243aa8d7d55e210922047c46331dcc7eb89a3" />
<rom name="TurboOutrun (Track 5).bin" size="32986800" crc="af1e5b5e" md5="24707b9dfa5a01d2ea099657b933c0dc" sha1="41a2109bf88f93fedf07fc7f06365e58fcd12a95" />
<rom name="TurboOutrun (Track 6).bin" size="52743600" crc="593156b7" md5="373ee89d51a782077e6f034a4dd45c4b" sha1="25d63aff7f6240a6236cdfebe2b113298acd94b0" />
<rom name="TurboOutrun (Track 7).bin" size="52743600" crc="184abbdb" md5="1a2ee4e34f01de0b19e2cc0b028c3293" sha1="17f00edddd78676f244019f29d9e183d14023cf2" />
<rom name="TurboOutrun (Track 8).bin" size="52038000" crc="ed1670d4" md5="0c264669388d1686843ebc4d49d082ac" sha1="f73bc0b7bce424af1a279b49f80cca4141201c49" />
<rom name="TurboOutrun (Track 9).bin" size="38984400" crc="1e02437f" md5="29ccdd2718ce5b2314b4e40ecf0421ab" sha1="b03af28a07d3b73033b1d9ae1654c87d078fe2eb" />

    Cuesheet:

FILE "TurboOutrun (Track 1).bin" BINARY
  TRACK 01 MODE1/2352
    INDEX 01 00:00:00
FILE "TurboOutrun (Track 2).bin" BINARY
  TRACK 02 AUDIO
    INDEX 00 00:00:00
    INDEX 01 00:03:00
FILE "TurboOutrun (Track 3).bin" BINARY
  TRACK 03 AUDIO
    INDEX 00 00:00:00
    INDEX 01 00:02:00
FILE "TurboOutrun (Track 4).bin" BINARY
  TRACK 04 AUDIO
    INDEX 00 00:00:00
    INDEX 01 00:02:00
FILE "TurboOutrun (Track 5).bin" BINARY
  TRACK 05 AUDIO
    INDEX 00 00:00:00
    INDEX 01 00:02:00
FILE "TurboOutrun (Track 6).bin" BINARY
  TRACK 06 AUDIO
    INDEX 00 00:00:00
    INDEX 01 00:02:00
FILE "TurboOutrun (Track 7).bin" BINARY
  TRACK 07 AUDIO
    INDEX 00 00:00:00
    INDEX 01 00:02:00
FILE "TurboOutrun (Track 8).bin" BINARY
  TRACK 08 AUDIO
    INDEX 00 00:00:00
    INDEX 01 00:02:00
FILE "TurboOutrun (Track 9).bin" BINARY
  TRACK 09 AUDIO
    INDEX 00 00:00:00
    INDEX 01 00:02:00

    Write Offset: 2


https://mega.nz/#!y4kx1CDZ!BbKer0VL1pSP … Vv6zbD93CA

Common Disc Info:
    Title: Hitchcock ni Chousen   (Challenge Hitchcock)
    Foreign Title (Non-latin): ヒッチコックに挑戦
    Disc Number / Letter:
    Disc Title:
    System: Panasonic 3DO Interactive Multiplayer
    Media Type: CD-ROM
    Category: I honestly have no idea.
    Region: Japan
    Languages: Japanese (not checked)
    Disc Serial: PT-1

    Ringcode Information:
        Mastering Code (laser branded/etched): PT-1-R1C<tab>V
        Mastering SID Code: IFPI L231
    Barcode: N/A
    Error Count: 0
    Comments: As far as i can tell this was a promotional disc given away at / used at selected Toyota car dealerships in Japan and as such exists in very limited quantities.
    Contents: (OPTIONAL)

Version and Editions:
    Version:
    Edition/Release: Sample for Store / Tenpo-yō sanpuru / 店舗用サンプル

Extras:
    Primary Volume Descriptor (PVD): Disc has no PVD

Tracks and Write Offsets:
    DAT:

<rom name="Hitchcock.bin" size="64181376" crc="a96654ec" md5="c9b0656c70d374468c36c4ec46479e52" sha1="585d88392364f03c565c44372bee0fe4725cf067" />

    Cuesheet:

CATALOG 0000000000000
FILE "Hitchcock.bin" BINARY
  TRACK 01 MODE1/2352
    INDEX 01 00:00:00

    Write Offset: 691


Logs attached

Common Disc Info:
    Title: Super Street Fighter II: The New Challengers
    Foreign Title (Non-latin):  スーパーストリートファイター2
    Disc Number / Letter:
    Disc Title:
    System: Fujitsu FM Towns Marty
    Media Type: CD-ROM
    Category: Games
    Region: Japan
    Languages: Not checked
    Disc Serial: HMF-162

    Ringcode Information:
        Mastering Code (laser branded/etched): 4J13-1
    Barcode: T4976219164184
    Error Count: 0
    Comments:    require 4MB RAM (probably not Marty compatible by default); sold with an adapter for the CPS Fighter joystick controller.
    Contents:

Version and Editions:
    Version: (REQUIRED, IF EXISTS)
    Edition/Release: Original

Extras:
    Primary Volume Descriptor (PVD):

0320 : 20 20 20 20 20 20 20 20  20 20 20 20 20 30 30 30                000
0330 : 30 30 30 30 30 30 30 30  30 30 30 30 30 00 30 30   0000000000000.00
0340 : 30 30 30 30 30 30 30 30  30 30 30 30 30 30 00 30   00000000000000.0
0350 : 30 30 30 30 30 30 30 30  30 30 30 30 30 30 30 00   000000000000000.
0360 : 30 30 30 30 30 30 30 30  30 30 30 30 30 30 30 30   0000000000000000
0370 : 00 01 00 00 00 00 00 00  00 00 00 00 00 00 00 00   ................

Tracks and Write Offsets:
    DAT:

<rom name="SSFII (Track 01).bin" size="17437728" crc="f1c5a1f1" md5="9d581d1795db3db661f0f1ec1ec67090" sha1="cbb85f9bb48c78dee6d03a8f2f224eb48a7e2220" />
<rom name="SSFII (Track 02).bin" size="14112000" crc="32529373" md5="026b1a2412e15f65ae0eb584ce880817" sha1="57697b4345e079cc10a7cdd991bc6a727c241fba" />
<rom name="SSFII (Track 03).bin" size="13582800" crc="678cd157" md5="19228a6df6d273d4bd27ef68845782cc" sha1="1844221c4ee44ae669d9a90e1f4f637d1c590ab2" />
<rom name="SSFII (Track 04).bin" size="13580448" crc="b823d767" md5="dcb6d18c23e1ce924473fc0cb1c288eb" sha1="9721c3822f1097dd9481d0ac04f315044e206a4f" />
<rom name="SSFII (Track 05).bin" size="13582800" crc="9b36506f" md5="089ad4a37d6170a72a36e36cb762c865" sha1="1074c059863759d5d4358a21245e9fb4f772c2ef" />
<rom name="SSFII (Track 06).bin" size="13582800" crc="1301053c" md5="70889dc80b7f694dd9b06069ace88764" sha1="d2da33b61dcb79be3e8f15296619200854ad6f05" />
<rom name="SSFII (Track 07).bin" size="13582800" crc="f6c5730a" md5="b1ab8e23433cf270f11d99102be3a8fa" sha1="b76a6f572d98d5b2e09b56ac168668b61b7ee382" />
<rom name="SSFII (Track 08).bin" size="14112000" crc="aafced2e" md5="1a583a864ae845c9f84dee30b1c44606" sha1="7199824833e0f334e8070203b65e4a2d75a8bb7d" />
<rom name="SSFII (Track 09).bin" size="13582800" crc="62bbb4a8" md5="18e3f4306e425489a83716cf6693aefd" sha1="914515a6f46da1ecf4fdca7c482eee9293907e0d" />
<rom name="SSFII (Track 10).bin" size="13582800" crc="39fb1d65" md5="6d2b83ffa991e9ea6eebe6698e15d5ab" sha1="54c2ec7e97d83296d5667a351778d6f136c8a8a4" />
<rom name="SSFII (Track 11).bin" size="13582800" crc="15e3c499" md5="60acad6fe4e0bc92f560a2d1cd3998ac" sha1="348623a31c27069c9a881ec764904366a6f61eae" />
<rom name="SSFII (Track 12).bin" size="13582800" crc="16974759" md5="6280d5e0efae456af641a68871947853" sha1="999f341df136b58ff534dec71389b2ce3fd89b6d" />
<rom name="SSFII (Track 13).bin" size="15339744" crc="6bdcd7c1" md5="6dc04e25a091d797e5d76e1b12656121" sha1="b9e4f8b4912d188e7bf258c65f1fde4cc12c5870" />
<rom name="SSFII (Track 14).bin" size="13582800" crc="94db4783" md5="0e7d9d32ff61efbddf5b4ae864c9b50c" sha1="0934ba0abdd7c08c0dd8504c094d7ae23c0df2b6" />
<rom name="SSFII (Track 15).bin" size="13582800" crc="02c02566" md5="993535a53afb7adae5189af2a5767a27" sha1="08e28ac195565f99bcc8410ef28ff9c6e0f6f7c5" />
<rom name="SSFII (Track 16).bin" size="13582800" crc="639c1d20" md5="af0fc7ea4933408770e519454db29dfd" sha1="6342412ae595d6290e90a0819b70fe95adb43f50" />
<rom name="SSFII (Track 17).bin" size="13582800" crc="f386b88e" md5="3076bd221aa801c8aff67702d71e3f35" sha1="70e5a020d4e3820cc7c71f9b1b2f2919a2c7eac1" />
<rom name="SSFII (Track 18).bin" size="13768608" crc="84ec5fc4" md5="a90b3982c8b983a593cffcb93e8d6170" sha1="66c12b5366b40e0104084d0e2805d4cf8aa928d6" />
<rom name="SSFII (Track 19).bin" size="6350400" crc="d56baf3d" md5="20172c54715dae8b4b7de58275d9c4fc" sha1="ceb92c09cb6dddbcdab66844a6b251c15a13e905" />
<rom name="SSFII (Track 20).bin" size="11583600" crc="8493b55c" md5="3307eeb7e953895ac94cf9b89a48839a" sha1="50a8de04c9b9a63d9af47e70f2fa6b189d9ad414" />
<rom name="SSFII (Track 21).bin" size="9172800" crc="0fa9d090" md5="f555472f2ed209ad1d690aa35dbc6bf8" sha1="b71956f5cd0e8c0827000589f24a1a9bb8a42412" />
<rom name="SSFII (Track 22).bin" size="5468400" crc="80e5a068" md5="01c14f4b4221c09d487b1a1143ce85f0" sha1="8bbe461ed0ea73430284bb3659a6030274ca45b0" />
<rom name="SSFII (Track 23).bin" size="8288448" crc="e91da35d" md5="a9678495cc626ea356551f52a2669390" sha1="1a461041c15c3a043c4e727d241a275a23a30af3" />
<rom name="SSFII (Track 24).bin" size="7761600" crc="79cb22ce" md5="cec387164e0dea8c895ad246ecb2e99d" sha1="5266a72d90fe7e2b5ed91e7c21cb6dcc979f79c2" />
<rom name="SSFII (Track 25).bin" size="7408800" crc="9d129f3f" md5="181a00f90f8842285b1f14cfd81beb1a" sha1="f7cd435f682806f27a5ab74ffcfe2e8de910b907" />
<rom name="SSFII (Track 26).bin" size="4939200" crc="e9d14d7b" md5="0901f022d8fce4091118de103ae69176" sha1="7ed6a8ef7ec3f0c878e4a8a6dc456c2a68c4bdfc" />
<rom name="SSFII (Track 27).bin" size="8996400" crc="e314dd5b" md5="65aba7dfa65b2f6b0e2b098fc721d853" sha1="5bb39936902015e1ccf6894a497d8f8abbb921dc" />
<rom name="SSFII (Track 28).bin" size="4231248" crc="899aa92d" md5="26d17c1147fe24c0ba85b93aa6605069" sha1="4ae7215698cc368a53e8c7992d893031767645b4" />
<rom name="SSFII (Track 29).bin" size="7408800" crc="3bc15f98" md5="81d93bd4e58e38eb5d744385844eba02" sha1="b907b1d2eea0b2e4fcb2ceeff05add7af598c5e1" />
<rom name="SSFII (Track 30).bin" size="8246112" crc="33d795d3" md5="d872b22e611122fe2a5974062411ff09" sha1="48bd1a316aaebb0012633546fd38c0182ea62704" />
<rom name="SSFII (Track 31).bin" size="7056000" crc="80a67f8e" md5="633e5adfa5aca81f2366e8e6cd641f10" sha1="6548508b4d87efad6b826f0947950248b2cb5a57" />
<rom name="SSFII (Track 32).bin" size="7232400" crc="72d0ed7f" md5="3fa9a0d3e0ce1280870fe5f925cd4ac1" sha1="1c7f2c4286c274b00aa4e486ac6db846dcdaca1e" />
<rom name="SSFII (Track 33).bin" size="10584000" crc="b264b9e5" md5="90af0e4234ee157f4af50534316477ec" sha1="2f93c96c28e1e008a252762c4c54e6bcfda2ba5a" />
<rom name="SSFII (Track 34).bin" size="11995200" crc="a508f909" md5="f3ba3399229e11db0a124563198f5bf4" sha1="94f96567b4dfd71c004f97b46885927a459da9f3" />
<rom name="SSFII (Track 35).bin" size="13227648" crc="9d57fbfa" md5="5cb8848b79cc84949b5b2e2bddaed976" sha1="406fd0c6068fd028f64f783abc0b63da76f8c3ef" />
<rom name="SSFII (Track 36).bin" size="7408800" crc="76a6a9d5" md5="e7c05eeb024fb8c12fbeb83cff5b87ff" sha1="870af549c733dce872cce31f038d1b7db3dc62f3" />
<rom name="SSFII (Track 37).bin" size="4586400" crc="354d3ef9" md5="7d4a21ed06d33b3e1e9d9fbb9acc1456" sha1="70ddf64530741fa033ef660b82ae7b537565652f" />
<rom name="SSFII (Track 38).bin" size="6526800" crc="11592b3a" md5="facac6a9faaaacde7822a64115a1a1ba" sha1="93fc4e283a5bfda664802d9fab157757cabaab0d" />
<rom name="SSFII (Track 39).bin" size="1411200" crc="cfcc1b37" md5="aaf0fbc6ba3fe5fed8da5ead926c9f57" sha1="8cd19ff35699bcea81d6113dbf5d6687524e78af" />
<rom name="SSFII (Track 40).bin" size="1408848" crc="f7dc17a5" md5="0b4da9f071f3202dc7b082e20c5b8906" sha1="5854bbf6e4127b9a6557215472268a6ff008368f" />
<rom name="SSFII (Track 41).bin" size="4762800" crc="10cfe7a6" md5="2c9500d7e8e0d9218fa70409d648d28e" sha1="5443893e288171a7a9cbcb95f16e0a1f820a1de1" />
<rom name="SSFII (Track 42).bin" size="1411200" crc="0f3458bd" md5="53ee26c56c719389b894e92a8295f48e" sha1="6946b058e7b01f046944aa332b170fc475af904d" />
<rom name="SSFII (Track 43).bin" size="1411200" crc="29b98e2d" md5="dc287931c37c865526f023d07b2d0572" sha1="3aebd339b00b6b9bbd477f7ad2add25cd48d3352" />
<rom name="SSFII (Track 44).bin" size="9172800" crc="61fb1dff" md5="970e730f3a62e63773c59fa78abde264" sha1="e866ccc1f9c3829e566d72f9e823e71414f50dc1" />
<rom name="SSFII (Track 45).bin" size="21520800" crc="cc356cd5" md5="a9d3e7f17679bee6fa2a4e4ed43f6d3a" sha1="465b322abac03ed66ed1a67a467b4abfc824931c" />
<rom name="SSFII (Track 46).bin" size="1411200" crc="9ca98d35" md5="6a967917c2946a322be0b5dee3d5c842" sha1="bf05fc703a1717721bc86d2bba7554bbd0bc8deb" />
<rom name="SSFII (Track 47).bin" size="7408800" crc="dcb9f183" md5="3e998f0f2194c93af81beb3d2647a089" sha1="05f8993fa8cf0ffe24342c46539360eb16ce385e" />
<rom name="SSFII (Track 48).bin" size="5997600" crc="936b9553" md5="1e27e5f2bd49eb2680a78bdd0dd10ee1" sha1="63331d905de2c4bedfe0053425d647425458e93e" />

    Cuesheet:

CATALOG 0000000000000
FILE "SSFII (Track 01).bin" BINARY
  TRACK 01 MODE1/2352
    INDEX 01 00:00:00
FILE "SSFII (Track 02).bin" BINARY
  TRACK 02 AUDIO
    INDEX 00 00:00:00
    INDEX 01 00:02:00
FILE "SSFII (Track 03).bin" BINARY
  TRACK 03 AUDIO
    INDEX 00 00:00:00
    INDEX 01 00:02:00
FILE "SSFII (Track 04).bin" BINARY
  TRACK 04 AUDIO
    INDEX 00 00:00:00
    INDEX 01 00:02:00
FILE "SSFII (Track 05).bin" BINARY
  TRACK 05 AUDIO
    INDEX 00 00:00:00
    INDEX 01 00:02:00
FILE "SSFII (Track 06).bin" BINARY
  TRACK 06 AUDIO
    INDEX 00 00:00:00
    INDEX 01 00:02:00
FILE "SSFII (Track 07).bin" BINARY
  TRACK 07 AUDIO
    INDEX 00 00:00:00
    INDEX 01 00:02:00
FILE "SSFII (Track 08).bin" BINARY
  TRACK 08 AUDIO
    INDEX 00 00:00:00
    INDEX 01 00:02:00
FILE "SSFII (Track 09).bin" BINARY
  TRACK 09 AUDIO
    INDEX 00 00:00:00
    INDEX 01 00:02:00
FILE "SSFII (Track 10).bin" BINARY
  TRACK 10 AUDIO
    INDEX 00 00:00:00
    INDEX 01 00:02:00
FILE "SSFII (Track 11).bin" BINARY
  TRACK 11 AUDIO
    INDEX 00 00:00:00
    INDEX 01 00:02:00
FILE "SSFII (Track 12).bin" BINARY
  TRACK 12 AUDIO
    INDEX 00 00:00:00
    INDEX 01 00:02:00
FILE "SSFII (Track 13).bin" BINARY
  TRACK 13 AUDIO
    INDEX 00 00:00:00
    INDEX 01 00:02:00
FILE "SSFII (Track 14).bin" BINARY
  TRACK 14 AUDIO
    INDEX 00 00:00:00
    INDEX 01 00:02:00
FILE "SSFII (Track 15).bin" BINARY
  TRACK 15 AUDIO
    INDEX 00 00:00:00
    INDEX 01 00:02:00
FILE "SSFII (Track 16).bin" BINARY
  TRACK 16 AUDIO
    INDEX 00 00:00:00
    INDEX 01 00:02:00
FILE "SSFII (Track 17).bin" BINARY
  TRACK 17 AUDIO
    INDEX 00 00:00:00
    INDEX 01 00:02:00
FILE "SSFII (Track 18).bin" BINARY
  TRACK 18 AUDIO
    INDEX 00 00:00:00
    INDEX 01 00:02:00
FILE "SSFII (Track 19).bin" BINARY
  TRACK 19 AUDIO
    INDEX 00 00:00:00
    INDEX 01 00:02:00
FILE "SSFII (Track 20).bin" BINARY
  TRACK 20 AUDIO
    INDEX 00 00:00:00
    INDEX 01 00:02:00
FILE "SSFII (Track 21).bin" BINARY
  TRACK 21 AUDIO
    INDEX 00 00:00:00
    INDEX 01 00:02:00
FILE "SSFII (Track 22).bin" BINARY
  TRACK 22 AUDIO
    INDEX 00 00:00:00
    INDEX 01 00:02:00
FILE "SSFII (Track 23).bin" BINARY
  TRACK 23 AUDIO
    INDEX 00 00:00:00
    INDEX 01 00:02:00
FILE "SSFII (Track 24).bin" BINARY
  TRACK 24 AUDIO
    INDEX 00 00:00:00
    INDEX 01 00:02:00
FILE "SSFII (Track 25).bin" BINARY
  TRACK 25 AUDIO
    INDEX 00 00:00:00
    INDEX 01 00:02:00
FILE "SSFII (Track 26).bin" BINARY
  TRACK 26 AUDIO
    INDEX 00 00:00:00
    INDEX 01 00:02:00
FILE "SSFII (Track 27).bin" BINARY
  TRACK 27 AUDIO
    INDEX 00 00:00:00
    INDEX 01 00:02:00
FILE "SSFII (Track 28).bin" BINARY
  TRACK 28 AUDIO
    INDEX 00 00:00:00
    INDEX 01 00:02:00
FILE "SSFII (Track 29).bin" BINARY
  TRACK 29 AUDIO
    INDEX 00 00:00:00
    INDEX 01 00:02:00
FILE "SSFII (Track 30).bin" BINARY
  TRACK 30 AUDIO
    INDEX 00 00:00:00
    INDEX 01 00:02:00
FILE "SSFII (Track 31).bin" BINARY
  TRACK 31 AUDIO
    INDEX 00 00:00:00
    INDEX 01 00:02:00
FILE "SSFII (Track 32).bin" BINARY
  TRACK 32 AUDIO
    INDEX 00 00:00:00
    INDEX 01 00:02:00
FILE "SSFII (Track 33).bin" BINARY
  TRACK 33 AUDIO
    INDEX 00 00:00:00
    INDEX 01 00:02:00
FILE "SSFII (Track 34).bin" BINARY
  TRACK 34 AUDIO
    INDEX 00 00:00:00
    INDEX 01 00:02:00
FILE "SSFII (Track 35).bin" BINARY
  TRACK 35 AUDIO
    INDEX 00 00:00:00
    INDEX 01 00:02:00
FILE "SSFII (Track 36).bin" BINARY
  TRACK 36 AUDIO
    INDEX 00 00:00:00
    INDEX 01 00:02:00
FILE "SSFII (Track 37).bin" BINARY
  TRACK 37 AUDIO
    INDEX 00 00:00:00
    INDEX 01 00:02:00
FILE "SSFII (Track 38).bin" BINARY
  TRACK 38 AUDIO
    INDEX 00 00:00:00
    INDEX 01 00:02:00
FILE "SSFII (Track 39).bin" BINARY
  TRACK 39 AUDIO
    INDEX 00 00:00:00
    INDEX 01 00:02:00
FILE "SSFII (Track 40).bin" BINARY
  TRACK 40 AUDIO
    INDEX 00 00:00:00
    INDEX 01 00:02:00
FILE "SSFII (Track 41).bin" BINARY
  TRACK 41 AUDIO
    INDEX 00 00:00:00
    INDEX 01 00:02:00
FILE "SSFII (Track 42).bin" BINARY
  TRACK 42 AUDIO
    INDEX 00 00:00:00
    INDEX 01 00:02:00
FILE "SSFII (Track 43).bin" BINARY
  TRACK 43 AUDIO
    INDEX 00 00:00:00
    INDEX 01 00:02:00
FILE "SSFII (Track 44).bin" BINARY
  TRACK 44 AUDIO
    INDEX 00 00:00:00
    INDEX 01 00:02:00
FILE "SSFII (Track 45).bin" BINARY
  TRACK 45 AUDIO
    INDEX 00 00:00:00
    INDEX 01 00:02:00
FILE "SSFII (Track 46).bin" BINARY
  TRACK 46 AUDIO
    INDEX 00 00:00:00
    INDEX 01 00:02:00
FILE "SSFII (Track 47).bin" BINARY
  TRACK 47 AUDIO
    INDEX 00 00:00:00
    INDEX 01 00:02:00
FILE "SSFII (Track 48).bin" BINARY
  TRACK 48 AUDIO
    INDEX 00 00:00:00
    INDEX 01 00:02:00

    Write Offset: 0

Logs:   https://mega.nz/#!Do1HCKiC!hZtggQWnzO8B … f8zkKFRD4s

Common Disc Info:
    Title: The Cybernetic Tuning Master Exhaust King
    Foreign Title (Non-latin): ?  (see spinecard here:  https://www.notforsaleparadise.com/cate … ust-king/)
    Disc Number / Letter: (OPTIONAL)
    Disc Title: (OPTIONAL)
    System: Sony PlayStation
    Media Type: CD-ROM
    Category: Games
    Region: Japan
    Languages: not checked
    Disc Serial: SLPM 80422

    Ringcode Information:
        Data-Side Mould SID Code: IFPI 4541

    Barcode: n/a
    EXE/Build Date: 1999-03-01
    Error Count: 0
    Comments: (OPTIONAL)
    Contents:

Version and Editions:
    Version: (REQUIRED, IF EXISTS)
    Edition/Release: Hibaihin / not for sale / in store demo ??
EDC:
    EDC: Yes

Extras:
    Primary Volume Descriptor (PVD):

0320 : 20 20 20 20 20 20 20 20  20 20 20 20 20 31 39 39                199
0330 : 39 30 33 30 32 30 33 30  30 30 30 30 30 00 30 30   9030203000000.00
0340 : 30 30 30 30 30 30 30 30  30 30 30 30 30 30 00 30   00000000000000.0
0350 : 30 30 30 30 30 30 30 30  30 30 30 30 30 30 30 00   000000000000000.
0360 : 30 30 30 30 30 30 30 30  30 30 30 30 30 30 30 30   0000000000000000
0370 : 00 01 00 00 00 00 00 00  00 00 00 00 00 00 00 00   ................

Copy Protection:
    Anti-modchip: No
    LibCrypt: No

Tracks and Write Offsets:
    DAT:

<rom name="Exhaust.bin" size="408304848" crc="71549814" md5="dee8ef2e0e97c6cad988ef8ec04a0198" sha1="900a4a8ca434774a81e411bbb0d213c87b7451d4" />

    Cuesheet:

FILE "Exhaust.bin" BINARY
  TRACK 01 MODE2/2352
    INDEX 01 00:00:00

    Write Offset: 2

Logs: https://mega.nz/#!Pg8RjCKa!9HAfhP3sqs-l … SpJaT2gSss


C:\Users\Scott\Desktop\DICUI\ISO\PSX-ExhaustKings-NotForSale>psxt001z.exe Exhaust.bin
psxt001z by Dremora, v0.20 beta 13 derus fix

File: Exhaust.bin
Size (bytes):   408304848 (OK)
Size (sectors): 173599 (OK)
EDC in Form 2 sectors: YES
ID: SLPM-80422
Date: 1999-03-01
System area: Jap EDC


C:\Users\Scott\Desktop\DICUI\ISO\PSX-ExhaustKings-NotForSale>psxt001z.exe --scan Exhaust.bin
psxt001z by Dremora, v0.20 beta 13 derus fix

File: Exhaust.bin
Size (bytes):   408304848 (OK)
Size (sectors): 173599 (OK)
EDC in Form 2 sectors: YES
System area: Jap EDC

Checking data...

Subheaders count:
00 00 08 00: 19151
00 00 09 00: 1
00 00 20 00: 4
00 00 89 00: 367
      Other: 154076

Form 1 sectors: 87502
Form 2 sectors: 86097
"Bad" headers: 0

Checking postgap...
Postgap type: Form 1

Common Disc Info:
    Title: Harry Potter: to Kenja no Ishi
    Foreign Title (Non-latin): ハリー・ポッターと賢者の石 コカコーラ懸賞品
    Disc Number / Letter: (OPTIONAL)
    Disc Title: (OPTIONAL)
    System: Sony PlayStation
    Media Type: CD-ROM
    Category: games
    Region: Japan
    Languages: Japanese
    Disc Serial: SLPM 84013

    Ringcode Information:
        Data-Side Mould SID Code: IFPI 4556
    Barcode: n/a
    EXE/Build Date: 2001-10-04
    Error Count: 0
    Comments: From December 2001 to January 19th 2002, Coca-Cola Japan made a campaign to promote the movie "Harry Potter and the Philisopher's Stone". If you got a winning symbol in your bottle/can, you were rewarded with a free cinema ticket. Otherwise, you could send back 3 losing symbols to participate in a lottery to try to gain one of the 1000 Harry Potter to Kenja no Ishi Playstation prizes.  (from: https://www.notforsaleparadise.com/cate … -version/)
    Contents:

Version and Editions:
    Version:
    Edition/Release: Coca-Cola Kenshouhin
EDC:
    EDC: Yes

Extras:
    Primary Volume Descriptor (PVD):

0320 : 20 20 20 20 20 20 20 20  20 20 20 20 20 32 30 30                200
0330 : 31 31 30 32 39 31 31 33  33 31 39 30 30 24 30 30   1102911331900$00
0340 : 30 30 30 30 30 30 30 30  30 30 30 30 30 30 00 30   00000000000000.0
0350 : 30 30 30 30 30 30 30 30  30 30 30 30 30 30 30 00   000000000000000.
0360 : 30 30 30 30 30 30 30 30  30 30 30 30 30 30 30 30   0000000000000000
0370 : 00 01 00 00 00 00 00 00  00 00 00 00 00 00 00 00   ................

Copy Protection:
    Anti-modchip: No
    LibCrypt: No

Tracks and Write Offsets:
    DAT:

<rom name="HarryPotter.bin" size="466613280" crc="40dd3ad7" md5="d6f21321ca9087210c2d28ec95d0896e" sha1="0d26af68276235f4953bc145ebb32390adc9cff1" />

    Cuesheet:

FILE "HarryPotter.bin" BINARY
  TRACK 01 MODE2/2352
    INDEX 01 00:00:00

    Write Offset: 1

Logs:  https://mega.nz/#!vw9lBQSS!fQt_mj11VhPi … m48SsdzwAE


C:\Users\Scott\Desktop\DICUI\ISO\PSX-HarryPotter-CocaCola-NotForSale>psxt001z.exe HarryPotter.bin
psxt001z by Dremora, v0.20 beta 13 derus fix

File: HarryPotter.bin
Size (bytes):   466613280 (OK)
Size (sectors): 198390 (OK)
EDC in Form 2 sectors: YES
ID: SLPM-84013
Date: 2001-10-04
System area: Jap EDC


C:\Users\Scott\Desktop\DICUI\ISO\PSX-HarryPotter-CocaCola-NotForSale>psxt001z.exe --scan HarryPotter.bin
psxt001z by Dremora, v0.20 beta 13 derus fix

File: HarryPotter.bin
Size (bytes):   466613280 (OK)
Size (sectors): 198390 (OK)
EDC in Form 2 sectors: YES
System area: Jap EDC

Checking data...

Subheaders count:
00 00 08 00: 197462
00 00 09 00: 1
00 00 20 00: 4
00 00 89 00: 13
      Other: 910

Form 1 sectors: 198291
Form 2 sectors: 99
"Bad" headers: 0

Checking postgap...
Postgap type: Form 1

Common Disc Info:
    Title: Action Replay CDX
    Disc Title: Demo Version
    System: Sega Dreamcast
    Media Type: CD-ROM
    Category: applications
    Region: UK
    Languages: assume English (but not checked)
    Disc Serial:

    Ringcode Information:
        I can't see one, (it's a black CD, like PSX discs)

    Barcode: (OPTIONAL)
    EXE/Build Date: (REQUIRED)
    Error Count: 1
    Comments:  Bundled with an issue od DC:UK Magazine (I think)

    Contents:
Game Busting Cheats for :
Crazy Taxi
Tomb Raider 4: The Last Revelation
Sonic Adventure
Rayman 2
House of teh dead 2
Soul Reaver: Legacy fo Cain
& more

Version and Editions:
    Version:
    Edition/Release: Demo.


Extras:
    Primary Volume Descriptor (PVD): Disc has no PVD

Tracks and Write Offsets:
    DAT:

<rom name="Disc (Track 1).bin" size="5729472" crc="d0a97dee" md5="d02e11092411607af34944be1eaaa81e" sha1="96780d51885c8f03be94ad3933bac123322173a2" />
<rom name="Disc (Track 2).bin" size="2972928" crc="ea20e288" md5="89010f834fd0133fb66ee348bb9649d4" sha1="834a9851d278ec18fe722bfd48027c3da9ed8665" />

    Cuesheet:

REM SESSION 01
FILE "Disc (Track 1).bin" BINARY
  TRACK 01 AUDIO
    INDEX 01 00:00:00
REM LEAD-OUT 01:30:00
REM SESSION 02
REM LEAD-IN 01:00:00
REM PREGAP 00:02:00
FILE "Disc (Track 2).bin" BINARY
  TRACK 02 MODE2/2352
    INDEX 01 00:00:00

    Write Offset: -22


Header:

0000 : 53 45 47 41 20 53 45 47  41 4B 41 54 41 4E 41 20   SEGA SEGAKATANA
0010 : 53 45 47 41 20 45 4E 54  45 52 50 52 49 53 45 53   SEGA ENTERPRISES
0020 : 46 32 30 45 20 44 41 54  45 4C 20 48 44 52 20 20   F20E DATEL HDR 
0030 : 4A 55 45 20 20 20 20 20  32 37 39 39 38 31 30 20   JUE     2799810
0040 : 48 44 52 2D 30 30 33 30  20 20 56 31 2E 30 36 30   HDR-0030  V1.060
0050 : 31 39 39 39 30 37 32 32  20 20 20 20 20 20 20 20   19990722       
0060 : 57 57 57 53 48 41 52 4B  2E 54 58 54 20 20 20 20   WWWSHARK.TXT   
0070 : 53 45 47 41 20 45 4E 54  45 52 50 52 49 53 45 53   SEGA ENTERPRISES
0080 : 44 41 54 45 4C 20 20 20  20 20 20 20 20 20 20 20   DATEL           
0090 : 20 20 20 20 20 20 20 20  20 20 20 20 20 20 20 20                   
00A0 : 20 20 20 20 20 20 20 20  20 20 20 20 20 20 20 20                   
00B0 : 20 20 20 20 20 20 20 20  20 20 20 20 20 20 20 20                   
00C0 : 20 20 20 20 20 20 20 20  20 20 20 20 20 20 20 20                   
00D0 : 20 20 20 20 20 20 20 20  20 20 20 20 20 20 20 20                   
00E0 : 20 20 20 20 20 20 20 20  20 20 20 20 20 20 20 20                   
00F0 : 20 20 20 20 20 20 20 20  20 20 20 20 20 20 20 20                   
0100 : 00 00 00 00 00 00 00 00  00 00 00 00 00 00 00 00   ................
0110 : 00 00 00 00 00 00 00 00  00 00 00 00 00 00 00 00   ................
0120 : 00 00 00 00 00 00 00 00  00 00 00 00 00 00 00 00   ................



[INFO] Number of sector(s) where EDC doesn't exist: 1
[ERROR] Number of sector(s) where sync(0x00 - 0x0c) is zero: 1
    Sector: 2654,
Total errors: 1
Total warnings: 0


Logs:attached

Maddog wrote:

However, I don't have the spinecard

The struggle is real.
I can sympathisise for sooo many of my discs. why did they print the barcode on the bloody things,
#collectorproblems

That particular Gravure idol disc is from the Panasonic 3DO set  (serial FZ-JJ1YP0502)
Along with some other obscure Photo-CDs:

http://redump.org/disc/64808/     (FZ-YPE0302)
http://redump.org/disc/64807/     (FZ-YPE0301)
http://redump.org/disc/64804/     (FZ-JJ1YP0101)
http://redump.org/disc/64805/     (FZ-JJ1YP0501)

They are a strange subset.

I agree Though, could maybe still add it, these things are so obscure and deserve to be preserved.

Please see:

https://mega.nz/#F!qoFGiKxS!qbLLixNyP7b3zR-MNmod6Q

11 dorimaga cover DVD's
as far as I know, Domrimaga, started out life as a Dreamcast magazine in Japan, then changed to multi format later in it's print run.

These DVD's are DVDVideo (VOB) and additionaly most have some other PC based format video (AVI, WMV, etc)

I can't submit them without the proper titles and Their contents translating.

(Hoping Monocrom and Cherokee are reading)

13

(2 replies, posted in New Dumps)

c'est une petite entrée sexy

Glad to see the 3DO getting some love.

14

(8 replies, posted in General discussion)

pics of two of mine if it helps:

https://mega.nz/#F!2w9RDYYK!ehM3_AV2YHHZxp9PigipSA

sent you pictures
probably actually:

Mastering Code (laser branded/etched): FMB-4006 1MM1 C  44<tab>B276E240-1001

sent you pictures

sent you pictures

Common Disc Info:
    Title: CubicSketch V1.1L10
    Foreign Title (Non-latin): CubicSketch V1.1L10
    System: Fujitsu FM Towns Marty
    Media Type: CD-ROM
    Category: Applications
    Region: Japan
    Languages: Japanese (not checked)
    Disc Serial: FMB-4006

    Ringcode Information:
        Mastering Code (laser branded/etched): FMB-4006 1MM1 C<tab> 44<tab>B276E240-1001

    Barcode: (OPTIONAL)
    Error Count: 0
    Comments: Alternatve Serial:  B276E240
    Contents: (OPTIONAL)

Version and Editions:
    Version: v1.1L10
    Edition/Release: Original
Extras:
    Primary Volume Descriptor (PVD):

0320 : 20 20 20 20 20 20 20 20  20 20 20 20 20 30 30 30                000
0330 : 30 30 30 30 30 30 30 30  30 30 30 30 30 00 30 30   0000000000000.00
0340 : 30 30 30 30 30 30 30 30  30 30 30 30 30 30 00 30   00000000000000.0
0350 : 30 30 30 30 30 30 30 30  30 30 30 30 30 30 30 00   000000000000000.
0360 : 30 30 30 30 30 30 30 30  30 30 30 30 30 30 30 30   0000000000000000
0370 : 00 01 00 00 00 00 00 00  00 00 00 00 00 00 00 00   ................

Tracks and Write Offsets:
    DAT:

<rom name="CUBICSKETCH.bin" size="47453952" crc="0fe26cf6" md5="71fd978d0608f5705d6fb165e972688b" sha1="2b8e95dc67d062bd3d8ed1c67a9431f27b8e79e4" />

    Cuesheet:

CATALOG 0000000000000
FILE "CUBICSKETCH.bin" BINARY
  TRACK 01 MODE1/2352
    INDEX 01 00:00:00

    Write Offset: 3

Logs: Attached

Common Disc Info:
    Title: Towns SOUND V1.1L20
    System: Fujitsu FM Towns Marty
    Media Type: CD-ROM
    Category: Applications ?
    Region: Japan
    Languages: Japanese (not checked)
    Disc Serial: B276D020

    Ringcode Information:
        Mastering Code (laser branded/etched): B276D020-20<tab>SOUND-A<tab>27B904<tab>.

    Barcode: (OPTIONAL)
    Error Count: 0
    Comments: (OPTIONAL)
    Contents: (OPTIONAL)

Version and Editions:
    Version:
    Edition/Release: Original

Extras:
    Primary Volume Descriptor (PVD):

0320 : 00 00 00 00 00 00 00 00  00 00 00 00 00 31 39 39   .............199
0330 : 30 30 32 32 33 31 39 30  33 33 39 30 30 00 31 39   0022319033900.19
0340 : 39 30 30 32 32 33 32 30  33 36 35 30 30 30 00 30   90022320365000.0
0350 : 30 30 30 30 30 30 30 30  30 30 30 30 30 30 30 00   000000000000000.
0360 : 30 30 30 30 30 30 30 30  30 30 30 30 30 30 30 30   0000000000000000
0370 : 00 01 00 00 00 00 00 00  00 00 00 00 00 00 00 00   ................

Tracks and Write Offsets:
    DAT:

<rom name="TOWNS_SOUND.bin" size="12348000" crc="17d910ef" md5="9899fd53342d4d4c0b4cdd2c9a086fc3" sha1="1c6b351e2d9622291e4baf7f3302e05f03292a22" />

    Cuesheet:

CATALOG 2702901111376
FILE "TOWNS_SOUND.bin" BINARY
  TRACK 01 MODE1/2352
    INDEX 01 00:00:00

    Write Offset: 875

Logs: attached

Common Disc Info:
    Title: NEW HORIZON CD Learning System II: English Course 1
    System: Fujitsu FM Towns Marty
    Media Type: CD-ROM
    Category: Educational
    Region: Japan
    Languages: I guess English and Japanese (not checked)
    Disc Serial: HMD-186

    Ringcode Information:
        Mastering Code (laser branded/etched): HMD-186<tab>MT 1B1 ++
        Additional Mould: O

    Barcode: (OPTIONAL)
    Error Count: 0
    Comments: (OPTIONAL)
    Contents: (OPTIONAL)

Version and Editions:
    Version:
    Edition/Release: Original

Extras:
    Primary Volume Descriptor (PVD):

0320 : 20 20 20 20 20 20 20 20  20 20 20 20 20 31 39 39                199
0330 : 33 30 34 32 36 31 37 30  30 30 30 30 30 00 31 39   3042617000000.19
0340 : 39 33 30 34 32 36 31 37  30 30 30 30 30 30 00 30   93042617000000.0
0350 : 30 30 30 30 30 30 30 30  30 30 30 30 30 30 30 00   000000000000000.
0360 : 30 30 30 30 30 30 30 30  30 30 30 30 30 30 30 30   0000000000000000
0370 : 00 01 00 00 00 00 00 00  00 00 00 00 00 00 00 00   ................

Tracks and Write Offsets:
    DAT:

<rom name="disc (Track 01).bin" size="10231200" crc="d0a86335" md5="9aefc422af970732567f2df1b6dddb9b" sha1="b3d4d2db57fb81bfb111bdfb3218b0137e4a9282" />
<rom name="disc (Track 02).bin" size="5755344" crc="23be5ea1" md5="67cbe3b6375352affedb05c20fd38f34" sha1="3bdb5b884acd3234f815a0c8cf50e89be18afe6b" />
<rom name="disc (Track 03).bin" size="8932896" crc="62df43f9" md5="72a812ff96281aceca9ae996a00695f8" sha1="b874a4c95f0d3889541bba120fe6ef598d659aee" />
<rom name="disc (Track 04).bin" size="8448384" crc="fd1b52a6" md5="676b82eef1a2e485eb7346e56b927da9" sha1="33318d6863a8350a9db4876e27c4a7c8f3398bac" />
<rom name="disc (Track 05).bin" size="15024576" crc="5f2d38b3" md5="cfd82475e5d8224984d66b4050ad44fb" sha1="9b977c4916d95a5b4d781128c7678891095ba76b" />
<rom name="disc (Track 06).bin" size="14182560" crc="f2108ee6" md5="390a32b482ee254d2462f949c53eb705" sha1="4d7aea90b0c2e0fab013b4634ad114eec5923cd9" />
<rom name="disc (Track 07).bin" size="16010064" crc="c616ac9f" md5="195bcd1eab21337bf94d77e4407db530" sha1="4d3f01486c1614d7ac33e5afb0d706720a1ba0be" />
<rom name="disc (Track 08).bin" size="11407200" crc="3904c083" md5="1107ce09a06ea02220b8122e6caece6a" sha1="a56c94e10a780496c2d7d7cf450d0a7e7e39a15d" />
<rom name="disc (Track 09).bin" size="9897216" crc="d47c8f34" md5="f1f577aec242fe05a367a1adf8a96c45" sha1="e0cae58bed291c4c1ca3d143749490c37a01b9ed" />
<rom name="disc (Track 10).bin" size="16057104" crc="a9c9b227" md5="9940e0f4443221c89635a133a77f5422" sha1="2b5e4d5d953cd831a41ba7574384e70471e6976f" />
<rom name="disc (Track 11).bin" size="10544016" crc="b1dedaf7" md5="4ffb680be6ca2c48de992f1b706a860b" sha1="d99807cdde7facafa891f622deacc79141400ae9" />
<rom name="disc (Track 12).bin" size="12482064" crc="b8f856ac" md5="8872461367b73f539c8001a09d5b43bc" sha1="3c4b6f66b0528d1bf72529c7f75932e10cb8707b" />
<rom name="disc (Track 13).bin" size="15429120" crc="c232a3ac" md5="c3715fba9515022c98d053c54b06610d" sha1="27cdf05f51fbb05a0cd11073ab34f1abb0174c22" />
<rom name="disc (Track 14).bin" size="5546016" crc="b30c1f27" md5="3ddebfa8c0e8049f1c4e255906ee7943" sha1="5d7f8c1682ee41cc0b718bd4a6e9997b006544d0" />
<rom name="disc (Track 15).bin" size="17298960" crc="1b87a1bb" md5="a513c59a509485dacb818549c5f97c8b" sha1="49ae87554abfe5d776f6305c13023059aee714a2" />
<rom name="disc (Track 16).bin" size="21384384" crc="a4eaf9ed" md5="a43f2eecc0c65c0da2afc369b73284dd" sha1="1440054d6e56f96cc0ba64f04526821bcf4d3367" />
<rom name="disc (Track 17).bin" size="14801136" crc="3b66fa82" md5="e708a7486edf86dc65b551a703012962" sha1="f399cae78530d09e5a04f72c7c732350b9128ddc" />
<rom name="disc (Track 18).bin" size="6303360" crc="93eb6f5f" md5="9da459ef83a19b64561b29b90eae702e" sha1="c78444e67517455c47404def0447744263e92035" />
<rom name="disc (Track 19).bin" size="5590704" crc="69a7edf9" md5="ef870d24b9a49a935c867aebc4863215" sha1="dad4af4131411b2a75a9fd107266a9f0a0990ca0" />
<rom name="disc (Track 20).bin" size="14394240" crc="dc35c8ef" md5="16447a3275c9c2ce71989b45a23a7b5e" sha1="6296cf7c8471e7fbd54aa6a5cdf0c7cb9efdb275" />
<rom name="disc (Track 21).bin" size="13065360" crc="572c9fbc" md5="8091d6f3c1e6b5481f7c4a3afdd9998e" sha1="bf572f939bf3cf5cf7549ca506958c23085b4a7a" />
<rom name="disc (Track 22).bin" size="19345200" crc="32e0273b" md5="006dc6497dc7f8d5b47c01ce5520abe1" sha1="daf4c59e35253b2e2a28a51089af94936fb99d0a" />
<rom name="disc (Track 23).bin" size="6463296" crc="927e0900" md5="d322739d5ffe40e4f21ff516b573e05a" sha1="18fe197b7192ac725a77290af97fd0c3a77ebe94" />
<rom name="disc (Track 24).bin" size="9008160" crc="f6c4285e" md5="dc4b0e13e7ca9985e913adccfce62541" sha1="7f3ebf305d94be8535bd43ca6c4988b53ee78667" />
<rom name="disc (Track 25).bin" size="12305664" crc="04a8b00c" md5="acca273a6e8f69c05d5064090640e795" sha1="066717d2d14a8f337aae838d99ea579316fd96fe" />
<rom name="disc (Track 26).bin" size="14518896" crc="023c3f73" md5="2dc8ec1638ea1dbb85a6686cd71c26e5" sha1="f9d6442da067ae0bc49c138b5cb19ae929165144" />
<rom name="disc (Track 27).bin" size="12482064" crc="1269e9b2" md5="0cc47e2eb1ddd3afcb704544a4c00e1b" sha1="7c1c81fc80f0b837f0f819fdaf4f3f91e0a4b942" />
<rom name="disc (Track 28).bin" size="13307616" crc="de089b2b" md5="b82210852af154a5ef3f9ce5618dc6c5" sha1="cdb67ebf97442762cbfdb0295e8cbb6d86a77589" />
<rom name="disc (Track 29).bin" size="3386880" crc="3c6076d4" md5="157952ba7cedcd8500b3dd6321a530f6" sha1="32fb122a78d3c333da12e056057ae3364564fb3b" />
<rom name="disc (Track 30).bin" size="1168944" crc="ad2c22c5" md5="7996dde7ded438e0b6abc0e87039eb3b" sha1="3b42d215abab53f39bdf571b4a34850d7bccb4ee" />
<rom name="disc (Track 31).bin" size="15264480" crc="794af20e" md5="ef9a0ba1aafbacd3244f1d3854b8106a" sha1="7fd15371f6b104a883b2e784609531e09e2600b4" />
<rom name="disc (Track 32).bin" size="7032480" crc="c17ae885" md5="8dd32a295bd74784d3b00abb674679ea" sha1="934eae4a59af27512f58674fbf49f57467ff8b5d" />
<rom name="disc (Track 33).bin" size="11061456" crc="ba019714" md5="46c9caa9c51184033a55840757330932" sha1="77a011fb43738604b843a7b3f8c6b7013e77d304" />
<rom name="disc (Track 34).bin" size="17468304" crc="b131e00e" md5="637c3fce21ae503488dd4a7050fb19ae" sha1="6f513df8115797aa722c70e3ef47901a3438cc50" />
<rom name="disc (Track 35).bin" size="7662816" crc="66efe9c9" md5="f37c9a3eb0e33d88e8a21e3d72857cc8" sha1="d89537edde196de1839fafa94ab84b6b650bf0a5" />
<rom name="disc (Track 36).bin" size="15292704" crc="f7cc0c0c" md5="dcb660e479b9c9785dba88ae71d7673e" sha1="b646994d47874d905a78452597d236be777d4073" />
<rom name="disc (Track 37).bin" size="14330736" crc="b21d08b1" md5="af73578ab1a68a0390ee24895efe46bf" sha1="303ba4af0a7811eea2b3fd981f85b125a72e2be3" />
<rom name="disc (Track 38).bin" size="14829360" crc="10dcc3de" md5="c272b2342a500be26952f800bc340f06" sha1="8a79d9c782c6b37746f80b27bc9a726b58f9c0ae" />
<rom name="disc (Track 39).bin" size="2940000" crc="2184760c" md5="328a17611ee684c4bf3b630662ec6b34" sha1="709382a16a8e954c270ea1804fd83e54f8090743" />
<rom name="disc (Track 40).bin" size="21367920" crc="5d70ec81" md5="e18e6538f1fff25fd5d3b127618ba8af" sha1="c54d8a3e27a232451423d9795bc4f1f0134f428c" />
<rom name="disc (Track 41).bin" size="12423264" crc="323d20ea" md5="7a4d8c57c2ee1533ec76c4a6d99b3871" sha1="dc647f067333c9b1e35ab6af2156df6cadd31429" />
<rom name="disc (Track 42).bin" size="10943856" crc="2535516d" md5="bc21021fd160a49f22433f2cb6ccfcb0" sha1="f9f1e68ad4daec7bb2bd6a8fa3ca455c39983edd" />
<rom name="disc (Track 43).bin" size="13469904" crc="2ac23722" md5="b25b736af649ee72e197ac7a97a423f3" sha1="88c3a853189f5586ee22088909e2a3e6f0878bb4" />
<rom name="disc (Track 44).bin" size="3234000" crc="06484c02" md5="c7904a0b8c8a22b1744fa87390fe395c" sha1="e23c4b870923c5fdb564711f3edfd33beb447a6b" />
<rom name="disc (Track 45).bin" size="21085680" crc="ec36c923" md5="db7a0f992a1f1dabec58cb2be6681e23" sha1="3cb3d9fc1232a3854f2d3398ecd4238ae204aa65" />
<rom name="disc (Track 46).bin" size="11331936" crc="6dac708c" md5="86a6ec86b13fb4502a5edf1d3baf2704" sha1="5aecd985b65c958d4df2a93d39130ad03b462e66" />
<rom name="disc (Track 47).bin" size="27605424" crc="471d623f" md5="2e01117655e9a0142057e7cc57710227" sha1="2c37ad2ea37f9f12bf573590c6bcebd2de0b36ce" />

    Cuesheet:

FILE "disc (Track 01).bin" BINARY
  TRACK 01 MODE1/2352
    INDEX 01 00:00:00
FILE "disc (Track 02).bin" BINARY
  TRACK 02 AUDIO
    INDEX 00 00:00:00
    INDEX 01 00:02:00
FILE "disc (Track 03).bin" BINARY
  TRACK 03 AUDIO
    INDEX 01 00:00:00
FILE "disc (Track 04).bin" BINARY
  TRACK 04 AUDIO
    INDEX 01 00:00:00
FILE "disc (Track 05).bin" BINARY
  TRACK 05 AUDIO
    INDEX 01 00:00:00
FILE "disc (Track 06).bin" BINARY
  TRACK 06 AUDIO
    INDEX 01 00:00:00
FILE "disc (Track 07).bin" BINARY
  TRACK 07 AUDIO
    INDEX 01 00:00:00
FILE "disc (Track 08).bin" BINARY
  TRACK 08 AUDIO
    INDEX 01 00:00:00
FILE "disc (Track 09).bin" BINARY
  TRACK 09 AUDIO
    INDEX 01 00:00:00
FILE "disc (Track 10).bin" BINARY
  TRACK 10 AUDIO
    INDEX 01 00:00:00
FILE "disc (Track 11).bin" BINARY
  TRACK 11 AUDIO
    INDEX 01 00:00:00
FILE "disc (Track 12).bin" BINARY
  TRACK 12 AUDIO
    INDEX 01 00:00:00
FILE "disc (Track 13).bin" BINARY
  TRACK 13 AUDIO
    INDEX 01 00:00:00
FILE "disc (Track 14).bin" BINARY
  TRACK 14 AUDIO
    INDEX 01 00:00:00
FILE "disc (Track 15).bin" BINARY
  TRACK 15 AUDIO
    INDEX 01 00:00:00
FILE "disc (Track 16).bin" BINARY
  TRACK 16 AUDIO
    INDEX 01 00:00:00
FILE "disc (Track 17).bin" BINARY
  TRACK 17 AUDIO
    INDEX 01 00:00:00
FILE "disc (Track 18).bin" BINARY
  TRACK 18 AUDIO
    INDEX 01 00:00:00
FILE "disc (Track 19).bin" BINARY
  TRACK 19 AUDIO
    INDEX 01 00:00:00
FILE "disc (Track 20).bin" BINARY
  TRACK 20 AUDIO
    INDEX 01 00:00:00
FILE "disc (Track 21).bin" BINARY
  TRACK 21 AUDIO
    INDEX 01 00:00:00
FILE "disc (Track 22).bin" BINARY
  TRACK 22 AUDIO
    INDEX 01 00:00:00
FILE "disc (Track 23).bin" BINARY
  TRACK 23 AUDIO
    INDEX 01 00:00:00
FILE "disc (Track 24).bin" BINARY
  TRACK 24 AUDIO
    INDEX 01 00:00:00
FILE "disc (Track 25).bin" BINARY
  TRACK 25 AUDIO
    INDEX 01 00:00:00
FILE "disc (Track 26).bin" BINARY
  TRACK 26 AUDIO
    INDEX 01 00:00:00
FILE "disc (Track 27).bin" BINARY
  TRACK 27 AUDIO
    INDEX 01 00:00:00
FILE "disc (Track 28).bin" BINARY
  TRACK 28 AUDIO
    INDEX 01 00:00:00
FILE "disc (Track 29).bin" BINARY
  TRACK 29 AUDIO
    INDEX 01 00:00:00
FILE "disc (Track 30).bin" BINARY
  TRACK 30 AUDIO
    INDEX 01 00:00:00
FILE "disc (Track 31).bin" BINARY
  TRACK 31 AUDIO
    INDEX 01 00:00:00
FILE "disc (Track 32).bin" BINARY
  TRACK 32 AUDIO
    INDEX 01 00:00:00
FILE "disc (Track 33).bin" BINARY
  TRACK 33 AUDIO
    INDEX 01 00:00:00
FILE "disc (Track 34).bin" BINARY
  TRACK 34 AUDIO
    INDEX 01 00:00:00
FILE "disc (Track 35).bin" BINARY
  TRACK 35 AUDIO
    INDEX 01 00:00:00
FILE "disc (Track 36).bin" BINARY
  TRACK 36 AUDIO
    INDEX 01 00:00:00
FILE "disc (Track 37).bin" BINARY
  TRACK 37 AUDIO
    INDEX 01 00:00:00
FILE "disc (Track 38).bin" BINARY
  TRACK 38 AUDIO
    INDEX 01 00:00:00
FILE "disc (Track 39).bin" BINARY
  TRACK 39 AUDIO
    INDEX 01 00:00:00
FILE "disc (Track 40).bin" BINARY
  TRACK 40 AUDIO
    INDEX 01 00:00:00
FILE "disc (Track 41).bin" BINARY
  TRACK 41 AUDIO
    INDEX 01 00:00:00
FILE "disc (Track 42).bin" BINARY
  TRACK 42 AUDIO
    INDEX 01 00:00:00
FILE "disc (Track 43).bin" BINARY
  TRACK 43 AUDIO
    INDEX 01 00:00:00
FILE "disc (Track 44).bin" BINARY
  TRACK 44 AUDIO
    INDEX 01 00:00:00
FILE "disc (Track 45).bin" BINARY
  TRACK 45 AUDIO
    INDEX 01 00:00:00
FILE "disc (Track 46).bin" BINARY
  TRACK 46 AUDIO
    INDEX 01 00:00:00
FILE "disc (Track 47).bin" BINARY
  TRACK 47 AUDIO
    INDEX 01 00:00:00

    Write Offset: -1421

Logs:
https://mega.nz/#!Ksl3RIJD!9fEXQ-I7V4ar … gEjihp_3nw

21

(2,207 replies, posted in General discussion)

What is going on here?

Logs:  https://mega.nz/#!D0N3yCKA!2b3ywEpqAZxB … PQOCgzKguI


LBA[305849, 0x4aab9]: Track[01]: A part of reverted sector. (Not be scrambled)
========== LBA[305849, 0x4aab9]: Main Channel ==========


Last secotor is half scrambled ? Mastering error or bad dump ?

22

(1 replies, posted in General discussion)

Picks a random FMT disc from the pile of ~60 beside me.....and immediately gets stuck,


Non latin Title:
ハイパーメディア NHK続基礎英語 第3巻

submit as:
Hypermedia NHK continued basic English Volume 3

or
Hypermedia NHK Zoku Kiso Eigo: Dai-3-kan

23

(0 replies, posted in New Dumps)

Title: Border Break
System: Sega RingEdge
Media Type: DVD-ROM-5
Category: Games
Region:Japan
Languages: zero way of checking but Japanese for sure (it's home region)
Disc Serial: DVR-0001
Ringcode Information:
    Mastering Code (laser branded/etched): DVR-0001<tab>OP0972B
    Mastering SID Code: IFPI L305
    Data-Side Mould SID Code: IFPI 4885
Barcode:
Comments:
Contents:
Version:
Edition/Release: Original
Primary Volume Descriptor (PVD):


DAT:

<rom name="BorderBreak.iso" size="3470262272" crc="745f5ad9" md5="b99095971f99a33e5757ebfe12e3a254" sha1="e7d2351698e35e3bfc29803b8c48a8d542ea81f2" />


Pretty sure these Ringedge discs are just Libcrypt / TruCrypt containers so, well, they're useless in their current form but meh, here it is anyway.

Very much Linked with the following:

Border Break No.1  http://forum.redump.org/topic/22798/
Border Break No.2  http://forum.redump.org/post/70604/


Logs attached.

new logs attached - using latest version of DICUI with DIC Version:

x86, AnsiBuild, 20190629 193630

F1ReB4LL wrote:

And, again, you've used the older DIC version, it should be dumped with the 20190627 one or newer to have the title keys included.

smile   that's because i'm special. Will dump it again tonight