1

(9 replies, posted in Fixes & additions)

For example, if there is a title "Foo! Bar! Baz!" on db, can you distinguish the main title from the subtitle?
Foo! Bar! Baz!, Foo!: Bar! Baz!, Foo! Bar!: Baz!, Foo!: Bar!: Baz!

Is the separation information stored in db?

2

(9 replies, posted in Fixes & additions)

Is the hyphen in filename treated the same as colon?

Tennis no Oujisama - Smash Hit! Original Anime Game
or
Tennis no Oujisama - Smash Hit! - Original Anime Game

F1ReB4LL wrote:

Either logs or PVD alone (can be copy-pasted from IsoBuster if you don't want to redump a whole disc).

Is this a topic unrelated to the alternative serial?

logs:
F-BASIC 386 Compiler V1.1L21
F-BASIC 386 V1.1L10
F-BASIC 386 V1.1L10B
F-BASIC 386 V1.1L20
Towns Paint V1.1L10
Towns Sound V1.1L10

Did you get everything?

F1ReB4LL wrote:

Some of them are also missing PVDs.

Sorry, I don't understand what you mean.
Are you requesting a log?

System: Sony PlayStation 2
Media: DVD-5
Title: World Soccer: Winning Eleven 9
Foreign title: 
Disc number/letter: -
Disc title: -
Category: Games
Region: Japan
Languages: 
Serial: SLPM 66009
Ring:
  Mastering Code: SLPM-66009<tab>7
  Mastering SID Code: -
  Toolstamp or Mastering Code: -
  Mould SID Code: 45WF
  Additional Mould Text: -
Barcode: 4 988602 122916
EXE date: 2005-07-03T21:40:16+09:00
Comments: 
  db: http://redump.org/disc/17279/
  logs: https://www.mediafire.com/file/ie6seowk8yb0v1k
  EXE filename: SLPM_660.09
  Konami ID: VW282-J1
Contents: -
Version: 1.04
Editions/Releases: Original

Primary Volume Descriptor (PVD):
0320 : 20 20 20 20 20 20 20 20  20 20 20 20 20 32 30 30                200
0330 : 35 30 37 30 33 32 31 35  32 31 39 30 30 24 30 30   5070321521900$00
0340 : 30 30 30 30 30 30 30 30  30 30 30 30 30 30 00 30   00000000000000.0
0350 : 30 30 30 30 30 30 30 30  30 30 30 30 30 30 30 00   000000000000000.
0360 : 30 30 30 30 30 30 30 30  30 30 30 30 30 30 30 30   0000000000000000
0370 : 00 01 00 00 00 00 00 00  00 00 00 00 00 00 00 00   ................

ClrMamePro data:
<rom name="dic.iso" size="1397915648" crc="d1be47df" md5="dcc1b1d2e488a85c3999a7a1869848ff" sha1="e1bad38abffccd6928bc8777a7ead2290d8562de" />

6

(0 replies, posted in Verifications)

System: Sony PlayStation 2
Media: DVD-5
Title: Shin Sangoku Musou 2
Foreign title: 
Disc number/letter: -
Disc title: -
Category: Games
Region: Japan
Languages: 
Serial: SLPM 66505
Ring:
  Mastering Code: SLPM-65053<tab>3
  Mastering SID Code: -
  Toolstamp or Mastering Code: -
  Mould SID Code: 45U1
  Additional Mould Text: -
Barcode: 4 988615 018237
EXE date: 2001-08-27T23:15:52+09:00
Comments: 
  db: http://redump.org/disc/15929/
  logs: https://www.mediafire.com/file/sq5feptlvp0xbi1
  EXE filename: SLPM_650.53
Contents: -
Version: 1.30
Editions/Releases: Mega Hits!

Primary Volume Descriptor (PVD):
0320 : 20 20 20 20 20 20 20 20  20 20 20 20 20 32 30 30                200
0330 : 31 30 38 32 37 30 30 30  30 30 30 30 30 24 30 30   1082700000000$00
0340 : 30 30 30 30 30 30 30 30  30 30 30 30 30 30 00 30   00000000000000.0
0350 : 30 30 30 30 30 30 30 30  30 30 30 30 30 30 30 00   000000000000000.
0360 : 30 30 30 30 30 30 30 30  30 30 30 30 30 30 30 30   0000000000000000
0370 : 00 01 00 00 00 00 00 00  00 00 00 00 00 00 00 00   ................

ClrMamePro data:
<rom name="dic.iso" size="1819082752" crc="014f33fe" md5="d9cfb93308f1586da0fa9ecc497c95b0" sha1="812414d13b30eadd8e11a0e9e3fdd488b3343631" />
System: Sony PlayStation 2
Media: DVD-5
Title: Konohana 2: Todokanai Requiem
Foreign title: 
Disc number/letter: -
Disc title: -
Category: Games
Region: Japan
Languages: 
Serial: SLPM 65133
Ring:
  Mastering Code: SLPM-65133<tab>1
  Mastering SID Code: -
  Toolstamp or Mastering Code: -
  Mould SID Code: 45T0
  Additional Mould Text: -
Barcode: 4 944076 002451
EXE date: 2002-03-30T16:08:04+09:00
Comments: 
  db: http://redump.org/disc/33951/
  logs: https://www.mediafire.com/file/qr5383u42ss976h
  EXE filename: SLPM_651.33
Contents: -
Version: 1.01
Editions/Releases: Original

Primary Volume Descriptor (PVD):
0320 : 20 20 20 20 20 20 20 20  20 20 20 20 20 32 30 30                200
0330 : 32 30 33 33 31 31 31 32  39 33 33 30 30 24 30 30   2033111293300$00
0340 : 30 30 30 30 30 30 30 30  30 30 30 30 30 30 00 30   00000000000000.0
0350 : 30 30 30 30 30 30 30 30  30 30 30 30 30 30 30 00   000000000000000.
0360 : 30 30 30 30 30 30 30 30  30 30 30 30 30 30 30 30   0000000000000000
0370 : 00 01 00 00 00 00 00 00  00 00 00 00 00 00 00 00   ................

ClrMamePro data:
<rom name="dic.iso" size="697958400" crc="98a70178" md5="a245374c3388dec0f8dea4d0ef268d81" sha1="fa066eeefd398d0be3808111b900545463927809" />
System: Sony PlayStation 2
Media: DVD-5
Title: Kidou Senshi Gundam: Renpou vs. Zeon DX
Foreign title: 
Disc number/letter: -
Disc title: -
Category: Games
Region: Japan
Languages: 
Serial: SLPM 66506
Ring:
  Mastering Code: SLPM-65076<tab>6
  Mastering SID Code: -
  Toolstamp or Mastering Code: -
  Mould SID Code: 45VF
  Additional Mould Text: -
Barcode: 4543112 14121 7
EXE date: 2001-12-26T11:23:59+09:00
Comments: 
  db: http://redump.org/disc/55413/
  logs: https://www.mediafire.com/file/j56pdfvtbu8dmfw
  EXE filename: SLPM_650.76
Contents: -
Version: 2.00
Editions/Releases: Mega Hits!

Primary Volume Descriptor (PVD):
0320 : 20 20 20 20 20 20 20 20  20 20 20 20 20 32 30 30                200
0330 : 31 31 32 32 36 31 31 32  39 33 30 30 30 24 30 30   1122611293000$00
0340 : 30 30 30 30 30 30 30 30  30 30 30 30 30 30 00 30   00000000000000.0
0350 : 30 30 30 30 30 30 30 30  30 30 30 30 30 30 30 00   000000000000000.
0360 : 30 30 30 30 30 30 30 30  30 30 30 30 30 30 30 30   0000000000000000
0370 : 00 01 00 00 00 00 00 00  00 00 00 00 00 00 00 00   ................

ClrMamePro data:
<rom name="dic.iso" size="4282515456" crc="a83d5ef1" md5="dd3ff636bb30bb55e7971cc083e7432f" sha1="b15e0fdacf2f779ad8297f95a6fbb63b299d9c00" />
System: Sony PlayStation 2
Media: CD-ROM
Title: Simple 2000 Series Vol. 88: The Mini-suke Police
Foreign title: 
Disc number/letter: -
Disc title: -
Category: Games
Region: Japan
Languages: 
Serial: SLPS 20440
Ring:
  Mastering Code: SLPS-20440<tab>1
  Mastering SID Code: IFPI L275
  Toolstamp or Mastering Code: -
  Mould SID Code: IFPI 45KA
  Additional Mould Text: -
Write offset: -12
Barcode: 4 527823 993341
EXE date: 2005-09-28T12:02:40+09:00
Errors count: edccchk:0, DIC:0
Comments: 
  db: http://redump.org/disc/67248/
  logs: https://www.mediafire.com/file/nh20iu1o06qtfct
  EXE filename: SLPS_204.40
Contents: -
Version: 1.02
Editions/Releases: Original

Primary Volume Descriptor (PVD):
0320 : 20 20 20 20 20 20 20 20  20 20 20 20 20 32 30 30                200
0330 : 35 30 39 32 38 31 32 31  31 32 36 30 30 24 30 30   5092812112600$00
0340 : 30 30 30 30 30 30 30 30  30 30 30 30 30 30 00 30   00000000000000.0
0350 : 30 30 30 30 30 30 30 30  30 30 30 30 30 30 30 00   000000000000000.
0360 : 30 30 30 30 30 30 30 30  30 30 30 30 30 30 30 30   0000000000000000
0370 : 00 01 00 00 00 00 00 00  00 00 00 00 00 00 00 00   ................

ClrMamePro data:
<rom name="dic.bin" size="372241632" crc="8427636d" md5="3860164cc2347a658bc50becb458bfcf" sha1="b6237d47fbfb64a360aec6ac0789af4e11230683" />

Cuesheet:
FILE "dic.bin" BINARY
  TRACK 01 MODE2/2352
    INDEX 01 00:00:00
System: Sony PlayStation 2
Media: CD-ROM
Title: Simple 2000 Series Vol. 17: The Suiri: Aratanaru 20 no Jikenbo
Foreign title: 
Disc number/letter: -
Disc title: -
Category: Games
Region: Japan
Languages: 
Serial: SLPM 62252
Ring:
  Mastering Code: SLPM-62252<tab>1
  Mastering SID Code: IFPI L275
  Toolstamp or Mastering Code: -
  Mould SID Code: IFPI 456E
  Additional Mould Text: -
Write offset: -12
Barcode: 4 527823 991781
EXE date: 2002-11-15T10:20:06+09:00
Errors count: edccchk:0, DIC:0
Comments: 
  db: http://redump.org/disc/18953/
  logs: https://www.mediafire.com/file/7yhnxfbeo9yeta5
  EXE filename: SLPM_622.52
Contents: -
Version: 1.04
Editions/Releases: Original

Primary Volume Descriptor (PVD):
0320 : 20 20 20 20 20 20 20 20  20 20 20 20 20 32 30 30                200
0330 : 32 31 31 31 35 31 31 30  30 30 30 30 30 24 30 30   2111511000000$00
0340 : 30 30 30 30 30 30 30 30  30 30 30 30 30 30 00 30   00000000000000.0
0350 : 30 30 30 30 30 30 30 30  30 30 30 30 30 30 30 00   000000000000000.
0360 : 30 30 30 30 30 30 30 30  30 30 30 30 30 30 30 30   0000000000000000
0370 : 00 01 00 00 00 00 00 00  00 00 00 00 00 00 00 00   ................

ClrMamePro data:
<rom name="dic.bin" size="422205168" crc="6c080e2c" md5="f02957cd5a9c8e270b68d1d44f3a8395" sha1="a1da366517fbb9eb3ec77dc5e955a50e3032adeb" />

Cuesheet:
FILE "dic.bin" BINARY
  TRACK 01 MODE2/2352
    INDEX 01 00:00:00
System: Sony PlayStation 2
Media: CD-ROM
Title: La Pucelle: Hikari no Seijo Densetsu
Foreign title: 
Disc number/letter: -
Disc title: -
Category: Games
Region: Japan
Languages: 
Serial: SLPS 20167
Ring:
  Mastering Code: SLPS-20167<tab>1
  Mastering SID Code: IFPI L274
  Toolstamp or Mastering Code: -
  Mould SID Code: IFPI 456B
  Additional Mould Text: -
Write offset: -12
Barcode: 4 995506 000301
EXE date: 2001-12-20T13:23:58+09:00
Errors count: edccchk:0, DIC:0
Comments: 
  db: http://redump.org/disc/49010/
  logs: https://www.mediafire.com/file/e96pgafvxdw7tzz
  EXE filename: SLPS_201.67
Contents: -
Version: 1.04
Editions/Releases: Original

Primary Volume Descriptor (PVD):
0320 : 20 20 20 20 20 20 20 20  20 20 20 20 20 32 30 30                200
0330 : 31 31 32 32 30 32 32 30  30 30 30 30 30 24 30 30   1122022000000$00
0340 : 30 30 30 30 30 30 30 30  30 30 30 30 30 30 00 30   00000000000000.0
0350 : 30 30 30 30 30 30 30 30  30 30 30 30 30 30 30 00   000000000000000.
0360 : 30 30 30 30 30 30 30 30  30 30 30 30 30 30 30 30   0000000000000000
0370 : 00 01 00 00 00 00 00 00  00 00 00 00 00 00 00 00   ................

ClrMamePro data:
<rom name="dic.bin" size="620610480" crc="5f87863a" md5="bd03974071ecfc30f84d84f5f1e0dfe1" sha1="2647a1488c0d35f2c39fd99028312042903bd654" />

Cuesheet:
FILE "dic.bin" BINARY
  TRACK 01 MODE2/2352
    INDEX 01 00:00:00
System: Sony PlayStation 2
Media: CD-ROM
Title: Simple 2000 Series Vol. 4: The Double Mahjong Puzzle
Foreign title: 
Disc number/letter: -
Disc title: -
Category: Games
Region: Japan
Languages: 
Serial: SLPM 62160
Ring:
  Mastering Code: SLPM-62160<tab>1
  Mastering SID Code: IFPI L274
  Toolstamp or Mastering Code: -
  Mould SID Code: IFPI 456B
  Additional Mould Text: -
Write offset: -12
Barcode: 4 527823 991415
EXE date: 2002-02-25T15:01:56+09:00
Errors count: edccchk:0, DIC:0
Comments: 
  db: http://redump.org/disc/47749/
  logs: https://www.mediafire.com/file/b98xyabwfg4hggk
  EXE filename: SLPM_621.60
Contents: 
  GekiToride
  Jong Space
Version: 2.00
Editions/Releases: Original

Primary Volume Descriptor (PVD):
0320 : 20 20 20 20 20 20 20 20  20 20 20 20 20 32 30 30                200
0330 : 32 30 32 32 35 31 35 30  30 30 30 30 30 24 30 30   2022515000000$00
0340 : 30 30 30 30 30 30 30 30  30 30 30 30 30 30 00 30   00000000000000.0
0350 : 30 30 30 30 30 30 30 30  30 30 30 30 30 30 30 00   000000000000000.
0360 : 30 30 30 30 30 30 30 30  30 30 30 30 30 30 30 30   0000000000000000
0370 : 00 01 00 00 00 00 00 00  00 00 00 00 00 00 00 00   ................

ClrMamePro data:
<rom name="dic.bin" size="120420048" crc="fc9a3270" md5="5f5efb3654df8c33b02c16fef709546a" sha1="51c5d29551fd2832ed2d804ab4fbadda12d1c5d6" />

Cuesheet:
FILE "dic.bin" BINARY
  TRACK 01 MODE2/2352
    INDEX 01 00:00:00
System: Sony PlayStation 2
Media: CD-ROM
Title: Simple 2000 Series Ultimate Vol. 5: The Love Mahjong!
Foreign title: 
Disc number/letter: -
Disc title: -
Category: Games
Region: Japan
Languages: 
Serial: SLPM 62248
Ring:
  Mastering Code: SLPM-62248<tab>1
  Mastering SID Code: IFPI L275
  Toolstamp or Mastering Code: -
  Mould SID Code: IFPI 454E
  Additional Mould Text: -
Write offset: -12
Barcode: 4 527823 991767
EXE date: 2002-09-15T23:30:00+09:00
Errors count: edccchk:0, DIC:0
Comments: 
  db: http://redump.org/disc/40052/
  logs: https://www.mediafire.com/file/qw9vnnxi5fsnhys
  EXE filename: SLPM_622.48
Contents: -
Version: 1.02
Editions/Releases: Original

Primary Volume Descriptor (PVD):
0320 : 20 20 20 20 20 20 20 20  20 20 20 20 20 32 30 30                200
0330 : 32 30 39 31 38 31 34 30  30 30 30 30 30 24 30 30   2091814000000$00
0340 : 30 30 30 30 30 30 30 30  30 30 30 30 30 30 00 30   00000000000000.0
0350 : 30 30 30 30 30 30 30 30  30 30 30 30 30 30 30 00   000000000000000.
0360 : 30 30 30 30 30 30 30 30  30 30 30 30 30 30 30 30   0000000000000000
0370 : 00 01 00 00 00 00 00 00  00 00 00 00 00 00 00 00   ................

ClrMamePro data:
<rom name="dic.bin" size="189267792" crc="493e6eeb" md5="cd2add33801946aad2d61cdeff9e8368" sha1="073f5dc759fffeed2a9992ece62467fe9b1b0b22" />

Cuesheet:
FILE "dic.bin" BINARY
  TRACK 01 MODE2/2352
    INDEX 01 00:00:00

more.

Towns Paint V1.1L20
http://redump.org/disc/45435/
Alternative Serial: TR81-0570-2

Towns Sound V1.1L20
http://redump.org/disc/64960/
Alternative Serial: TR81-0590-2

Towns System Software V2.1L10
http://redump.org/disc/12537/
Alternative Serial: TR81-7710-1

15

(9 replies, posted in Fixes & additions)

Lizard wrote:

and that's why we usually remove the colon after an exclamation mark.

Is this an English rule?
Does redump.org adopt it?

Isn't a separator necessary to separate the main and sub title?

16

(9 replies, posted in Fixes & additions)

Lizard wrote:

The naming rule should be to not add a colon after an exclamation mark.

Thanks, I didn't know this rule.
strange rule...

17

(4 replies, posted in General discussion)

Lizard wrote:

I've fixed the A.E.U.G. vs. Titans title, now it's ok.
For the other two, i've explained my reasons in the "Fixes & additions" topics.

Thanks for the comments and fixes.
I express my respect for your work.

18

(4 replies, posted in General discussion)

I don't understand why you ignored my fixes.

http://forum.redump.org/topic/25895/add … nime-game/
http://forum.redump.org/topic/26541/add … man-sabou/
http://forum.redump.org/topic/26544/add … vs-titans/

19

(9 replies, posted in Fixes & additions)

http://redump.org/disc/67621/
http://redump.org/disc/38352/
http://redump.org/disc/67622/
need second colon.

Tennis no Oujisama: Smash Hit!: Original Anime Game

20

(1 replies, posted in Fixes & additions)

http://redump.org/disc/38519/
The title needs to be changed to the original version.

Meshimase Roman Sabou

F-BASIC 386 Compiler V1.1L21
http://redump.org/disc/41225/
Alternative ID: TR81-7650-1 (Booklet)

F-BASIC 386 V1.1L10
http://redump.org/disc/39195/
http://redump.org/disc/39196/
Alternative ID: TR81-0600-1 (Booklet)

F-BASIC 386 V1.1L20
http://redump.org/disc/12538/
Alternative ID: TR81-0600-2 (Booklet)

Towns Paint V1.1L10
http://redump.org/disc/39197/
Alternative ID: TR81-0570-1 (Booklet)

Towns Sound V1.1L10
http://redump.org/disc/39198/
Alternative ID: TR81-0590-1 (Booklet)

Towns System Software V1.1L10
http://redump.org/disc/39001/
http://redump.org/disc/39002/
Alternative ID: TR81-0560-1 (Booklet)

I forgot to write this, but I understand this by adding to the comments.

I say the same thing over and over again, but what I want is rules.
Naming conventions in redump.org are inconsistent.

F1ReB4LL wrote:

Fixed to OutRun, since that space is only on the title screen, but nowhere on the covers, added Out Run as an alternative title.

Why don't you respect the title screen?
The rules don't seem to be consistent.

25

(2 replies, posted in Fixes & additions)

F1ReB4LL wrote:

Nope, but I'm always treating digits in a circle and digits in a rectangle as a "Vol." thing. Because we have such cases as this: https://auctions.c.yimg.jp/images.aucti … 646326.jpg - says "Vol. 1" on the front cover, but its spine only has 1-in-a-rectangle symbol and logically 1-in-a-rectangle means Vol. 1.

Thanks, I understand.