Why not do so with the disc number?

dic: https://www.dropbox.com/scl/fi/bhezonwk … 5lqnv14cl8
redumper: https://www.dropbox.com/scl/fi/5ogkriye … i713741vi4
Both hashes match.

db: http://redump.org/disc/25791/

Common Disc Info:
    Title: Wild Arms: Advanced 3rd
    Foreign Title (Non-latin): ワイルドアームズ アドヴァンスドサード
    Disc Number / Letter: -
    Disc Title: -
    System: Sony PlayStation 2
    Media Type: DVD-ROM-5
    Category: Games
    Fully Matching ID: 25791
    Region: Japan
    Languages: 
    Disc Serial: SCPS 19205

    Ringcode Information:

Data Side Mastering Code (laser branded/etched): SCPS-15024<tab>4
Data Side Mould SID Code: 45VA

    Barcode: 4 948872 192057
    EXE/Build Date: 2002-02-20
    Comments:

[T:ISN] SCPS-15024
EXE filename: SCPS_150.24
EXE timestamp: 2002-02-20T12:52:16+09:00

    Contents: 

Version and Editions:
    Version: 1.04
    Edition/Release: PlayStation 2 the Best

Extras:
    Primary Volume Descriptor (PVD):

0320 : 20 20 20 20 20 20 20 20  20 20 20 20 20 32 30 30                200
0330 : 32 30 32 32 30 31 32 30  30 30 30 30 30 24 30 30   2022012000000$00
0340 : 30 30 30 30 30 30 30 30  30 30 30 30 30 30 00 30   00000000000000.0
0350 : 30 30 30 30 30 30 30 30  30 30 30 30 30 30 30 00   000000000000000.
0360 : 30 30 30 30 30 30 30 30  30 30 30 30 30 30 30 30   0000000000000000
0370 : 00 01 00 00 00 00 00 00  00 00 00 00 00 00 00 00   ................

Size & Checksum:
    Size: 2706309120
    CRC32: 5c45e430
    MD5: 8fb6c82245d1d6438ad325e1072aa634
    SHA1: 80bdd72622067488f74dcc57741593af46bc55a5

Dumping Info:
    Frontend Version: 3.1.5-771483ac146302cf6634037db23cd336b0d1c97a
    Dumping Program: Redumper v2024.05.18 build_329
    Date: 2024-05-19 13:08:00
    Manufacturer: ASUS
    Model: BW-16D1HT
    Firmware: 3.02 (W000800KLGK8LF2132)
    Reported Disc Type: DVD-ROM

dic: https://www.dropbox.com/scl/fi/2hjk1m1c … 10zno98dbj
redumper: https://www.dropbox.com/scl/fi/o5b0wai9 … e63eyk4zqc
Both hashes match.

db: http://redump.org/disc/77825/

Common Disc Info:
    Title: Guisard Revolution: Bokura wa Omoi o Mi ni Matou
    Foreign Title (Non-latin): ガイザード・レボリューション 僕らは想いを身に纏う
    Disc Number / Letter: -
    Disc Title: -
    System: Sony PlayStation 2
    Media Type: DVD-ROM-5
    Category: Games
    Fully Matching ID: 77825
    Region: Japan
    Languages: 
    Disc Serial: SLPM 65886

    Ringcode Information:

Data Side Mastering Code (laser branded/etched): SLPM-65886<tab>1
Data Side Mould SID Code: 45U3

    Barcode: 4 933516 508462
    EXE/Build Date: 2005-01-18
    Comments:

[T:ISN] SLPM-65886
EXE filename: SLPM_658.86
EXE timestamp: 2005-01-18T11:56:28+09:00

    Contents: 

Version and Editions:
    Version: 1.03
    Edition/Release: Original

Extras:
    Primary Volume Descriptor (PVD):

0320 : 20 20 20 20 20 20 20 20  20 20 20 20 20 32 30 30                200
0330 : 35 30 31 32 31 30 30 30  30 30 30 30 30 24 30 30   5012100000000$00
0340 : 30 30 30 30 30 30 30 30  30 30 30 30 30 30 00 30   00000000000000.0
0350 : 30 30 30 30 30 30 30 30  30 30 30 30 30 30 30 00   000000000000000.
0360 : 30 30 30 30 30 30 30 30  30 30 30 30 30 30 30 30   0000000000000000
0370 : 00 01 00 00 00 00 00 00  00 00 00 00 00 00 00 00   ................

Size & Checksum:
    Size: 3849158656
    CRC32: 79712da4
    MD5: eba7771244d75297ff69b738c63d5336
    SHA1: 5ade21320d910b1ef4c41f8698aab711e3420b0a

Dumping Info:
    Frontend Version: 3.1.5-771483ac146302cf6634037db23cd336b0d1c97a
    Dumping Program: Redumper v2024.05.18 build_329
    Date: 2024-05-19 08:31:12
    Manufacturer: ASUS
    Model: BW-16D1HT
    Firmware: 3.02 (W000800KLGK8LF2132)
    Reported Disc Type: DVD-ROM

new ringcode

dic: https://www.dropbox.com/scl/fi/snvnpvwz … qegzlcjcyx
redumper: https://www.dropbox.com/scl/fi/kjtbl261 … x6c5hheypa
Both hashes match.

db: http://redump.org/disc/105343/

Common Disc Info:
    Title: R4: Ridge Racer Type 4: The 20th Anniv. Sounds
    Foreign Title (Non-latin): 
    Disc Number / Letter: 1
    Disc Title: 1st Heat: The Remixes
    System: Audio CD
    Media Type: CD-ROM
    Category: Audio
    Fully Matching ID: 105343
    Region: Japan
    Languages: -
    Disc Serial: SRNS-2004-1

    Ringcode Information:

Data Side Mastering Code (laser branded/etched): SRNS-2004-1 MT 362
Data Side Mastering SID Code: IFPI L153
Data Side Mould SID Code: IFPI 445J

    Barcode: 4 582148 006794
    Comments:

<b>Universal Hash (SHA-1)</b>: 587b40356cbd2291bf1c59e03d998e3925c63b2e
<b>Ring non-zero data start</b>: -88187
Alternative serial: SRNS-2004

    Contents: refer to https://vgmdb.net/album/81795

Version and Editions:
    Version: 
    Edition/Release: Original

Extras:
    Primary Volume Descriptor (PVD): Disc has no PVD

Tracks and Write Offsets:
    DAT:

<rom name="dump (Track 00).bin" size="352800" crc="33d7210d" md5="1e16c01794e3e646ce39581860733fb7" sha1="d299193a18e736078609a1371eec5e7cc8acaebd" />
<rom name="dump (Track 01).bin" size="52395504" crc="b1726652" md5="bf0318fc4307d5ff34fe23000dd17187" sha1="23150de1d58a8c323e7269dffa4da9fb2aa5284c" />
<rom name="dump (Track 02).bin" size="57412320" crc="3df3de86" md5="d37ea630fa368c4bc071e42d86d72821" sha1="017de89a10c1d14b33c71369c5129b07a8ffec2d" />
<rom name="dump (Track 03).bin" size="48030192" crc="6a762bd8" md5="a8ca1c0a39418a6837f1b5ded2987305" sha1="bf701ea0baad912ecd13834be2db041e26a8b611" />
<rom name="dump (Track 04).bin" size="56384496" crc="90ae5843" md5="f3d96854af675356f972c762ccddff65" sha1="f2e8ab9dbdf897e073f9908ebb5e564ecda7fb74" />
<rom name="dump (Track 05).bin" size="55262592" crc="0ae8f48a" md5="218b3712cc2c89bf7e15da12962a3894" sha1="d4838ffd1b8ba30e1196883e721732b07da51117" />
<rom name="dump (Track 06).bin" size="52550736" crc="2d98fe4b" md5="ef77672c337f528572f1a6f9eba0d34f" sha1="ec51e9bf91b33ec4ae466e781c8e9f1f4758efe3" />
<rom name="dump (Track 07).bin" size="65286816" crc="8018910c" md5="3a64a69dd8e2a3fc2ef4705f64325f86" sha1="1a1d3e1ba4f0f5ba918e712b4fe495ea6954229a" />
<rom name="dump (Track 08).bin" size="48552336" crc="1baafaf8" md5="09f39d6af5a6d297df420c5a8bc2f3d4" sha1="06dabf8fa91e3427349707ec9572eaa755ac9a2c" />
<rom name="dump (Track 09).bin" size="43730736" crc="ea0fbeff" md5="f224d837d0eeaf9ffa194ac83f14cacc" sha1="fa6e04284f3d4829ec148c740ca04bb4bf299bc3" />
<rom name="dump (Track 10).bin" size="44048256" crc="1566020e" md5="d5a946f7709d6e3fbd643025019b1d52" sha1="b240749c1980e4135cdce4d3b5846cf4ad340010" />
<rom name="dump (Track 11).bin" size="57605184" crc="f3136365" md5="4b3bca95f469c6e9fe5519ce945eddbb" sha1="76f5689ba68c866efeba5de45ab4a563a07be016" />
<rom name="dump (Track 12).bin" size="52971744" crc="5b3f0753" md5="54ccdf7c5adf22086031e437389b9d26" sha1="9bbfa42265e0698dde36cd348fbcfc841d73d31d" />
<rom name="dump (Track 13).bin" size="46727184" crc="2d0629c3" md5="e43bfe0a1cdf8a6a7ae573b85075ddde" sha1="484c459d69a440771822637d121822314e3d2d51" />
<rom name="dump (Track 14).bin" size="38170608" crc="6829e170" md5="c05476890b1094af4a2d25ff03dc66ef" sha1="d7cecfc0c8530b515151e13ef253487e40b3402b" />
<rom name="dump (Track 15).bin" size="44417520" crc="fdec0f80" md5="6fe0197e22137866ecdb6ebf37bc44a6" sha1="9fd12d007836cf637ef2f30c7bff84030d16b549" />
<rom name="dump (Track 16).bin" size="50111712" crc="5711aeb1" md5="7c099ae1e5285b7457f89c57c660837e" sha1="bd1042659275478b9a73689fa9d03ef5ccfa11a3" />

    Cuesheet:

CATALOG 4582148006794
FILE "dump (Track 01).bin" BINARY
  TRACK 01 AUDIO
    ISRC JPG641900001
    INDEX 01 00:00:00
FILE "dump (Track 02).bin" BINARY
  TRACK 02 AUDIO
    ISRC JPG641900002
    INDEX 00 00:00:00
    INDEX 01 00:03:00
FILE "dump (Track 03).bin" BINARY
  TRACK 03 AUDIO
    ISRC JPG641900003
    INDEX 00 00:00:00
    INDEX 01 00:03:00
FILE "dump (Track 04).bin" BINARY
  TRACK 04 AUDIO
    ISRC JPG641900004
    INDEX 00 00:00:00
    INDEX 01 00:03:00
FILE "dump (Track 05).bin" BINARY
  TRACK 05 AUDIO
    ISRC JPG641900005
    INDEX 00 00:00:00
    INDEX 01 00:03:00
FILE "dump (Track 06).bin" BINARY
  TRACK 06 AUDIO
    ISRC JPG641900006
    INDEX 00 00:00:00
    INDEX 01 00:03:00
FILE "dump (Track 07).bin" BINARY
  TRACK 07 AUDIO
    ISRC JPG641900007
    INDEX 00 00:00:00
    INDEX 01 00:03:00
FILE "dump (Track 08).bin" BINARY
  TRACK 08 AUDIO
    ISRC JPG641900008
    INDEX 00 00:00:00
    INDEX 01 00:03:00
FILE "dump (Track 09).bin" BINARY
  TRACK 09 AUDIO
    ISRC JPG641900009
    INDEX 00 00:00:00
    INDEX 01 00:03:00
FILE "dump (Track 10).bin" BINARY
  TRACK 10 AUDIO
    ISRC JPG641900010
    INDEX 00 00:00:00
    INDEX 01 00:03:00
FILE "dump (Track 11).bin" BINARY
  TRACK 11 AUDIO
    ISRC JPG641900011
    INDEX 00 00:00:00
    INDEX 01 00:03:00
FILE "dump (Track 12).bin" BINARY
  TRACK 12 AUDIO
    ISRC JPG641900012
    INDEX 00 00:00:00
    INDEX 01 00:03:00
FILE "dump (Track 13).bin" BINARY
  TRACK 13 AUDIO
    ISRC JPG641900013
    INDEX 00 00:00:00
    INDEX 01 00:03:00
FILE "dump (Track 14).bin" BINARY
  TRACK 14 AUDIO
    ISRC JPG641900014
    INDEX 00 00:00:00
    INDEX 01 00:03:00
FILE "dump (Track 15).bin" BINARY
  TRACK 15 AUDIO
    ISRC JPG641900015
    INDEX 00 00:00:00
    INDEX 01 00:03:00
FILE "dump (Track 16).bin" BINARY
  TRACK 16 AUDIO
    ISRC JPG641900016
    INDEX 00 00:00:00
    INDEX 01 00:03:00

    Write Offset: +13

Dumping Info:
    Frontend Version: 3.1.5-771483ac146302cf6634037db23cd336b0d1c97a
    Dumping Program: Redumper v2024.05.06 build_325
    Date: 2024-05-15 12:36:09
    Manufacturer: PLEXTOR
    Model: DVDR PX-760A
    Firmware: 1.07 (08/18/07 15:10)
    Reported Disc Type: CD-ROM
=== 2024-05-15 21:23:35 ========================================================
redumper v2024.05.06 build_325 [May  6 2024, 01:14:33]

arguments: cd --verbose --drive=g: --speed=24 --retries=20 --image-name=dump

drive path: g:
drive: PLEXTOR - DVDR PX-760A (revision level: 1.07, vendor specific: 08/18/07 15:10)
drive configuration: PLEXTOR (read offset: +30, C2 shift: 295, pre-gap start: -75, read method: D8, sector order: DATA_C2_SUB)
drive read speed: 4233 KB

current profile: CD-ROM

image path: .
image name: dump

*** DUMP

disc TOC:
  track 01 { audio }
    index 01 { LBA:      0, MSF: 00:02:00 }
  track 02 { audio }
    index 01 { LBA:  22502, MSF: 05:02:02 }
  track 03 { audio }
    index 01 { LBA:  46912, MSF: 10:27:37 }
  track 04 { audio }
    index 01 { LBA:  67333, MSF: 14:59:58 }
  track 05 { audio }
    index 01 { LBA:  91306, MSF: 20:19:31 }
  track 06 { audio }
    index 01 { LBA: 114802, MSF: 25:32:52 }
  track 07 { audio }
    index 01 { LBA: 137145, MSF: 30:30:45 }
  track 08 { audio }
    index 01 { LBA: 164903, MSF: 36:40:53 }
  track 09 { audio }
    index 01 { LBA: 185546, MSF: 41:15:71 }
  track 10 { audio }
    index 01 { LBA: 204139, MSF: 45:23:64 }
  track 11 { audio }
    index 01 { LBA: 222867, MSF: 49:33:42 }
  track 12 { audio }
    index 01 { LBA: 247359, MSF: 55:00:09 }
  track 13 { audio }
    index 01 { LBA: 269881, MSF: 60:00:31 }
  track 14 { audio }
    index 01 { LBA: 289748, MSF: 64:25:23 }
  track 15 { audio }
    index 01 { LBA: 305977, MSF: 68:01:52 }
  track 16 { audio }
    index 01 { LBA: 324862, MSF: 72:13:37 }
  track AA { audio }
    index 01 { LBA: 345943, MSF: 76:54:43 }

PLEXTOR: reading lead-in (retry: 1)
PLEXTOR: lead-in found (session: 1, sectors: 2765)
PLEXTOR: reading lead-in (retry: 2)
PLEXTOR: lead-in found (session: 1, sectors: 2813)
PLEXTOR: storing lead-in (session: 1, verified: yes)

media errors: 
  SCSI: 0
  C2: 0
  Q: 15

*** PROTECTION (time check: 616s)

protection: N/A

*** REFINE (time check: 1s)


*** SPLIT

correcting P... done
correcting Q... done

final TOC:
  track 01 { audio }
    index 00 { LBA: [  -150 ..     -1], length:    150, MSF: 00:00:00-00:01:74 }
    index 01 { LBA: [     0 ..  22276], length:  22277, MSF: 00:02:00-04:59:01 }
  track 02 { audio }
    index 00 { LBA: [ 22277 ..  22501], length:    225, MSF: 04:59:02-05:02:01 }
    index 01 { LBA: [ 22502 ..  46686], length:  24185, MSF: 05:02:02-10:24:36 }
  track 03 { audio }
    index 00 { LBA: [ 46687 ..  46911], length:    225, MSF: 10:24:37-10:27:36 }
    index 01 { LBA: [ 46912 ..  67107], length:  20196, MSF: 10:27:37-14:56:57 }
  track 04 { audio }
    index 00 { LBA: [ 67108 ..  67332], length:    225, MSF: 14:56:58-14:59:57 }
    index 01 { LBA: [ 67333 ..  91080], length:  23748, MSF: 14:59:58-20:16:30 }
  track 05 { audio }
    index 00 { LBA: [ 91081 ..  91305], length:    225, MSF: 20:16:31-20:19:30 }
    index 01 { LBA: [ 91306 .. 114576], length:  23271, MSF: 20:19:31-25:29:51 }
  track 06 { audio }
    index 00 { LBA: [114577 .. 114801], length:    225, MSF: 25:29:52-25:32:51 }
    index 01 { LBA: [114802 .. 136919], length:  22118, MSF: 25:32:52-30:27:44 }
  track 07 { audio }
    index 00 { LBA: [136920 .. 137144], length:    225, MSF: 30:27:45-30:30:44 }
    index 01 { LBA: [137145 .. 164677], length:  27533, MSF: 30:30:45-36:37:52 }
  track 08 { audio }
    index 00 { LBA: [164678 .. 164902], length:    225, MSF: 36:37:53-36:40:52 }
    index 01 { LBA: [164903 .. 185320], length:  20418, MSF: 36:40:53-41:12:70 }
  track 09 { audio }
    index 00 { LBA: [185321 .. 185545], length:    225, MSF: 41:12:71-41:15:70 }
    index 01 { LBA: [185546 .. 203913], length:  18368, MSF: 41:15:71-45:20:63 }
  track 10 { audio }
    index 00 { LBA: [203914 .. 204138], length:    225, MSF: 45:20:64-45:23:63 }
    index 01 { LBA: [204139 .. 222641], length:  18503, MSF: 45:23:64-49:30:41 }
  track 11 { audio }
    index 00 { LBA: [222642 .. 222866], length:    225, MSF: 49:30:42-49:33:41 }
    index 01 { LBA: [222867 .. 247133], length:  24267, MSF: 49:33:42-54:57:08 }
  track 12 { audio }
    index 00 { LBA: [247134 .. 247358], length:    225, MSF: 54:57:09-55:00:08 }
    index 01 { LBA: [247359 .. 269655], length:  22297, MSF: 55:00:09-59:57:30 }
  track 13 { audio }
    index 00 { LBA: [269656 .. 269880], length:    225, MSF: 59:57:31-60:00:30 }
    index 01 { LBA: [269881 .. 289522], length:  19642, MSF: 60:00:31-64:22:22 }
  track 14 { audio }
    index 00 { LBA: [289523 .. 289747], length:    225, MSF: 64:22:23-64:25:22 }
    index 01 { LBA: [289748 .. 305751], length:  16004, MSF: 64:25:23-67:58:51 }
  track 15 { audio }
    index 00 { LBA: [305752 .. 305976], length:    225, MSF: 67:58:52-68:01:51 }
    index 01 { LBA: [305977 .. 324636], length:  18660, MSF: 68:01:52-72:10:36 }
  track 16 { audio }
    index 00 { LBA: [324637 .. 324861], length:    225, MSF: 72:10:37-72:13:36 }
    index 01 { LBA: [324862 .. 345942], length:  21081, MSF: 72:13:37-76:54:42 }
  track AA { audio }
    index 01 { LBA: [345943 .. 346040], length:     98, MSF: 76:54:43-76:55:65 }

analyzing... done (time: 71s)

non-zero  TOC sample range: [   -88200 .. +203414484]
non-zero data sample range: [   -88187 .. +203414497]
Universal Hash (SHA-1): 587b40356cbd2291bf1c59e03d998e3925c63b2e

Perfect Audio Offset (silence level: 8): [-2210 .. +747]
moving data out of lead-out (difference: +13)
disc write offset: +13

warning: lead-in contains non-zero data (session: 1, sectors: 150/150)
checking tracks
done

writing tracks
done

CUE [dump.cue]:
CATALOG 4582148006794
FILE "dump (Track 01).bin" BINARY
  TRACK 01 AUDIO
    ISRC JPG641900001
    INDEX 01 00:00:00
FILE "dump (Track 02).bin" BINARY
  TRACK 02 AUDIO
    ISRC JPG641900002
    INDEX 00 00:00:00
    INDEX 01 00:03:00
FILE "dump (Track 03).bin" BINARY
  TRACK 03 AUDIO
    ISRC JPG641900003
    INDEX 00 00:00:00
    INDEX 01 00:03:00
FILE "dump (Track 04).bin" BINARY
  TRACK 04 AUDIO
    ISRC JPG641900004
    INDEX 00 00:00:00
    INDEX 01 00:03:00
FILE "dump (Track 05).bin" BINARY
  TRACK 05 AUDIO
    ISRC JPG641900005
    INDEX 00 00:00:00
    INDEX 01 00:03:00
FILE "dump (Track 06).bin" BINARY
  TRACK 06 AUDIO
    ISRC JPG641900006
    INDEX 00 00:00:00
    INDEX 01 00:03:00
FILE "dump (Track 07).bin" BINARY
  TRACK 07 AUDIO
    ISRC JPG641900007
    INDEX 00 00:00:00
    INDEX 01 00:03:00
FILE "dump (Track 08).bin" BINARY
  TRACK 08 AUDIO
    ISRC JPG641900008
    INDEX 00 00:00:00
    INDEX 01 00:03:00
FILE "dump (Track 09).bin" BINARY
  TRACK 09 AUDIO
    ISRC JPG641900009
    INDEX 00 00:00:00
    INDEX 01 00:03:00
FILE "dump (Track 10).bin" BINARY
  TRACK 10 AUDIO
    ISRC JPG641900010
    INDEX 00 00:00:00
    INDEX 01 00:03:00
FILE "dump (Track 11).bin" BINARY
  TRACK 11 AUDIO
    ISRC JPG641900011
    INDEX 00 00:00:00
    INDEX 01 00:03:00
FILE "dump (Track 12).bin" BINARY
  TRACK 12 AUDIO
    ISRC JPG641900012
    INDEX 00 00:00:00
    INDEX 01 00:03:00
FILE "dump (Track 13).bin" BINARY
  TRACK 13 AUDIO
    ISRC JPG641900013
    INDEX 00 00:00:00
    INDEX 01 00:03:00
FILE "dump (Track 14).bin" BINARY
  TRACK 14 AUDIO
    ISRC JPG641900014
    INDEX 00 00:00:00
    INDEX 01 00:03:00
FILE "dump (Track 15).bin" BINARY
  TRACK 15 AUDIO
    ISRC JPG641900015
    INDEX 00 00:00:00
    INDEX 01 00:03:00
FILE "dump (Track 16).bin" BINARY
  TRACK 16 AUDIO
    ISRC JPG641900016
    INDEX 00 00:00:00
    INDEX 01 00:03:00


*** HASH (time check: 135s)

dat:
<rom name="dump (Track 00).bin" size="352800" crc="33d7210d" md5="1e16c01794e3e646ce39581860733fb7" sha1="d299193a18e736078609a1371eec5e7cc8acaebd" />
<rom name="dump (Track 01).bin" size="52395504" crc="b1726652" md5="bf0318fc4307d5ff34fe23000dd17187" sha1="23150de1d58a8c323e7269dffa4da9fb2aa5284c" />
<rom name="dump (Track 02).bin" size="57412320" crc="3df3de86" md5="d37ea630fa368c4bc071e42d86d72821" sha1="017de89a10c1d14b33c71369c5129b07a8ffec2d" />
<rom name="dump (Track 03).bin" size="48030192" crc="6a762bd8" md5="a8ca1c0a39418a6837f1b5ded2987305" sha1="bf701ea0baad912ecd13834be2db041e26a8b611" />
<rom name="dump (Track 04).bin" size="56384496" crc="90ae5843" md5="f3d96854af675356f972c762ccddff65" sha1="f2e8ab9dbdf897e073f9908ebb5e564ecda7fb74" />
<rom name="dump (Track 05).bin" size="55262592" crc="0ae8f48a" md5="218b3712cc2c89bf7e15da12962a3894" sha1="d4838ffd1b8ba30e1196883e721732b07da51117" />
<rom name="dump (Track 06).bin" size="52550736" crc="2d98fe4b" md5="ef77672c337f528572f1a6f9eba0d34f" sha1="ec51e9bf91b33ec4ae466e781c8e9f1f4758efe3" />
<rom name="dump (Track 07).bin" size="65286816" crc="8018910c" md5="3a64a69dd8e2a3fc2ef4705f64325f86" sha1="1a1d3e1ba4f0f5ba918e712b4fe495ea6954229a" />
<rom name="dump (Track 08).bin" size="48552336" crc="1baafaf8" md5="09f39d6af5a6d297df420c5a8bc2f3d4" sha1="06dabf8fa91e3427349707ec9572eaa755ac9a2c" />
<rom name="dump (Track 09).bin" size="43730736" crc="ea0fbeff" md5="f224d837d0eeaf9ffa194ac83f14cacc" sha1="fa6e04284f3d4829ec148c740ca04bb4bf299bc3" />
<rom name="dump (Track 10).bin" size="44048256" crc="1566020e" md5="d5a946f7709d6e3fbd643025019b1d52" sha1="b240749c1980e4135cdce4d3b5846cf4ad340010" />
<rom name="dump (Track 11).bin" size="57605184" crc="f3136365" md5="4b3bca95f469c6e9fe5519ce945eddbb" sha1="76f5689ba68c866efeba5de45ab4a563a07be016" />
<rom name="dump (Track 12).bin" size="52971744" crc="5b3f0753" md5="54ccdf7c5adf22086031e437389b9d26" sha1="9bbfa42265e0698dde36cd348fbcfc841d73d31d" />
<rom name="dump (Track 13).bin" size="46727184" crc="2d0629c3" md5="e43bfe0a1cdf8a6a7ae573b85075ddde" sha1="484c459d69a440771822637d121822314e3d2d51" />
<rom name="dump (Track 14).bin" size="38170608" crc="6829e170" md5="c05476890b1094af4a2d25ff03dc66ef" sha1="d7cecfc0c8530b515151e13ef253487e40b3402b" />
<rom name="dump (Track 15).bin" size="44417520" crc="fdec0f80" md5="6fe0197e22137866ecdb6ebf37bc44a6" sha1="9fd12d007836cf637ef2f30c7bff84030d16b549" />
<rom name="dump (Track 16).bin" size="50111712" crc="5711aeb1" md5="7c099ae1e5285b7457f89c57c660837e" sha1="bd1042659275478b9a73689fa9d03ef5ccfa11a3" />

*** INFO


*** SKELETON


*** END

dic: https://www.dropbox.com/scl/fi/613a3o38 … qy8z12f0gj
redumper: https://www.dropbox.com/scl/fi/f61xp9hu … 4gqvro05fo
Both hashes match.

db: http://redump.org/disc/21646/

Common Disc Info:
    Title: Kamaitachi no Yoru 2: Kangoku-jima no Warabeuta
    Foreign Title (Non-latin): かまいたちの夜2 監獄島のわらべ唄
    Disc Number / Letter: -
    Disc Title: -
    System: Sony PlayStation 2
    Media Type: DVD-ROM-5
    Category: Games
    Fully Matching ID: 21646
    Region: Japan
    Languages: 
    Disc Serial: SLPS 25135

    Ringcode Information:

Data Side Mastering Code (laser branded/etched): SLPS-25135<tab>1
Data Side Mould SID Code: 45V6

    Barcode: 4 932345 028219
    EXE/Build Date: 2002-06-16
    Comments:

[T:ISN] SLPS-25135
[T:VOL] KAMAITACHINOYORU2
EXE filename: SLPS_251.35
EXE timestamp: 2002-06-16T05:34:44+09:00

    Contents: -

Version and Editions:
    Version: 1.10
    Edition/Release: Original

Extras:
    Primary Volume Descriptor (PVD):

0320 : 20 20 20 20 20 20 20 20  20 20 20 20 20 32 30 30                200
0330 : 32 30 36 31 36 31 34 35  30 34 33 30 30 24 30 30   2061614504300$00
0340 : 30 30 30 30 30 30 30 30  30 30 30 30 30 30 00 30   00000000000000.0
0350 : 30 30 30 30 30 30 30 30  30 30 30 30 30 30 30 00   000000000000000.
0360 : 30 30 30 30 30 30 30 30  30 30 30 30 30 30 30 30   0000000000000000
0370 : 00 01 00 00 00 00 00 00  00 00 00 00 00 00 00 00   ................

Size & Checksum:
    Size: 2989293568
    CRC32: 2add2238
    MD5: 8f9eb6b4f9b35d27d42ded448a350c63
    SHA1: e617dec57acf2013127082cb9984a0d12b72c4db

Dumping Info:
    Frontend Version: 3.1.5-771483ac146302cf6634037db23cd336b0d1c97a
    Dumping Program: Redumper v2024.05.06 build_325
    Date: 2024-05-13 12:50:33
    Manufacturer: ASUS
    Model: BW-16D1HT
    Firmware: 3.02 (W000800KLGK8LF2132)
    Reported Disc Type: DVD-ROM

dic: https://www.dropbox.com/scl/fi/hyg0j1op … 88v9ns0wqf
redumper: https://www.dropbox.com/scl/fi/71eitfl8 … y17tx6f05z
Both hashes match.

db: http://redump.org/disc/42941/

Common Disc Info:
    Title: Kensetsu Juuki Kenka Battle: Buchigire Kongou!!
    Foreign Title (Non-latin): 建設重機喧嘩バトル ぶちギレ金剛!!
    Disc Number / Letter: -
    Disc Title: -
    System: Sony PlayStation 2
    Media Type: DVD-ROM-5
    Category: Games
    Fully Matching ID: 42941
    Region: Japan
    Languages: 
    Disc Serial: SLPS 25004

    Ringcode Information:

Data Side Mastering Code (laser branded/etched): SLPS-25004<tab>1

    Barcode: 4 988640 100518
    EXE/Build Date: 2000-05-07
    Comments:

[T:ISN] SLPS-25004
[T:VOL] SLPS_25004
EXE filename: SLPS_250.04
EXE timestamp: 2000-05-07T19:00:20+09:00

    Contents: -

Version and Editions:
    Version: 1.30
    Edition/Release: Original

Extras:
    Primary Volume Descriptor (PVD):

0320 : 20 20 20 20 20 20 20 20  20 20 20 20 20 32 30 30                200
0330 : 30 30 35 30 37 31 39 31  31 32 36 30 30 24 30 30   0050719112600$00
0340 : 30 30 30 30 30 30 30 30  30 30 30 30 30 30 00 30   00000000000000.0
0350 : 30 30 30 30 30 30 30 30  30 30 30 30 30 30 30 00   000000000000000.
0360 : 30 30 30 30 30 30 30 30  30 30 30 30 30 30 30 30   0000000000000000
0370 : 00 01 00 00 00 00 00 00  00 00 00 00 00 00 00 00   ................

Size & Checksum:
    Size: 2784198656
    CRC32: 0559d45a
    MD5: 646ec08ef7511bd808ad02f858e5ae38
    SHA1: abba3d1ae572a89015222a8340e6a70e9e12f005

Dumping Info:
    Frontend Version: 3.1.5-771483ac146302cf6634037db23cd336b0d1c97a
    Dumping Program: Redumper v2024.05.06 build_325
    Date: 2024-05-13 02:20:43
    Manufacturer: PLEXTOR
    Model: DVDR PX-760A
    Firmware: 1.07 (08/18/07 15:10)
    Reported Disc Type: DVD-ROM

The hashes by build 325 match the database. Thanks!

8

(0 replies, posted in Verifications)

dic: https://www.dropbox.com/scl/fi/xyr2m3wh … lmksfp9cup
redumper: https://www.dropbox.com/scl/fi/kwwz89tz … rs0jsmjjj1
Both hashes match.

db: http://redump.org/disc/38710/

Common Disc Info:
    Title: GI Jockey 2
    Foreign Title (Non-latin): ジーワン ジョッキー 2
    Disc Number / Letter: -
    Disc Title: -
    System: Sony PlayStation 2
    Media Type: CD-ROM
    Category: Games
    Fully Matching ID: 38710
    Region: Japan
    Languages: 
    Disc Serial: SLPM 62020

    Ringcode Information:

Data Side Mastering Code (laser branded/etched): SLPM-62020<tab>1
Data Side Mastering SID Code: IFPI L275
Data Side Mould SID Code: IFPI 457C

    Barcode: 4 988615 015274
    EXE/Build Date: 2000-10-04
    Error Count: 0
    Comments:

[T:ISN] SLPM-62020
Errors count: edccchk:0, dic:0, redumper:0
EXE filename: SLPM_620.20
EXE timestamp: 2000-10-04T02:26:16+09:00

    Contents: -

Version and Editions:
    Version: 1.20
    Edition/Release: Original

Extras:
    Primary Volume Descriptor (PVD):

0320 : 20 20 20 20 20 20 20 20  20 20 20 20 20 32 30 30                200
0330 : 30 31 30 30 34 30 34 34  30 35 39 30 30 24 30 30   0100404405900$00
0340 : 30 30 30 30 30 30 30 30  30 30 30 30 30 30 00 30   00000000000000.0
0350 : 30 30 30 30 30 30 30 30  30 30 30 30 30 30 30 00   000000000000000.
0360 : 30 30 30 30 30 30 30 30  30 30 30 30 30 30 30 30   0000000000000000
0370 : 00 01 00 00 00 00 00 00  00 00 00 00 00 00 00 00   ................

Tracks and Write Offsets:
    DAT:

<rom name="dump.bin" size="720843312" crc="1c931a63" md5="fe34c232678487546a39d8ac08e311b7" sha1="72d1da628e3b1a6cb2194cad18a9b1630cc3b788" />

    Cuesheet:

FILE "dump.bin" BINARY
  TRACK 01 MODE2/2352
    INDEX 01 00:00:00

    Write Offset: +1

Dumping Info:
    Frontend Version: 3.1.5-771483ac146302cf6634037db23cd336b0d1c97a
    Dumping Program: Redumper v2024.05.06 build_325
    Date: 2024-05-12 12:35:17
    Manufacturer: PLEXTOR
    Model: DVDR PX-760A
    Firmware: 1.07 (08/18/07 15:10)
    Reported Disc Type: CD-ROM
    C2 Error Count: 0

9

(0 replies, posted in Verifications)

dic: https://www.dropbox.com/scl/fi/x3ojnh5x … xglord51a8
redumper: https://www.dropbox.com/scl/fi/oedyxnsv … t014pwhd3c
Both hashes match.

db: http://redump.org/disc/15933/

Common Disc Info:
    Title: Bikkuri Mouse
    Foreign Title (Non-latin): びっくりマウス
    Disc Number / Letter: -
    Disc Title: -
    System: Sony PlayStation 2
    Media Type: CD-ROM
    Category: Games
    Fully Matching ID: 15933
    Region: Japan
    Languages: 
    Disc Serial: SCPS 11004

    Ringcode Information:

Data Side Mastering Code (laser branded/etched): SCPS-11004<tab>1
Data Side Mastering SID Code: IFPI L274
Data Side Mould SID Code: IFPI 4570

    Barcode: 4 948872 110044
    EXE/Build Date: 2000-06-30
    Error Count: 0
    Comments:

[T:ISN] SCPS-11004
[T:VOL] BKMS
Errors count: edccchk:0, dic:0, redumper:0
EXE filename: SCPS_110.04
EXE timestamp: 2000-06-30T01:51:50+09:00

    Contents: -

Version and Editions:
    Version: 1.00
    Edition/Release: Original

Extras:
    Primary Volume Descriptor (PVD):

0320 : 20 20 20 20 20 20 20 20  20 20 20 20 20 32 30 30                200
0330 : 30 30 36 33 30 30 32 30  30 30 30 30 30 24 30 30   0063002000000$00
0340 : 30 30 30 30 30 30 30 30  30 30 30 30 30 30 00 30   00000000000000.0
0350 : 30 30 30 30 30 30 30 30  30 30 30 30 30 30 30 00   000000000000000.
0360 : 30 30 30 30 30 30 30 30  30 30 30 30 30 30 30 30   0000000000000000
0370 : 00 01 00 00 00 00 00 00  00 00 00 00 00 00 00 00   ................

Tracks and Write Offsets:
    DAT:

<rom name="dump.bin" size="574367808" crc="5349188b" md5="71e0360c832e7b7d30c2d4c7d444ec51" sha1="096cfbfabf67833b06ed2ba6edd6f7b4512f7ab8" />

    Cuesheet:

FILE "dump.bin" BINARY
  TRACK 01 MODE2/2352
    INDEX 01 00:00:00

    Write Offset: +1

Dumping Info:
    Frontend Version: 3.1.5-771483ac146302cf6634037db23cd336b0d1c97a
    Dumping Program: Redumper v2024.05.06 build_325
    Date: 2024-05-12 09:57:22
    Manufacturer: PLEXTOR
    Model: DVDR PX-760A
    Firmware: 1.07 (08/18/07 15:10)
    Reported Disc Type: CD-ROM
    C2 Error Count: 0

10

(0 replies, posted in Verifications)

Disc 1

dic: https://www.dropbox.com/scl/fi/ggst7g82 … 0pnceyu50y
redumper: https://www.dropbox.com/scl/fi/cetgox7i … mlv24q32ng
Both hashes match.

db: http://redump.org/disc/64156/

Common Disc Info:
    Title: The Hive
    Foreign Title (Non-latin): ザ・ハイヴウォーズ
    Disc Number / Letter: 1
    Disc Title: -
    System: IBM PC compatible
    Media Type: CD-ROM
    Category: Games
    Region: Japan
    Languages: 
    Disc Serial: JSGW60091

    Ringcode Information:

Data Side Mastering Code (laser branded/etched): JSGW-60091-1<tab>1
Data Side Mastering SID Code: IFPI L275
Data Side Mould SID Code: IFPI 45F7

    Barcode: T4988 707 30091 2
    Error Count: 0
    Comments:

[T:VOL] THE_HIVE_1
Errors count: edccchk:0, dic:0, redumper:0
Alternative title: The Hive Wars

    Contents: 

Version and Editions:
    Version: 1.0
    Edition/Release: Original

Extras:
    Primary Volume Descriptor (PVD):

0320 : 20 20 20 20 20 20 20 20  20 20 20 20 20 31 39 39                199
0330 : 36 30 32 32 31 31 32 35  37 34 39 30 30 00 31 39   6022112574900.19
0340 : 39 36 30 32 32 31 31 32  35 37 34 39 30 30 00 30   96022112574900.0
0350 : 30 30 30 30 30 30 30 30  30 30 30 30 30 30 30 00   000000000000000.
0360 : 30 30 30 30 30 30 30 30  30 30 30 30 30 30 30 30   0000000000000000
0370 : 00 01 00 00 00 00 00 00  00 00 00 00 00 00 00 00   ................

Copy Protection:
    Copy Protection: None found [OMIT FROM SUBMISSION]
    SubIntention Data (SecuROM/LibCrypt): 

Tracks and Write Offsets:
    DAT:

<rom name="dump (Track 1).bin" size="443968224" crc="98d9c694" md5="132f642b825e91539807c39023189926" sha1="43b9ea676aae8d9716ff35c5b4d83f778c470df2" />
<rom name="dump (Track 2).bin" size="265891248" crc="b4d1e2a5" md5="438ebd1674fa07dbb0b101bc594b0de5" sha1="cb69ae73b38d3fe72e7634482490b0a80d0e9ef3" />

    Cuesheet:

FILE "dump (Track 1).bin" BINARY
  TRACK 01 MODE1/2352
    INDEX 01 00:00:00
FILE "dump (Track 2).bin" BINARY
  TRACK 02 MODE1/2352
    INDEX 00 00:00:00
    INDEX 01 00:02:00

    Write Offset: +2

Dumping Info:
    Frontend Version: 3.1.5-771483ac146302cf6634037db23cd336b0d1c97a
    Dumping Program: Redumper v2024.05.06 build_325
    Date: 2024-05-08 11:19:45
    Manufacturer: PLEXTOR
    Model: DVDR PX-760A
    Firmware: 1.07 (08/18/07 15:10)
    Reported Disc Type: CD-ROM
    C2 Error Count: 0
Disc 2

dic: https://www.dropbox.com/scl/fi/2pouz4nh … 187bzu8p38
redumper: https://www.dropbox.com/scl/fi/zs9kgzgv … nif226sqa3
Both hashes match.

db: http://redump.org/disc/64157/

Common Disc Info:
    Title: The Hive
    Foreign Title (Non-latin): ザ・ハイヴウォーズ
    Disc Number / Letter: 2
    Disc Title: -
    System: IBM PC compatible
    Media Type: CD-ROM
    Category: Games
    Region: Japan
    Languages: 
    Disc Serial: JSGW60091

    Ringcode Information:

Data Side Mastering Code (laser branded/etched): JSGW-60091-2<tab>1
Data Side Mastering SID Code: IFPI L274
Data Side Mould SID Code: IFPI 45F2

    Barcode: T4988 707 30091 2
    Error Count: 0
    Comments:

[T:VOL] THE_HIVE_2
Errors count: edccchk:0, dic:0, redumper:0
Alternative title: The Hive Wars

    Contents:

Playable Demos:
Air Havoc Controller
Videos:
Magzone
Extras:
Wallpapers

Version and Editions:
    Version: 1.0
    Edition/Release: Original

Extras:
    Primary Volume Descriptor (PVD):

0320 : 20 20 20 20 20 20 20 20  20 20 20 20 20 31 39 39                199
0330 : 36 30 32 32 31 31 30 35  30 33 39 30 30 00 31 39   6022110503900.19
0340 : 39 36 30 32 32 31 31 30  35 30 33 39 30 30 00 30   96022110503900.0
0350 : 30 30 30 30 30 30 30 30  30 30 30 30 30 30 30 00   000000000000000.
0360 : 30 30 30 30 30 30 30 30  30 30 30 30 30 30 30 30   0000000000000000
0370 : 00 01 00 00 00 00 00 00  00 00 00 00 00 00 00 00   ................

Copy Protection:
    Copy Protection: None found [OMIT FROM SUBMISSION]
    SubIntention Data (SecuROM/LibCrypt): 

Tracks and Write Offsets:
    DAT:

<rom name="dump (Track 1).bin" size="477336048" crc="a5a0b6fe" md5="0303a1218e76cd976b9bd1889f6038bb" sha1="1e1779596683ece59df61f4011ddc223c753df08" />
<rom name="dump (Track 2).bin" size="202342560" crc="c72b1e99" md5="fd6a938fa766a48047ecc737e6fa51b4" sha1="42b7ce53587011d38921e9500593725869d182e7" />

    Cuesheet:

FILE "dump (Track 1).bin" BINARY
  TRACK 01 MODE1/2352
    INDEX 01 00:00:00
FILE "dump (Track 2).bin" BINARY
  TRACK 02 MODE1/2352
    INDEX 00 00:00:00
    INDEX 01 00:02:00

    Write Offset: +2

Dumping Info:
    Frontend Version: 3.1.5-771483ac146302cf6634037db23cd336b0d1c97a
    Dumping Program: Redumper v2024.05.06 build_325
    Date: 2024-05-08 11:38:05
    Manufacturer: PLEXTOR
    Model: DVDR PX-760A
    Firmware: 1.07 (08/18/07 15:10)
    Reported Disc Type: CD-ROM
    C2 Error Count: 0
Dump by dic 20240401 (without /sf)

Disc 1
All hashes, error counts, and write offset match the database.
https://www.dropbox.com/scl/fi/zx3dqxay … jaze36exh0

Error Count: 428
Write Offset: +3250

Disc 2
All hashes and error counts match the database, but not write offset.
https://www.dropbox.com/scl/fi/gld14lpz … g3nyqtjzq1

Error Count: 54072
Write Offset: +2400
Dump by redumper 314 (same result as 204)

Disc 1
All hashes match the database, but error counts and write offset do not.
https://www.dropbox.com/scl/fi/tmpbei7d … id3oftghfv

Error Count: 0
Write Offset: +380

Disc 2
All hashes match the database, but error counts and write offset do not.
https://www.dropbox.com/scl/fi/x42tpn74 … spo8q5m0jl

Error Count: 0
Write Offset: +1588

new edition

dic: https://www.dropbox.com/scl/fi/rarsjxnc … u9pykkijk1
redumper: https://www.dropbox.com/scl/fi/79l6hu0w … 5bnllqkz9w
Both hashes match.

db: http://redump.org/disc/80484/

Common Disc Info:
    Title: Dark Souls III: Original Soundtrack
    Foreign Title (Non-latin): 
    Disc Number / Letter: -
    Disc Title: -
    System: Audio CD
    Media Type: CD-ROM
    Category: Bonus Discs/Audio
    Region: Japan
    Languages: -
    Disc Serial: FFSA-ST008

    Ringcode Information:

Data Side Mastering Code (laser branded/etched): FFSA-ST008<tab>1T
Data Side Mastering SID Code: IFPI L236
Data Side Mould SID Code: IFPI 4011

    Barcode: 4 949776 351045
    Comments:

<b>Universal Hash (SHA-1)</b>: 3a16a7b362f2037dcfb9ec23bd584aff94f7edf8
<b>Ring non-zero data start</b>: +22354
Bundled with Dark Souls III (Suuryou Gentei Tokuten-tsuki-ban) (Japan) (PC).

    Contents: refer to https://vgmdb.net/album/54888

Version and Editions:
    Version: 
    Edition/Release: PC Game Bundle

Extras:
    Primary Volume Descriptor (PVD): Disc has no PVD

Tracks and Write Offsets:
    DAT:

<rom name="dump (Track 01).bin" size="21843024" crc="9bef8597" md5="b53b30a140a86da6225ee48e7bb35da2" sha1="c78e020d7ec0533f3136d1b25d35d675dd92f1a0" />
<rom name="dump (Track 02).bin" size="29289456" crc="3628fa95" md5="9409587a72d54ac7af94a45660013fde" sha1="d3c51c5d1a96b8fe271766b87c0e29209a5e5822" />
<rom name="dump (Track 03).bin" size="33619488" crc="6beb9715" md5="4ae39305ec2539ab1f50d1f7a162be91" sha1="41c7fb4956dac2d2df61eabebda4d0f8015c0c42" />
<rom name="dump (Track 04).bin" size="32920944" crc="65b3bf36" md5="0310e08198a1bc3ca28324b15ad12a97" sha1="639570b0a2714b590a2f52b9d5cd1190dc6b79ce" />
<rom name="dump (Track 05).bin" size="24552528" crc="3dbdc4e7" md5="dcc739c4c5cb6f2f1f60065a22f28c76" sha1="0a6b8f01d0edfa41fa9534589ba0b26ad99da85f" />
<rom name="dump (Track 06).bin" size="33727680" crc="59cd7dc4" md5="5fbf4fb7a1f9ebd05d16d2b20134eab3" sha1="1cadd79869df1d0d8b65ff0a91d04e6bc4b4ef0a" />
<rom name="dump (Track 07).bin" size="20777568" crc="c77b5bbc" md5="b99c54f4304909a2eeee4a701bc35c38" sha1="ffc2faf1494ad611d56bf5b1588ce1ea90a75b46" />
<rom name="dump (Track 08).bin" size="23762256" crc="9e22be88" md5="c2a72efaf54b8f0e8c3dff1e94f99deb" sha1="ccf1e85d57b9949aef3af9ddd5a5f3b6d7a1e639" />
<rom name="dump (Track 09).bin" size="25415712" crc="8d6011fb" md5="47b96bcb3a215ab8f6ebfd10558b6f48" sha1="79b1526e76ce4bfa972badb818b346069d07ec34" />
<rom name="dump (Track 10).bin" size="32034240" crc="40264de9" md5="86681182829bf06d558b4d234ee3c05f" sha1="d89d851000d229a9b33a9f93f706dfe12ca928a7" />
<rom name="dump (Track 11).bin" size="28021728" crc="5c5b1ad0" md5="b6b8cd5d0207537d76f231090c7bf5b1" sha1="8c677d34896f4acbaf8a947ebba51c45f10e295e" />
<rom name="dump (Track 12).bin" size="32133024" crc="7823848f" md5="50ea6e62ee408db3a26d0eb18318268d" sha1="009289afb09bd649a90441f22120c54cc562ddf1" />
<rom name="dump (Track 13).bin" size="36307824" crc="b5c3621b" md5="47c39f9ba46596831b117bc0762c081d" sha1="d1850325140a4d8e6ac14330bd951f6c4459411b" />
<rom name="dump (Track 14).bin" size="21565488" crc="32518c5a" md5="ba66a08ef9d45cb57bfed63caac8a272" sha1="0f6223ce2f50599555a09ac4ad47f04a5acf9e83" />
<rom name="dump (Track 15).bin" size="32104800" crc="22672c32" md5="d7c6d3e153a322dcd73a7beb9a54f6f3" sha1="f74359f8f7e7c82caa15a923b2c4bb90f1e9f184" />
<rom name="dump (Track 16).bin" size="21803040" crc="2e131181" md5="4239743c11fb429d7c8538c17181fa9b" sha1="3de9d0ab3a5009474901d341a22359feedf62862" />
<rom name="dump (Track 17).bin" size="24693648" crc="1abec1b4" md5="8124e517efff735c16f5b239a68a32c6" sha1="02e36daebbb023fc5d9ba9a0f980dbd7ad215003" />
<rom name="dump (Track 18).bin" size="25937856" crc="a59ff116" md5="0f608a703d0b8e64d763df746a723072" sha1="ca8ef4bfa59a657af040e0c1a9afb29481a51ea1" />
<rom name="dump (Track 19).bin" size="37262736" crc="653630f6" md5="45ea9582cc8212c9f947a6979446824d" sha1="d3d195abd7325a61c94bbfcb9ed390220e9789d9" />
<rom name="dump (Track 20).bin" size="32361168" crc="8297ff88" md5="4aa0776043d52f9cad5a37ba0ce8b76b" sha1="abe337c563589c2283d2500c21e0b264c370ea50" />
<rom name="dump (Track 21).bin" size="26158944" crc="995176de" md5="34a9ee0d973a02ef74485d1b5038ff70" sha1="9a74488cb5a79c634176b19e44c7e92d1645be5c" />
<rom name="dump (Track 22).bin" size="62168064" crc="44807dc5" md5="9c1614e2ac48e2fa0fe58546619a2c90" sha1="8417f5912b059f2b5e4d86b9ea105f96146ff295" />
<rom name="dump (Track 23).bin" size="29846880" crc="f3bdbbe1" md5="e895da3d7077fe83494f41cb7a208b70" sha1="4ff5ccdb8c906ec2ed752a852b81c64e1308e079" />
<rom name="dump (Track 24).bin" size="71656032" crc="c18e40f4" md5="fdf537287f3d45d288bc02690eb1da97" sha1="a64c9d7b069b94c527d75208c25540235efa6697" />
<rom name="dump (Track 25).bin" size="25044096" crc="8ecf0006" md5="4aa0aa2e7e5f58f375b5d656d69f25d5" sha1="e3611af0f84d95c1b9d7c7052c37ed1824e6cecb" />

    Cuesheet:

FILE "dump (Track 01).bin" BINARY
  TRACK 01 AUDIO
    INDEX 01 00:00:00
FILE "dump (Track 02).bin" BINARY
  TRACK 02 AUDIO
    INDEX 00 00:00:00
    INDEX 01 00:02:07
FILE "dump (Track 03).bin" BINARY
  TRACK 03 AUDIO
    INDEX 00 00:00:00
    INDEX 01 00:02:44
FILE "dump (Track 04).bin" BINARY
  TRACK 04 AUDIO
    INDEX 00 00:00:00
    INDEX 01 00:02:44
FILE "dump (Track 05).bin" BINARY
  TRACK 05 AUDIO
    INDEX 00 00:00:00
    INDEX 01 00:03:06
FILE "dump (Track 06).bin" BINARY
  TRACK 06 AUDIO
    INDEX 00 00:00:00
    INDEX 01 00:02:44
FILE "dump (Track 07).bin" BINARY
  TRACK 07 AUDIO
    INDEX 00 00:00:00
    INDEX 01 00:02:44
FILE "dump (Track 08).bin" BINARY
  TRACK 08 AUDIO
    INDEX 00 00:00:00
    INDEX 01 00:02:44
FILE "dump (Track 09).bin" BINARY
  TRACK 09 AUDIO
    INDEX 00 00:00:00
    INDEX 01 00:03:06
FILE "dump (Track 10).bin" BINARY
  TRACK 10 AUDIO
    INDEX 00 00:00:00
    INDEX 01 00:02:44
FILE "dump (Track 11).bin" BINARY
  TRACK 11 AUDIO
    INDEX 00 00:00:00
    INDEX 01 00:03:07
FILE "dump (Track 12).bin" BINARY
  TRACK 12 AUDIO
    INDEX 00 00:00:00
    INDEX 01 00:03:44
FILE "dump (Track 13).bin" BINARY
  TRACK 13 AUDIO
    INDEX 00 00:00:00
    INDEX 01 00:02:44
FILE "dump (Track 14).bin" BINARY
  TRACK 14 AUDIO
    INDEX 00 00:00:00
    INDEX 01 00:03:07
FILE "dump (Track 15).bin" BINARY
  TRACK 15 AUDIO
    INDEX 00 00:00:00
    INDEX 01 00:03:06
FILE "dump (Track 16).bin" BINARY
  TRACK 16 AUDIO
    INDEX 00 00:00:00
    INDEX 01 00:03:07
FILE "dump (Track 17).bin" BINARY
  TRACK 17 AUDIO
    INDEX 00 00:00:00
    INDEX 01 00:02:44
FILE "dump (Track 18).bin" BINARY
  TRACK 18 AUDIO
    INDEX 00 00:00:00
    INDEX 01 00:03:06
FILE "dump (Track 19).bin" BINARY
  TRACK 19 AUDIO
    INDEX 00 00:00:00
    INDEX 01 00:02:44
FILE "dump (Track 20).bin" BINARY
  TRACK 20 AUDIO
    INDEX 00 00:00:00
    INDEX 01 00:03:07
FILE "dump (Track 21).bin" BINARY
  TRACK 21 AUDIO
    INDEX 00 00:00:00
    INDEX 01 00:02:44
FILE "dump (Track 22).bin" BINARY
  TRACK 22 AUDIO
    INDEX 00 00:00:00
    INDEX 01 00:04:07
FILE "dump (Track 23).bin" BINARY
  TRACK 23 AUDIO
    INDEX 00 00:00:00
    INDEX 01 00:03:44
FILE "dump (Track 24).bin" BINARY
  TRACK 24 AUDIO
    INDEX 00 00:00:00
    INDEX 01 00:02:44
FILE "dump (Track 25).bin" BINARY
  TRACK 25 AUDIO
    INDEX 00 00:00:00
    INDEX 01 00:03:07

    Write Offset: 0

Dumping Info:
    Frontend Version: 3.1.5-771483ac146302cf6634037db23cd336b0d1c97a
    Dumping Program: Redumper v2024.02.06 build_314
    Date: 2024-04-18 12:37:46
    Manufacturer: PLEXTOR
    Model: DVDR PX-760A
    Firmware: 1.07 (08/18/07 15:10)
    Reported Disc Type: CD-ROM

new edition

This is in a jewel case.
The previous dump is in a keep case and is a re-release.

dic: https://www.dropbox.com/scl/fi/0jvqznk6 … nuhjifd02w
redumper: https://www.dropbox.com/scl/fi/hgck85cx … n5tr6cokwk
Both hashes match.

db: http://redump.org/disc/100873/

Common Disc Info:
    Title: Need for Speed: High Stakes
    Foreign Title (Non-latin): ニード・フォー・スピード ハイ・ステークス
    Disc Number / Letter: -
    Disc Title: -
    System: IBM PC compatible
    Media Type: CD-ROM
    Category: Games
    Region: Japan
    Languages: 
    Disc Serial: EMWD-717

    Ringcode Information:

Data Side Mastering Code (laser branded/etched): EMWD-717 MT<tab>C03
Data Side Mastering SID Code: IFPI L263
Data Side Mould SID Code: IFPI 4473

    Barcode: 4 938833 011268
    Error Count: 0
    Comments:

[T:VOL] NFSHS
Errors count: edccchk:0, dic:0, redumper:0

    Contents: 

Version and Editions:
    Version: 
    Edition/Release: EA Best Selections

Extras:
    Primary Volume Descriptor (PVD):

0320 : 20 20 20 20 20 20 20 20  20 20 20 20 20 32 30 30                200
0330 : 30 31 30 30 32 31 37 33  34 30 35 30 30 00 32 30   0100217340500.20
0340 : 30 30 31 30 30 32 31 37  33 34 30 35 30 30 00 30   00100217340500.0
0350 : 30 30 30 30 30 30 30 30  30 30 30 30 30 30 30 00   000000000000000.
0360 : 30 30 30 30 30 30 30 30  30 30 30 30 30 30 30 30   0000000000000000
0370 : 00 01 00 00 00 00 00 00  00 00 00 00 00 00 00 00   ................

Copy Protection:
    Copy Protection: None found [OMIT FROM SUBMISSION]
    SubIntention Data (SecuROM/LibCrypt): 

Tracks and Write Offsets:
    DAT:

<rom name="dump.bin" size="610757952" crc="368ff3f5" md5="bfd7991fc566236ebc04a3f50278a305" sha1="1a4c72c20a1b0b480f47f00c94615d4cc63ea24b" />

    Cuesheet:

FILE "dump.bin" BINARY
  TRACK 01 MODE1/2352
    INDEX 01 00:00:00

    Write Offset: +13

Dumping Info:
    Frontend Version: 3.1.4-d38b465b08447154edf7006d0da923fa027b9b4f
    Dumping Program: Redumper v2024.02.06 build_314
    Date: 2024-04-02 13:06:17
    Manufacturer: PLEXTOR
    Model: DVDR PX-760A
    Firmware: 1.07 (08/18/07 15:10)
    Reported Disc Type: CD-ROM
    C2 Error Count: 0

14

(0 replies, posted in Verifications)

new edition
fixes: Title

dic: https://www.dropbox.com/scl/fi/y2rlofkw … ln3w5b99kg
redumper: https://www.dropbox.com/scl/fi/xut09hjv … obkw9qapl2
Both hashes match.

db: http://redump.org/disc/27583/

Common Disc Info:
    Title: Type da Puyo Puyo
    Foreign Title (Non-latin): たいぷdaぷよぷよ
    Disc Number / Letter: -
    Disc Title: -
    System: IBM PC compatible
    Media Type: CD-ROM
    Category: Games
    Region: Japan
    Languages: 
    Disc Serial: -

    Ringcode Information:

Data Side Mastering Code (laser branded/etched): MK-H029 MT<tab>B01
Data Side Mastering SID Code: IFPI L262
Data Side Mould SID Code: IFPI 4479

    Barcode: T4516647003831
    Error Count: 0
    Comments:

[T:VOL] TYPEDAPUYO
Errors count: edccchk:0, dic:0, redumper:0
Ultra Series Vol. 89
Serial: MK-H029 (Obi, Back Cover)

    Contents: -

Version and Editions:
    Version: 
    Edition/Release: Ultra 2000/Ultra Series

Extras:
    Primary Volume Descriptor (PVD):

0320 : 20 20 20 20 20 20 20 20  20 20 20 20 20 32 30 30                200
0330 : 31 30 34 32 33 31 37 31  31 30 37 30 30 00 32 30   1042317110700.20
0340 : 30 31 30 34 32 33 31 37  31 33 31 39 30 30 00 00   01042317131900..
0350 : 00 00 00 00 00 00 00 00  00 00 00 00 00 00 00 00   ................
0360 : 00 00 00 00 00 00 00 00  00 00 00 00 00 00 00 00   ................
0370 : 00 01 00 00 00 00 00 00  00 00 00 00 00 00 00 00   ................

Copy Protection:
    Copy Protection: None found [OMIT FROM SUBMISSION]
    SubIntention Data (SecuROM/LibCrypt): 

Tracks and Write Offsets:
    DAT:

<rom name="dump.bin" size="130133808" crc="3355e72e" md5="89314af9047d0cf732eac025b9edc085" sha1="0781344f586500659f4f756978e4bc825297a83e" />

    Cuesheet:

FILE "dump.bin" BINARY
  TRACK 01 MODE1/2352
    INDEX 01 00:00:00

    Write Offset: +13

Dumping Info:
    Frontend Version: 3.1.4-d38b465b08447154edf7006d0da923fa027b9b4f
    Dumping Program: Redumper v2024.02.06 build_314
    Date: 2024-03-29 13:00:40
    Manufacturer: PLEXTOR
    Model: DVDR PX-760A
    Firmware: 1.07 (08/18/07 15:10)
    Reported Disc Type: CD-ROM
    C2 Error Count: 0

additions: Version, Comments (Product Number)
fixes: Disc Serial

dic: https://www.dropbox.com/scl/fi/vpyf7brj … 2q4yq3n68n
redumper: https://www.dropbox.com/scl/fi/o2hp691b … hv7hnoe7yn
Both hashes match.

db: http://redump.org/disc/34750/

Common Disc Info:
    Title: Age of Empires II: The Age of Kings
    Foreign Title (Non-latin): エイジ オブ エンパイア II エイジ オブ キング
    Disc Number / Letter: -
    Disc Title: -
    System: IBM PC compatible
    Media Type: CD-ROM
    Category: Games
    Region: Japan
    Languages: 
    Disc Serial: 0999 Part No.X05-07802

    Ringcode Information:

Label Side Mastering Code (laser branded/etched): R0944E1 X05-07801 F1
Label Side Mastering SID Code: IFPI L826
Data Side Mould SID Code: IFPI 2J07

    Barcode: 4 988648 093386
    Error Count: 822
    Comments:

[T:VOL] AOE2
Errors count: edccchk:822, dic:822, redumper:822
Product Number: 559-00128

    Contents: -

Version and Editions:
    Version: 2.0
    Edition/Release: Original

Extras:
    Primary Volume Descriptor (PVD):

0320 : 20 20 20 20 20 20 20 20  20 20 20 20 20 31 39 39                199
0330 : 39 30 39 32 37 31 35 32  35 32 36 00 00 04 31 39   90927152526...19
0340 : 39 39 30 39 32 37 31 35  32 35 32 36 00 00 04 32   990927152526...2
0350 : 39 39 39 30 39 32 37 31  35 32 35 32 36 00 00 04   9990927152526...
0360 : 31 39 39 39 30 39 32 37  31 35 32 35 32 36 00 00   19990927152526..
0370 : 04 01 00 00 00 00 00 00  00 00 00 00 00 00 00 00   ................

Copy Protection:
    Copy Protection: SafeDisc 1, SafeDisc 1.30.010

Tracks and Write Offsets:
    DAT:

<rom name="dump (Track 1).bin" size="383296032" crc="c6a1e961" md5="f95b2493409b202b31b20848f59ca7b7" sha1="8931ac8090ab5886a9afdc5ca4035d3e028beba7" />
<rom name="dump (Track 2).bin" size="319989600" crc="66cb3dfc" md5="075795d877516c3d3aedbf7126cd4245" sha1="bf574b302b6789e1d746b9f93715e9e5d1796788" />

    Cuesheet:

FILE "dump (Track 1).bin" BINARY
  TRACK 01 MODE1/2352
    INDEX 01 00:00:00
FILE "dump (Track 2).bin" BINARY
  TRACK 02 AUDIO
    INDEX 00 00:00:00
    INDEX 01 00:02:00

    Write Offset: -12

Dumping Info:
    Frontend Version: 3.1.4-ccf2166b725a68810649721d7ae4f5afb3be1b62
    Dumping Program: DiscImageCreator 20240101
    Date: 2024-03-23 12:50:50
    Manufacturer: PLEXTOR
    Model: DVDR    PX-760A
    Firmware: 1.07
    Reported Disc Type: CD-DA or CD-ROM Disc

additions: Comments (Series Volume)

dic: https://www.dropbox.com/scl/fi/o481dbum … ldg9fw8kv3
redumper: https://www.dropbox.com/scl/fi/iaqozetu … 8o6cu9sv8s
Both hashes match.

db: http://redump.org/disc/80150/

Common Disc Info:
    Title: Magical Drop III: Toretate Zoukan-gou
    Foreign Title (Non-latin): マジカルドロップIII とれたて増刊号!
    Disc Number / Letter: -
    Disc Title: -
    System: IBM PC compatible
    Media Type: CD-ROM
    Category: Games
    Region: Japan
    Languages: 
    Disc Serial: MKW-151

    Ringcode Information:

Label Side Mastering Code (laser branded/etched): MKW-151<tab>OP0Z2A
Label Side Mastering SID Code: IFPI L303
Data Side Mould SID Code: IFPI 4833

    Barcode: T4516647002872
    Error Count: 0
    Comments:

[T:VOL] MAGICAL_DROP3
Errors count: edccchk:0, dic:0, redumper:0
Ultra 2000 Series Vol. 45

    Contents: -

Version and Editions:
    Version: 
    Edition/Release: Ultra 2000/Ultra Series

Extras:
    Primary Volume Descriptor (PVD):

0320 : 20 20 20 20 20 20 20 20  20 20 20 20 20 31 39 39                199
0330 : 38 31 32 32 32 31 33 31  36 33 37 30 30 00 31 39   8122213163700.19
0340 : 39 38 31 32 32 32 31 33  31 37 35 39 30 30 00 00   98122213175900..
0350 : 00 00 00 00 00 00 00 00  00 00 00 00 00 00 00 00   ................
0360 : 00 00 00 00 00 00 00 00  00 00 00 00 00 00 00 00   ................
0370 : 00 01 00 00 00 00 00 00  00 00 00 00 00 00 00 00   ................

Copy Protection:
    Copy Protection: None found [OMIT FROM SUBMISSION]

Tracks and Write Offsets:
    DAT:

<rom name="dump (Track 01).bin" size="95644080" crc="63b878f9" md5="d22424b12e07ec316d52ad6b986343c1" sha1="f91e6909be3b627085f46366c98831cf2819dae0" />
<rom name="dump (Track 02).bin" size="15960672" crc="f34eaaab" md5="6f6f2c25ebf69483d698f5c079f04ce7" sha1="45a3b0df166b5ff66b574f1f9c0eb364d6474e3c" />
<rom name="dump (Track 03).bin" size="16365216" crc="8e82a617" md5="6f740c16a0382f4d6644a531746d8556" sha1="eb7b3863ec86a3f34f10f5b7ac7829501e1297c5" />
<rom name="dump (Track 04).bin" size="16134720" crc="4658ac87" md5="1f7712d65b8486dc9bee476b4d97a817" sha1="516644ee7831a665d7ed934503fb23aaffc8f769" />
<rom name="dump (Track 05).bin" size="16134720" crc="0f411a50" md5="2abf12ce9e007cdd7453f84014a52b89" sha1="2e54484895e804bd9a5300fedf2dc9d61e3f8051" />
<rom name="dump (Track 06).bin" size="16134720" crc="58e9499e" md5="76bebf50543469264428a8464adbf7cc" sha1="16e041dad5a0fbbc020c0fb285570a7aa28b587a" />
<rom name="dump (Track 07).bin" size="16365216" crc="18899714" md5="c17df3feb7ddca4c5a7a3707c8aed95c" sha1="2a7098a0e5b45092247306ba2562430ed656d238" />
<rom name="dump (Track 08).bin" size="16134720" crc="a7abc888" md5="0003993d959b65225430ad5319720952" sha1="6755b12ce922ce1c486b14f1f04f41c60125d741" />
<rom name="dump (Track 09).bin" size="16134720" crc="45d43791" md5="21ae7cf0fbb712bb86a95cbba29ee304" sha1="3fde8df470e65a319a8d356192417f7ac107b786" />
<rom name="dump (Track 10).bin" size="16365216" crc="ac6e0641" md5="5c1ec2b3157b38ed9d278d40e2f95bc0" sha1="c4a17cf41dfb276b017d8e91dfa5ebc4b236b82f" />
<rom name="dump (Track 11).bin" size="16134720" crc="2a7417f1" md5="3740c0e93fcf2e4400aad6e835241011" sha1="7d05ba3959103c10630ae57d611ac96c67bd330e" />
<rom name="dump (Track 12).bin" size="16365216" crc="e80a7332" md5="0bb0dc26c3f53f66aed7fd725a243d6b" sha1="00727e17b5656050b98dd535d4d12690aea81bf4" />
<rom name="dump (Track 13).bin" size="16134720" crc="44c707a8" md5="1811a2c1cf96db0372133db1ebe044db" sha1="8c02f80fca83ed9d3d7bba2f9d6eb8468bc3be9f" />
<rom name="dump (Track 14).bin" size="16365216" crc="4c56f620" md5="ccdaa81437f74b2e2aa99246c48812bd" sha1="e1d7bd0fd55e83b2f8a0f9782632b021fe6345f1" />
<rom name="dump (Track 15).bin" size="16134720" crc="00438be7" md5="c9f05759d5f52653bba291636153798a" sha1="7c82f1b9512cb53304f8408c175226d93b572190" />
<rom name="dump (Track 16).bin" size="16365216" crc="e44e5694" md5="e1b297c3c70ab4529d7164fb4847c06c" sha1="0378db77f118efab9b446a3c60f870b907219374" />
<rom name="dump (Track 17).bin" size="16134720" crc="4f9999f7" md5="0cece09313a407b84cb7421b10c18afd" sha1="857e47435746b2e1c21c1f686481d1b15f0e2527" />
<rom name="dump (Track 18).bin" size="16134720" crc="a2b19c9a" md5="67734c9961220b41fb62efd8366301c9" sha1="c221ae6ec2635a9b27ae64ea0e62114bf18707e6" />
<rom name="dump (Track 19).bin" size="16365216" crc="b6a57f6b" md5="d65b1085945ffe187bd8708ee3786ead" sha1="0e492894edff63741b4dd204a14eee58a8609e7b" />
<rom name="dump (Track 20).bin" size="16365216" crc="3ec0a102" md5="32ef26f959994f84cdd8c0d672a6094e" sha1="c34ce93547707c6f2db0ca8280b8c8e86fe45518" />
<rom name="dump (Track 21).bin" size="16134720" crc="11f00664" md5="2937217aabef3c1323a97235b199e1dd" sha1="5ecd641cae61c99293c5d7ddfc0a43a529e0ec92" />
<rom name="dump (Track 22).bin" size="15904224" crc="32fd655c" md5="f7d94590a5df9a0ed7443a10bcf4b55c" sha1="b38ebb31767ae414dd8a815a3834129f33af1642" />
<rom name="dump (Track 23).bin" size="16826208" crc="d545f93a" md5="48307764d077cbb4898c7cf23f2f9df8" sha1="b847873bc8ca0d4eb962a9bab523ceda78eec73d" />
<rom name="dump (Track 24).bin" size="16134720" crc="e29025d2" md5="dfe036fdc58c5152773c1e27262f8a4f" sha1="b7de5a6fd0b5cfa821b18187b052a2603f19dad5" />
<rom name="dump (Track 25).bin" size="16134720" crc="11c98b76" md5="558d05eb076d092f7e4138a7f7841459" sha1="6903592a2f87dacebb14956b63dcf04c1b3df7ab" />
<rom name="dump (Track 26).bin" size="5762400" crc="c7a44021" md5="34e3ec5f4339b15e85cd017c172d157f" sha1="e7ae71f486ad709e0307a5af7252b612d6789d61" />
<rom name="dump (Track 27).bin" size="5762400" crc="d40866f3" md5="57dc87f6f44703a9e229d1e45eb09810" sha1="d9fac2e9b061889ea31c764699d601b8fb2d5a08" />
<rom name="dump (Track 28).bin" size="5531904" crc="8d040634" md5="d8ab5b19657a766512359c59da4ee036" sha1="f45ba462c690c4299ad9158801359c46e7307342" />
<rom name="dump (Track 29).bin" size="53244576" crc="4a685bc0" md5="10e9bc94c28d398ecfacaae1d842a128" sha1="c4b55564547ba07e9cd462ad919947d7289fcce5" />
<rom name="dump (Track 30).bin" size="1382976" crc="d5e5e526" md5="e1e8207f87348b6d5c9caab8cb41e65a" sha1="5b80d7b55b971fcbc58057fddbfee0a9d91ff49f" />
<rom name="dump (Track 31).bin" size="1382976" crc="917045f5" md5="724ae2e2a092c849d51f6ec7853aa749" sha1="ee861801f73e15a7162c36c2784d7a43b453668a" />
<rom name="dump (Track 32).bin" size="7836864" crc="09aa6ef7" md5="4f753f88b90850feb0f642f2a67ff513" sha1="8e1dbed9a10db0dbe2a605bbddf8cc81ca29c09b" />
<rom name="dump (Track 33).bin" size="1613472" crc="6e8642fa" md5="15190d3fa41bf1cbc4f7fb5fdeac0fed" sha1="dd8486c970080d15ba1b3f063371ec2c5ec199e4" />
<rom name="dump (Track 34).bin" size="1382976" crc="161e9791" md5="b4b21334f4d4b6f671aec31c05195966" sha1="0b7c149d371ebf819302a3045f888feaa4718065" />
<rom name="dump (Track 35).bin" size="16134720" crc="8aab139b" md5="2808b0498a87de6b0c5e202503e95a62" sha1="09f29ad54ab9310e3a2734f707b8784837658929" />
<rom name="dump (Track 36).bin" size="11063808" crc="b654851a" md5="b3bbe1e052d921ea3c7166a18e70f49e" sha1="bd1568847a1db6012f749fa2d43342a64f48418c" />
<rom name="dump (Track 37).bin" size="16134720" crc="f8708fd6" md5="6b093a3eeedf6800f8fdfc73182b7f38" sha1="d8b5fba40c9535fc447bbd546bd55dfdd79a7910" />
<rom name="dump (Track 38).bin" size="2996448" crc="f1e5493d" md5="9640fe89565df68468ef27cd16fb7c36" sha1="0ed05b37fb00da45a9fbdbb216c30bb1d5fd8a09" />
<rom name="dump (Track 39).bin" size="11063808" crc="7dcccf22" md5="33a76991ac66e85a48d71340be8c247d" sha1="f2bf30b4d12e77f3e376dc1817004ec2ec0a0a16" />
<rom name="dump (Track 40).bin" size="21436128" crc="5eaf1904" md5="3c88561d127c31f849af2d558d27fc3d" sha1="a30d4ce961a4f21cb4f8f8081fa992fbb608f0a2" />
<rom name="dump (Track 41).bin" size="32269440" crc="06c7df0c" md5="b003cfed17c3e2c4cccfb74218f4073f" sha1="02074b1126ff4bf312e97c4ff716e93a495671e2" />
<rom name="dump (Track 42).bin" size="1843968" crc="23f6efaa" md5="4ea68d1a6798ae51612fcae4b49d145b" sha1="50cbd804d4e11e7250fdddc929f0b086a7e5b07c" />
<rom name="dump (Track 43).bin" size="4609920" crc="1a7e52d9" md5="fdfc6c01f6487b976d94024ba100287d" sha1="1332accb782f8099494e5aa49920f602136e84c7" />
<rom name="dump (Track 44).bin" size="3918432" crc="31cf1092" md5="cb5fa3aa42ad1d4c2917bf0a28f06a82" sha1="044f78dd0a506303fa960e0492683e453c3f0962" />
<rom name="dump (Track 45).bin" size="2765952" crc="afced707" md5="70e92272eaffef88f37804eb73a8d64f" sha1="5ea948d3dedc905878b3b547306c844ac0fd56af" />
<rom name="dump (Track 46).bin" size="1843968" crc="806737b7" md5="f53b0dfe9926273d487f85551c023569" sha1="a561407a725ad4cc42751ca3e7aad0b81c2b34fd" />
<rom name="dump (Track 47).bin" size="4840416" crc="14d98cc3" md5="e215d2d388b5b0e6671d2d3d909b5405" sha1="233e5cde991b68a08459d3e419fdbc95b301f4d8" />
<rom name="dump (Track 48).bin" size="4743984" crc="adffd1cb" md5="442ac0f73f770b007724ae46ffa8f630" sha1="c11c906d7deb536f8e6915e50de014e1a82b08ab" />

    Cuesheet:

CATALOG 0000000000000
FILE "dump (Track 01).bin" BINARY
  TRACK 01 MODE2/2352
    INDEX 01 00:00:00
FILE "dump (Track 02).bin" BINARY
  TRACK 02 AUDIO
    INDEX 00 00:00:00
    INDEX 01 00:02:00
FILE "dump (Track 03).bin" BINARY
  TRACK 03 AUDIO
    INDEX 00 00:00:00
    INDEX 01 00:03:38
FILE "dump (Track 04).bin" BINARY
  TRACK 04 AUDIO
    INDEX 00 00:00:00
    INDEX 01 00:02:64
FILE "dump (Track 05).bin" BINARY
  TRACK 05 AUDIO
    INDEX 00 00:00:00
    INDEX 01 00:03:31
FILE "dump (Track 06).bin" BINARY
  TRACK 06 AUDIO
    INDEX 00 00:00:00
    INDEX 01 00:02:71
FILE "dump (Track 07).bin" BINARY
  TRACK 07 AUDIO
    INDEX 00 00:00:00
    INDEX 01 00:03:35
FILE "dump (Track 08).bin" BINARY
  TRACK 08 AUDIO
    INDEX 00 00:00:00
    INDEX 01 00:02:57
FILE "dump (Track 09).bin" BINARY
  TRACK 09 AUDIO
    INDEX 00 00:00:00
    INDEX 01 00:03:24
FILE "dump (Track 10).bin" BINARY
  TRACK 10 AUDIO
    INDEX 00 00:00:00
    INDEX 01 00:03:72
FILE "dump (Track 11).bin" BINARY
  TRACK 11 AUDIO
    INDEX 00 00:00:00
    INDEX 01 00:03:13
FILE "dump (Track 12).bin" BINARY
  TRACK 12 AUDIO
    INDEX 00 00:00:00
    INDEX 01 00:03:49
FILE "dump (Track 13).bin" BINARY
  TRACK 13 AUDIO
    INDEX 00 00:00:00
    INDEX 01 00:02:66
FILE "dump (Track 14).bin" BINARY
  TRACK 14 AUDIO
    INDEX 00 00:00:00
    INDEX 01 00:03:35
FILE "dump (Track 15).bin" BINARY
  TRACK 15 AUDIO
    INDEX 00 00:00:00
    INDEX 01 00:02:54
FILE "dump (Track 16).bin" BINARY
  TRACK 16 AUDIO
    INDEX 00 00:00:00
    INDEX 01 00:03:00
FILE "dump (Track 17).bin" BINARY
  TRACK 17 AUDIO
    INDEX 00 00:00:00
    INDEX 01 00:02:64
FILE "dump (Track 18).bin" BINARY
  TRACK 18 AUDIO
    INDEX 00 00:00:00
    INDEX 01 00:03:11
FILE "dump (Track 19).bin" BINARY
  TRACK 19 AUDIO
    INDEX 00 00:00:00
    INDEX 01 00:03:70
FILE "dump (Track 20).bin" BINARY
  TRACK 20 AUDIO
    INDEX 00 00:00:00
    INDEX 01 00:03:61
FILE "dump (Track 21).bin" BINARY
  TRACK 21 AUDIO
    INDEX 00 00:00:00
    INDEX 01 00:03:01
FILE "dump (Track 22).bin" BINARY
  TRACK 22 AUDIO
    INDEX 00 00:00:00
    INDEX 01 00:03:44
FILE "dump (Track 23).bin" BINARY
  TRACK 23 AUDIO
    INDEX 00 00:00:00
    INDEX 01 00:05:23
FILE "dump (Track 24).bin" BINARY
  TRACK 24 AUDIO
    INDEX 00 00:00:00
    INDEX 01 00:02:71
FILE "dump (Track 25).bin" BINARY
  TRACK 25 AUDIO
    INDEX 00 00:00:00
    INDEX 01 00:03:35
FILE "dump (Track 26).bin" BINARY
  TRACK 26 AUDIO
    INDEX 00 00:00:00
    INDEX 01 00:03:74
FILE "dump (Track 27).bin" BINARY
  TRACK 27 AUDIO
    INDEX 00 00:00:00
    INDEX 01 00:03:33
FILE "dump (Track 28).bin" BINARY
  TRACK 28 AUDIO
    INDEX 00 00:00:00
    INDEX 01 00:02:57
FILE "dump (Track 29).bin" BINARY
  TRACK 29 AUDIO
    INDEX 00 00:00:00
    INDEX 01 00:03:29
FILE "dump (Track 30).bin" BINARY
  TRACK 30 AUDIO
    INDEX 00 00:00:00
    INDEX 01 00:03:29
FILE "dump (Track 31).bin" BINARY
  TRACK 31 AUDIO
    INDEX 00 00:00:00
    INDEX 01 00:03:41
FILE "dump (Track 32).bin" BINARY
  TRACK 32 AUDIO
    INDEX 00 00:00:00
    INDEX 01 00:03:42
FILE "dump (Track 33).bin" BINARY
  TRACK 33 AUDIO
    INDEX 00 00:00:00
    INDEX 01 00:02:63
FILE "dump (Track 34).bin" BINARY
  TRACK 34 AUDIO
    INDEX 00 00:00:00
    INDEX 01 00:03:48
FILE "dump (Track 35).bin" BINARY
  TRACK 35 AUDIO
    INDEX 00 00:00:00
    INDEX 01 00:03:09
FILE "dump (Track 36).bin" BINARY
  TRACK 36 AUDIO
    INDEX 00 00:00:00
    INDEX 01 00:03:57
FILE "dump (Track 37).bin" BINARY
  TRACK 37 AUDIO
    INDEX 00 00:00:00
    INDEX 01 00:03:04
FILE "dump (Track 38).bin" BINARY
  TRACK 38 AUDIO
    INDEX 00 00:00:00
    INDEX 01 00:03:58
FILE "dump (Track 39).bin" BINARY
  TRACK 39 AUDIO
    INDEX 00 00:00:00
    INDEX 01 00:03:72
FILE "dump (Track 40).bin" BINARY
  TRACK 40 AUDIO
    INDEX 00 00:00:00
    INDEX 01 00:03:09
FILE "dump (Track 41).bin" BINARY
  TRACK 41 AUDIO
    INDEX 00 00:00:00
    INDEX 01 00:03:50
FILE "dump (Track 42).bin" BINARY
  TRACK 42 AUDIO
    INDEX 00 00:00:00
    INDEX 01 00:02:54
FILE "dump (Track 43).bin" BINARY
  TRACK 43 AUDIO
    INDEX 00 00:00:00
    INDEX 01 00:03:22
FILE "dump (Track 44).bin" BINARY
  TRACK 44 AUDIO
    INDEX 00 00:00:00
    INDEX 01 00:02:54
FILE "dump (Track 45).bin" BINARY
  TRACK 45 AUDIO
    INDEX 00 00:00:00
    INDEX 01 00:03:69
FILE "dump (Track 46).bin" BINARY
  TRACK 46 AUDIO
    INDEX 00 00:00:00
    INDEX 01 00:02:74
FILE "dump (Track 47).bin" BINARY
  TRACK 47 AUDIO
    INDEX 00 00:00:00
    INDEX 01 00:03:29
FILE "dump (Track 48).bin" BINARY
  TRACK 48 AUDIO
    INDEX 00 00:00:00
    INDEX 01 00:03:60

    Write Offset: 0

Dumping Info:
    Frontend Version: 3.1.4-ccf2166b725a68810649721d7ae4f5afb3be1b62
    Dumping Program: DiscImageCreator 20240101
    Date: 2024-03-21 12:22:09
    Manufacturer: PLEXTOR
    Model: DVDR    PX-760A
    Firmware: 1.07
    Reported Disc Type: CD-ROM XA Disc

additions: Version

dic: https://www.dropbox.com/scl/fi/h99mpq0p … j7chbvs6vi
redumper: https://www.dropbox.com/scl/fi/q62g45lg … 7skf6p1n8b
Both hashes match.

db: http://redump.org/disc/103788/

Common Disc Info:
    Title: Desert Rats vs. Afrika Korps
    Foreign Title (Non-latin): デザートラッツ 砂漠の鼠VS北アフリカ軍団
    Disc Number / Letter: -
    Disc Title: -
    System: IBM PC compatible
    Media Type: CD-ROM
    Category: Games
    Region: Japan
    Languages: 
    Disc Serial: -

    Ringcode Information:

Data Side Mastering Code (laser branded/etched): MH-0183 MT<tab>B01
Data Side Mastering SID Code: IFPI L262
Data Side Mould SID Code: IFPI 4431

    Barcode: 4 537243 038515
    Error Count: 0
    Comments:

[T:VOL] DRvsAK
Errors count: edccchk:0, dic:0, redumper:0

    Contents: -

Version and Editions:
    Version: 1.18
    Edition/Release: Original

Extras:
    Primary Volume Descriptor (PVD):

0320 : 20 20 20 20 20 20 20 20  20 20 20 20 20 32 30 30                200
0330 : 34 30 34 30 35 31 31 34  39 33 37 30 30 24 32 30   4040511493700$20
0340 : 30 34 30 34 30 35 31 31  34 39 33 37 30 30 24 30   04040511493700$0
0350 : 30 30 30 30 30 30 30 30  30 30 30 30 30 30 30 00   000000000000000.
0360 : 30 30 30 30 30 30 30 30  30 30 30 30 30 30 30 30   0000000000000000
0370 : 00 01 00 00 00 00 00 00  00 00 00 00 00 00 00 00   ................

Copy Protection:
    Copy Protection: None found [OMIT FROM SUBMISSION]

Tracks and Write Offsets:
    DAT:

<rom name="dump.bin" size="812985264" crc="1822c839" md5="f748f00771f793e28118fce8a6412463" sha1="5a6093126e63ee43f07385d78c792ce9c00a0db2" />

    Cuesheet:

FILE "dump.bin" BINARY
  TRACK 01 MODE1/2352
    INDEX 01 00:00:00

    Write Offset: +13

Dumping Info:
    Frontend Version: 3.1.4-ccf2166b725a68810649721d7ae4f5afb3be1b62
    Dumping Program: DiscImageCreator 20240101
    Date: 2024-03-17 03:06:43
    Manufacturer: PLEXTOR
    Model: DVDR    PX-760A
    Firmware: 1.07
    Reported Disc Type: CD-DA or CD-ROM Disc
Disc 1

dic: https://www.dropbox.com/scl/fi/8bzbhwxq … d0nsarespe
redumper: https://www.dropbox.com/scl/fi/8iu8nkta … 9aass0zkx4
Both hashes match.

db: http://redump.org/disc/106846/

Common Disc Info:
    Title: The Last Remnant
    Foreign Title (Non-latin): ラスト レムナント
    Disc Number / Letter: 1
    Disc Title: -
    System: IBM PC compatible
    Media Type: DVD-ROM-9
    Category: Games
    Region: Japan
    Languages: 
    Disc Serial: SE-G 0030

    Ringcode Information:

Layer 0 (Inner) Mastering Code (laser branded/etched): SE-G0030-1 A1<tab>1
Layer 0 (Inner) Mastering SID Code: IFPI L272
Data Side Mould SID Code: 45W3
Layer 1 (Outer) Mastering Code (laser branded/etched): SE-G0030-1 A0<tab>1
Layer 1 (Outer) Mastering SID Code: IFPI L273

    Barcode: 4 988601 005807
    Comments:

[T:VOL] U08018W_001_D01

    Contents: -

Version and Editions:
    Version: 
    Edition/Release: Original

Extras:
    Primary Volume Descriptor (PVD):

0320 : 20 20 20 20 20 20 20 20  20 20 20 20 20 32 30 30                200
0330 : 39 30 32 30 32 30 33 30  37 34 37 39 36 24 32 30   9020203074796$20
0340 : 30 39 30 32 30 32 30 33  30 37 34 37 39 36 24 32   09020203074796$2
0350 : 31 30 39 30 32 30 32 30  33 30 37 34 37 39 36 24   109020203074796$
0360 : 32 30 30 39 30 32 30 32  30 33 30 37 34 37 39 36   2009020203074796
0370 : 24 01 00 00 00 00 00 00  00 00 00 00 00 00 00 00   $...............

Copy Protection:
    Copy Protection:

Region: 1 2 3 4 5 6 7 8
Copyright Protection System Type: No
Steam

Size & Checksum:
    Layerbreak: 1914064
    Size: 7839973376
    CRC32: 3e64c3c2
    MD5: 6a85a1b0cfbf15e6b6019eedc30d8838
    SHA1: db88a973e418e5984e13ccc2601445750ebc6ee4

Dumping Info:
    Dumping Program: DiscImageCreator 20240101
    Date: 2024-03-10 12:54:03
    Manufacturer: PLEXTOR
    Model: DVDR    PX-760A
    Firmware: 1.07
    Reported Disc Type: DVD-ROM
Disc 2

dic: https://www.dropbox.com/scl/fi/gr5y13kd … an539en36p
redumper: https://www.dropbox.com/scl/fi/li67ddqi … o0u2ehz2hs
Both hashes match.

db: http://redump.org/disc/106847/

Common Disc Info:
    Title: The Last Remnant
    Foreign Title (Non-latin): ラスト レムナント
    Disc Number / Letter: 2
    Disc Title: -
    System: IBM PC compatible
    Media Type: DVD-ROM-5
    Category: Games
    Region: Japan
    Languages: 
    Disc Serial: SE-G 0030

    Ringcode Information:

Data Side Mastering Code (laser branded/etched): SE-G0030-2 A0<tab>2
Data Side Mastering SID Code: IFPI L273
Data Side Mould SID Code: 45W8

    Barcode: 4 988601 005807
    Comments:

[T:VOL] U08018W_001_D02

    Contents: -

Version and Editions:
    Version: 
    Edition/Release: Original

Extras:
    Primary Volume Descriptor (PVD):

0320 : 20 20 20 20 20 20 20 20  20 20 20 20 20 32 30 30                200
0330 : 39 30 32 30 32 30 33 33  36 32 38 37 36 24 32 30   9020203362876$20
0340 : 30 39 30 32 30 32 30 33  33 36 32 38 37 36 24 32   09020203362876$2
0350 : 31 30 39 30 32 30 32 30  33 33 36 32 38 37 36 24   109020203362876$
0360 : 32 30 30 39 30 32 30 32  30 33 33 36 32 38 37 36   2009020203362876
0370 : 24 01 00 00 00 00 00 00  00 00 00 00 00 00 00 00   $...............

Copy Protection:
    Copy Protection:

Region: 1 2 3 4 5 6 7 8
Copyright Protection System Type: No
None found [OMIT FROM SUBMISSION]

Size & Checksum:
    Size: 2057469952
    CRC32: 5b02f954
    MD5: 5a2cf9ef70b2536e55d7bea1ee6694b4
    SHA1: 3c65cc64c64fceaca206bf68dbc621751ff12302

Dumping Info:
    Dumping Program: DiscImageCreator 20240101
    Date: 2024-03-10 12:44:36
    Manufacturer: PLEXTOR
    Model: DVDR    PX-760A
    Firmware: 1.07
    Reported Disc Type: DVD-ROM

19

(0 replies, posted in Verifications)

additions: Version

dic: https://www.dropbox.com/scl/fi/lhplmba0 … opvdm8zipv
redumper: https://www.dropbox.com/scl/fi/3ylf8scl … ks9jmiyw2n
Both hashes match.

db: http://redump.org/disc/32749/

Common Disc Info:
    Title: Tarmanian Tactics
    Foreign Title (Non-latin): タルマニアン タクティクス
    Disc Number / Letter: -
    Disc Title: -
    System: IBM PC compatible
    Media Type: CD-ROM
    Category: Games
    Region: Japan
    Languages: 
    Disc Serial: GFB-19001

    Ringcode Information:

Data Side Mastering Code (laser branded/etched): TSB-19001<tab>1
Data Side Mastering SID Code: IFPI L275
Data Side Mould SID Code: IFPI 4550

    Barcode: 4 975433 281042
    Error Count: 0
    Comments:

[T:VOL] TARMANIAN
Errors count: edccchk:0, dic:0, redumper:0

    Contents: -

Version and Editions:
    Version: 1.0
    Edition/Release: Game Fan 1980

Extras:
    Primary Volume Descriptor (PVD):

0320 : 20 20 20 20 20 20 20 20  20 20 20 20 20 32 30 30                200
0330 : 30 30 31 33 30 30 39 35  37 31 36 39 30 00 30 30   0013009571690.00
0340 : 30 30 30 30 30 30 30 30  30 30 30 30 30 30 00 30   00000000000000.0
0350 : 30 30 30 30 30 30 30 30  30 30 30 30 30 30 30 00   000000000000000.
0360 : 30 30 30 30 30 30 30 30  30 30 30 30 30 30 30 30   0000000000000000
0370 : 00 01 00 00 00 00 00 00  00 00 00 00 00 00 00 00   ................

Copy Protection:
    Copy Protection: None found [OMIT FROM SUBMISSION]

Tracks and Write Offsets:
    DAT:

<rom name="dump (Track 01).bin" size="588030576" crc="f49f8717" md5="122c82be37ed6a73b529e29a762e7bfa" sha1="95390ad16b95e85659910bfde7c5b9198ee45054" />
<rom name="dump (Track 02).bin" size="12794880" crc="8cc74173" md5="307588c7ac90bd644687399aec77d781" sha1="327d15bc3d3211e01f23ba5425379b33e6665c18" />
<rom name="dump (Track 03).bin" size="13933248" crc="435aff75" md5="08e5e036ed73ab573be32f66a84ae035" sha1="a9c9dc1622150bc1e38f26f42ec544a2c90a0a53" />
<rom name="dump (Track 04).bin" size="13246464" crc="f948d8a6" md5="9ad89051131dcbbb7c0790bff3ad2522" sha1="f024ce4ae5c3b42b9ac52e15ed6f61e17d9ed4ed" />
<rom name="dump (Track 05).bin" size="13493424" crc="2b224516" md5="2ec6b703898fadd815542b09dad0c800" sha1="1dd86b4a2d86d1deeacdb1451e9fc6ae74de665e" />
<rom name="dump (Track 06).bin" size="11948160" crc="4ecd6878" md5="55b9bd63fb211c2f8f98badcf1b4134d" sha1="edd983d3ca258674523812327b4872d4945f1cfb" />
<rom name="dump (Track 07).bin" size="12738432" crc="23fd0207" md5="1e26a7222a87fdce55fcccef7151b708" sha1="199d15bf97cfc5348429ee053bf00987c28d1657" />
<rom name="dump (Track 08).bin" size="13770960" crc="d7ab80ba" md5="3806fcc43c1aec17d4e2e3221e77a5cd" sha1="28cf7ec2b934049743bd1e43344f276f21bfa209" />
<rom name="dump (Track 09).bin" size="20930448" crc="97443e6b" md5="a076d5391e2290632756fe4c7e13e35c" sha1="880cb7ac23577d28964fa77693741bb59ab609fb" />
<rom name="dump (Track 10).bin" size="24140928" crc="f83698b2" md5="84f9f4df0537624ea723b125da6aaaf0" sha1="ddcb1228da2c4459e5af9a1def955e5fc73dcaf9" />
<rom name="dump (Track 11).bin" size="22953168" crc="59f29435" md5="fcbdd12b35e6ae5c85113316eab79656" sha1="308ddd46658b907ea2cb3be144a4c1c971dd5cf6" />
<rom name="dump (Track 12).bin" size="23875152" crc="907250c2" md5="a0c282437356b550b25dacb771bb5efd" sha1="b80e2a4549b34e13cec0d3b182e9e0ff6ad2c17e" />
<rom name="dump (Track 13).bin" size="23599968" crc="54989eef" md5="a6f5571f55f7d393a5d13ebbef189598" sha1="906db9e93d428a610a6d5c53c365efef0fe38826" />
<rom name="dump (Track 14).bin" size="21946512" crc="298b3116" md5="4d6dd25e456be0cec88c92650dde3531" sha1="f6b26180e945a66a9063bd442b3366341dae5799" />
<rom name="dump (Track 15).bin" size="20257776" crc="2d9dbc77" md5="c8cc0372657237e7470290c38153658b" sha1="ab26c3cdd83cb15657fb3981c844289448a21a6b" />

    Cuesheet:

CATALOG 0000000000000
FILE "dump (Track 01).bin" BINARY
  TRACK 01 MODE1/2352
    INDEX 01 00:00:00
FILE "dump (Track 02).bin" BINARY
  TRACK 02 AUDIO
    INDEX 00 00:00:00
    INDEX 01 00:02:00
FILE "dump (Track 03).bin" BINARY
  TRACK 03 AUDIO
    INDEX 00 00:00:00
    INDEX 01 00:02:00
FILE "dump (Track 04).bin" BINARY
  TRACK 04 AUDIO
    INDEX 00 00:00:00
    INDEX 01 00:02:00
FILE "dump (Track 05).bin" BINARY
  TRACK 05 AUDIO
    INDEX 00 00:00:00
    INDEX 01 00:02:00
FILE "dump (Track 06).bin" BINARY
  TRACK 06 AUDIO
    INDEX 00 00:00:00
    INDEX 01 00:01:74
FILE "dump (Track 07).bin" BINARY
  TRACK 07 AUDIO
    INDEX 00 00:00:00
    INDEX 01 00:02:00
FILE "dump (Track 08).bin" BINARY
  TRACK 08 AUDIO
    INDEX 00 00:00:00
    INDEX 01 00:02:00
FILE "dump (Track 09).bin" BINARY
  TRACK 09 AUDIO
    INDEX 00 00:00:00
    INDEX 01 00:02:00
FILE "dump (Track 10).bin" BINARY
  TRACK 10 AUDIO
    INDEX 00 00:00:00
    INDEX 01 00:02:00
FILE "dump (Track 11).bin" BINARY
  TRACK 11 AUDIO
    INDEX 00 00:00:00
    INDEX 01 00:02:00
FILE "dump (Track 12).bin" BINARY
  TRACK 12 AUDIO
    INDEX 00 00:00:00
    INDEX 01 00:02:00
FILE "dump (Track 13).bin" BINARY
  TRACK 13 AUDIO
    INDEX 00 00:00:00
    INDEX 01 00:02:00
FILE "dump (Track 14).bin" BINARY
  TRACK 14 AUDIO
    INDEX 00 00:00:00
    INDEX 01 00:02:00
FILE "dump (Track 15).bin" BINARY
  TRACK 15 AUDIO
    INDEX 00 00:00:00
    INDEX 01 00:02:00

    Write Offset: +2

Dumping Info:
    Dumping Program: DiscImageCreator 20240101
    Date: 2024-03-09 02:44:27
    Manufacturer: PLEXTOR
    Model: DVDR    PX-760A
    Firmware: 1.07
    Reported Disc Type: CD-DA or CD-ROM Disc

fixes: Mastering Code ?

dic: https://www.dropbox.com/scl/fi/ezswl6zb … f205fm6kfh
redumper: https://www.dropbox.com/scl/fi/r8oow8vp … sefsp0s6pl
Both hashes match.

db: http://redump.org/disc/104947/

Common Disc Info:
    Title: Need for Speed: Porsche Unleashed
    Foreign Title (Non-latin): ニード・フォー・スピード ポルシェ アンリーシュド
    Disc Number / Letter: -
    Disc Title: -
    System: IBM PC compatible
    Media Type: CD-ROM
    Category: Games
    Region: Japan
    Languages: 
    Disc Serial: EMWB-7003

    Ringcode Information:

Data Side Mastering Code (laser branded/etched): EMWB-7003 MT<tab>C03
Data Side Mastering SID Code: IFPI L263
Data Side Mould SID Code: IFPI 4467

    Barcode: 4 938833 011565
    Error Count: 586
    Comments:

[T:VOL] NFS V
Errors count: edccchk:586, dic:586, redumper:586

    Contents: -

Version and Editions:
    Version: 3.5
    Edition/Release: EA Best Selections

Extras:
    Primary Volume Descriptor (PVD):

0320 : 20 20 20 20 20 20 20 20  20 20 20 20 20 32 30 30                200
0330 : 31 30 37 31 30 31 35 35  30 34 36 30 30 00 32 30   1071015504600.20
0340 : 30 31 30 37 31 30 31 35  35 30 34 36 30 30 00 30   01071015504600.0
0350 : 30 30 30 30 30 30 30 30  30 30 30 30 30 30 30 00   000000000000000.
0360 : 30 30 30 30 30 30 30 30  30 30 30 30 30 30 30 30   0000000000000000
0370 : 00 01 00 00 00 00 00 00  00 00 00 00 00 00 00 00   ................

Copy Protection:
    Copy Protection: SafeDisc 1, SafeDisc 1.50.020

Tracks and Write Offsets:
    DAT:

<rom name="dump.bin" size="663675600" crc="10982a51" md5="130c2b2cf9c5f91fe2cdb38939317520" sha1="676bb1757d274059981431be248cc071dd895346" />

    Cuesheet:

FILE "dump.bin" BINARY
  TRACK 01 MODE1/2352
    INDEX 01 00:00:00

    Write Offset: -12

Dumping Info:
    Dumping Program: DiscImageCreator 20240101
    Date: 2024-03-01 12:18:51
    Manufacturer: PLEXTOR
    Model: DVDR    PX-760A
    Firmware: 1.07
    Reported Disc Type: CD-DA or CD-ROM Disc
sarami wrote:

DIC is correct. In this case, sub P-channel also needs to refer.

Thanks for the reply. I will wait for the replies/decisions from the moderators.

http://redump.org/disc/70894/

dic

match db
logs: https://www.dropbox.com/scl/fi/lltlbqse … ktrpv541xe

FILE "dump (Track 20).bin" BINARY
  TRACK 20 AUDIO
    INDEX 00 00:00:00
    INDEX 01 00:02:00
<rom name="dump (Track 19).bin" size="1239504" crc="aa360a34" md5="625c6f8c9e5cf054730d1a7ed4661a5b" sha1="1b395b0cabf3a8064538734ced14d2aae7d86415" />
<rom name="dump (Track 20).bin" size="1187760" crc="ee8beabb" md5="440f2fe6ad3a2bc49d8e68228b80688e" sha1="35eeb2337c41c46ba05200b49243b504e91666f9" />
redumper

does not match db
logs: https://www.dropbox.com/scl/fi/9iv3cyt0 … 5ihfza9ahe

FILE "dump (Track 20).bin" BINARY
  TRACK 20 AUDIO
    INDEX 00 00:00:00
    INDEX 01 00:01:74
<rom name="dump (Track 19).bin" size="1241856" crc="a6a7432b" md5="5560bcc258a578e0be7319c6d7611e66" sha1="62239ba0f2c033a6912d6c634203d95cbc937cff" />
<rom name="dump (Track 20).bin" size="1185408" crc="f00775d9" md5="1944e6d26fd988aa47fb141e124105aa" sha1="51e56ea02187dbc1a1ab7ebfaa94e1e03fe620c3" />

fixes: Contents

dic: https://www.dropbox.com/scl/fi/o4csw1u7 … g7m26uqfit
redumper: https://www.dropbox.com/scl/fi/bzw6zay9 … utyealdi0a
Both hashes match.

db: http://redump.org/disc/65174/

Common Disc Info:
    Title: Indiana Jones and the Last Crusade
    Foreign Title (Non-latin): インディ・ジョーンズ 最後の聖戦
    Disc Number / Letter: -
    Disc Title: -
    System: Fujitsu FM Towns series
    Media Type: CD-ROM
    Category: Games
    Region: Japan
    Languages: 
    Disc Serial: HMB-142

    Ringcode Information:

Label Side Mastering Code (laser branded/etched): HMB-142-R1F<tab>V
Data Side Toolstamp or Mastering Code (engraved/stamped): (unreadable)

    Barcode: T4988618018494
    EXE/Build Date: 1990-06-18
    Error Count: 3
    Comments:

[T:VOL] INDY
Errors count: edccchk:0, dic:3, redumper:0
Fujitsu Id: A2760060
Towns Software Collection Id: TSC070
EXE timestamp:
    1990-06-18T23:43:27+00:00 (\INDY3ENG\INDY3.EXP)
    1990-06-18T23:46:15+00:00 (\INDY3KAN\INDY3.EXP)
    1990-06-18T23:40:37+00:00 (RUN386.EXE)

    Contents:

Rolling Demos:
    Zak McKracken and the Alien Mindbenders
    Loom

Version and Editions:
    Version: 
    Edition/Release: FM Towns Soft Collection Kaigai-hen Vol. 7

Extras:
    Primary Volume Descriptor (PVD):

0320 : 00 00 00 00 00 00 00 00  00 00 00 00 00 31 39 39   .............199
0330 : 30 30 36 31 38 32 33 33  39 30 39 30 30 00 31 39   0061823390900.19
0340 : 39 30 30 36 31 38 32 33  34 36 34 38 30 30 00 30   90061823464800.0
0350 : 30 30 30 30 30 30 30 30  30 30 30 30 30 30 30 00   000000000000000.
0360 : 30 30 30 30 30 30 30 30  30 30 30 30 30 30 30 30   0000000000000000
0370 : 00 01 00 00 00 00 00 00  00 00 00 00 00 00 00 00   ................

Tracks and Write Offsets:
    DAT:

<rom name="dump (Track 01).bin" size="20808144" crc="f68c9f0c" md5="fe9f0ea800bb662bc99c0a5c2f124f4d" sha1="d505c9d2e8c645efd6b27505c590dc7ec1af6e6a" />
<rom name="dump (Track 02).bin" size="36695904" crc="3539d50c" md5="9bdbae67158ef8b55d016a312dc6e876" sha1="a95acb27b7cec66e9327ad34abb526a5a4bd9758" />
<rom name="dump (Track 03).bin" size="12493824" crc="4fdf8a9a" md5="6c26d86043e6d7f73f33bd5af64ec52f" sha1="4ce3ffa55973f995bb6f4123d78f755bd9ca0a07" />
<rom name="dump (Track 04).bin" size="20591760" crc="98ce9d50" md5="65ac0ba7d68c8df92f57756084e8a524" sha1="3fc7edf68549aafa2d3069f5ecc6b2d1e93a4406" />
<rom name="dump (Track 05).bin" size="26013120" crc="436db15f" md5="414a21ac61ae3717636d73715d90d832" sha1="fcd30d166d5a6e32b1236a82b6d46545681b947b" />
<rom name="dump (Track 06).bin" size="21436128" crc="161bc771" md5="cd5b63860b8ac130411fb76a33fa3d1d" sha1="9f25a49ac461958b5eeaf62061900c3b32726067" />
<rom name="dump (Track 07).bin" size="12606720" crc="dd5eef16" md5="5c654207df47465bd874bf692a546788" sha1="526695fc363459e8a4af103b6a4d2036602ef918" />
<rom name="dump (Track 08).bin" size="30611280" crc="c80ca8b1" md5="40f522d9dc289991751e3cb5bcfaba9b" sha1="350e7eebd8fdd032cfcf180bef9636a54d8ead2a" />
<rom name="dump (Track 09).bin" size="37265088" crc="fa8d16dc" md5="ba59e6cbc1f9c25f48d97a9be1ba0ee7" sha1="08bdd069bba8ea10170e1b5e68ff3b40cd9eec42" />
<rom name="dump (Track 10).bin" size="27024480" crc="8a108fcf" md5="34f5546725a84d8b273dd234cb56ff1e" sha1="c453e2df1931509d7f61f257eee67ddb049e1725" />
<rom name="dump (Track 11).bin" size="19055904" crc="1d609468" md5="36aad9e85e3d884b66372b47e76dfd6f" sha1="e5f2af5f139fa7f51cb5f7d8a1887598ac3096a0" />
<rom name="dump (Track 12).bin" size="32151840" crc="d0c1b03b" md5="0cfdbbce7cc1a56d6a5fa64b6b5408de" sha1="804d453fbeea022ecf38966bb71b087da1c74961" />
<rom name="dump (Track 13).bin" size="30891168" crc="946b44a3" md5="d9483e87cc2679fda29bf68110a080a4" sha1="2086d9e9981bf84df4efaecdf2684c77b6c41e76" />
<rom name="dump (Track 14).bin" size="6303360" crc="c8df90a5" md5="521c2723f2d740c56b9eae91403bafe5" sha1="644179361ba43ca295e01cb529300ad64bc8522c" />
<rom name="dump (Track 15).bin" size="6903120" crc="be43decf" md5="ae8eb5203940c2d4de30fdc2b5f9c6ea" sha1="cbfb38cf1e22408eb9cbad3e4d74e51ce39a88b3" />
<rom name="dump (Track 16).bin" size="15276240" crc="d9a02fdd" md5="182e16af19fe16d9b78a63888b961f3b" sha1="6f96fd3b0bb991b552ebfc34fb9484c1fd7bacc8" />
<rom name="dump (Track 17).bin" size="25970784" crc="b437ab11" md5="1cb1bb94595d9e12288ada32e810cfa1" sha1="2baf51378e346dfb8d78015ea7a8e9f92cacecca" />

    Cuesheet:

CATALOG 0000000000000
FILE "dump (Track 01).bin" BINARY
  TRACK 01 MODE1/2352
    INDEX 01 00:00:00
FILE "dump (Track 02).bin" BINARY
  TRACK 02 AUDIO
    INDEX 00 00:00:00
    INDEX 01 00:04:23
FILE "dump (Track 03).bin" BINARY
  TRACK 03 AUDIO
    INDEX 00 00:00:00
    INDEX 01 00:02:61
FILE "dump (Track 04).bin" BINARY
  TRACK 04 AUDIO
    INDEX 00 00:00:00
    INDEX 01 00:01:74
FILE "dump (Track 05).bin" BINARY
  TRACK 05 AUDIO
    INDEX 00 00:00:00
    INDEX 01 00:05:19
FILE "dump (Track 06).bin" BINARY
  TRACK 06 AUDIO
    INDEX 00 00:00:00
    INDEX 01 00:02:39
FILE "dump (Track 07).bin" BINARY
  TRACK 07 AUDIO
    INDEX 00 00:00:00
    INDEX 01 00:02:20
FILE "dump (Track 08).bin" BINARY
  TRACK 08 AUDIO
    INDEX 00 00:00:00
    INDEX 01 00:03:00
FILE "dump (Track 09).bin" BINARY
  TRACK 09 AUDIO
    INDEX 00 00:00:00
    INDEX 01 00:02:45
FILE "dump (Track 10).bin" BINARY
  TRACK 10 AUDIO
    INDEX 00 00:00:00
    INDEX 01 00:02:26
FILE "dump (Track 11).bin" BINARY
  TRACK 11 AUDIO
    INDEX 00 00:00:00
    INDEX 01 00:02:11
FILE "dump (Track 12).bin" BINARY
  TRACK 12 AUDIO
    INDEX 00 00:00:00
    INDEX 01 00:02:49
FILE "dump (Track 13).bin" BINARY
  TRACK 13 AUDIO
    INDEX 00 00:00:00
    INDEX 01 00:02:29
FILE "dump (Track 14).bin" BINARY
  TRACK 14 AUDIO
    INDEX 00 00:00:00
    INDEX 01 00:02:30
FILE "dump (Track 15).bin" BINARY
  TRACK 15 AUDIO
    INDEX 00 00:00:00
    INDEX 01 00:03:00
FILE "dump (Track 16).bin" BINARY
  TRACK 16 AUDIO
    INDEX 00 00:00:00
    INDEX 01 00:04:45
FILE "dump (Track 17).bin" BINARY
  TRACK 17 AUDIO
    INDEX 00 00:00:00
    INDEX 01 00:02:40

    Write Offset: -614

Dumping Info:
    Dumping Program: DiscImageCreator 20240101
    Date: 2024-02-18 11:59:50
    Manufacturer: PLEXTOR
    Model: DVDR    PX-760A
    Firmware: 1.07
    Reported Disc Type: CD-DA or CD-ROM Disc

24

(0 replies, posted in Verifications)

dic: https://www.dropbox.com/scl/fi/73jklive … 6txcqs871q
redumper: https://www.dropbox.com/scl/fi/7qlfez0o … jod8kzkm7n
Both hashes match.

db: http://redump.org/disc/77535/

Common Disc Info:
    Title: Scavenger 4
    Foreign Title (Non-latin): スカベンジャー4
    Disc Number / Letter: -
    Disc Title: -
    System: Fujitsu FM Towns series
    Media Type: CD-ROM
    Category: Games
    Region: Japan
    Languages: 
    Disc Serial: HME-217B

    Ringcode Information:

Data Side Mastering Code (laser branded/etched): HME-217B T1<tab>4B02-3

    Barcode: T4988618062435
    EXE/Build Date: 1994-01-20
    Error Count: 0
    Comments:

[T:VOL] SCAVENGER_4
Errors count: edccchk:0, dic:0, redumper:0
Fujitsu Id: A2760510
Towns Software Collection Id: TSC390
EXE timestamp:
    1994-01-20T17:15:52+09:00 (SCAVENG.EXP)
    1994-01-20T17:15:52+09:00 (RUN386.EXE)

    Contents: 

Version and Editions:
    Version: Rev B
    Edition/Release: FM Towns Soft Collection Kaigai-hen Vol. 39

Extras:
    Primary Volume Descriptor (PVD):

0320 : 20 20 20 20 20 20 20 20  20 20 20 20 20 31 39 39                199
0330 : 34 30 31 32 30 31 37 31  30 30 30 30 30 00 31 39   4012017100000.19
0340 : 39 34 30 31 32 30 31 37  31 30 30 30 30 30 00 30   94012017100000.0
0350 : 30 30 30 30 30 30 30 30  30 30 30 30 30 30 30 00   000000000000000.
0360 : 30 30 30 30 30 30 30 30  30 30 30 30 30 30 30 30   0000000000000000
0370 : 00 01 00 00 00 00 00 00  00 00 00 00 00 00 00 00   ................

Tracks and Write Offsets:
    DAT:

<rom name="dump (Track 1).bin" size="528847200" crc="cd9353dc" md5="57d5f91b0c9d6526fe97d8455eacd5da" sha1="f53cc11b53ad246cf16b4cc0fb02c774750a2679" />
<rom name="dump (Track 2).bin" size="33516000" crc="ac0cf297" md5="bcaf6a93f88ca671298f3ffe447eb6b7" sha1="6331506c3a9e4045772ca6f430a7ce8700065892" />
<rom name="dump (Track 3).bin" size="31575600" crc="b5b9d2b2" md5="8de79dcfd25f60405f64fcf03d5f80fd" sha1="13dd849406eda472b532e7ada84103fda9a07896" />
<rom name="dump (Track 4).bin" size="32986800" crc="ed090158" md5="c9e211d59118dff01504250e115c68c6" sha1="ed50c01be5a133f44c2bd1e618b908efc02f3dbb" />
<rom name="dump (Track 5).bin" size="31399200" crc="730eebca" md5="8af0939a4f1a73bc3ba8bfc81adf650b" sha1="88ed9c2779b8520b905e6772929f99587ba00af6" />
<rom name="dump (Track 6).bin" size="33163200" crc="423a2bad" md5="0a45495a924ff877b967e450dc961c80" sha1="ba862b6178bb1c3618ecea5b20b1a27ac454bfe7" />

    Cuesheet:

FILE "dump (Track 1).bin" BINARY
  TRACK 01 MODE1/2352
    INDEX 01 00:00:00
FILE "dump (Track 2).bin" BINARY
  TRACK 02 AUDIO
    INDEX 00 00:00:00
    INDEX 01 00:02:00
FILE "dump (Track 3).bin" BINARY
  TRACK 03 AUDIO
    INDEX 00 00:00:00
    INDEX 01 00:02:00
FILE "dump (Track 4).bin" BINARY
  TRACK 04 AUDIO
    INDEX 00 00:00:00
    INDEX 01 00:02:00
FILE "dump (Track 5).bin" BINARY
  TRACK 05 AUDIO
    INDEX 00 00:00:00
    INDEX 01 00:02:00
FILE "dump (Track 6).bin" BINARY
  TRACK 06 AUDIO
    INDEX 00 00:00:00
    INDEX 01 00:02:00

    Write Offset: +1396

Dumping Info:
    Dumping Program: DiscImageCreator 20240101
    Date: 2024-02-18 10:12:31
    Manufacturer: PLEXTOR
    Model: DVDR    PX-760A
    Firmware: 1.07
    Reported Disc Type: CD-DA or CD-ROM Disc

The title may need quotation marks.
https://i.postimg.cc/QHFGy8Ft/The-Case-of-the-Cautious-Condor.png

dic: https://www.dropbox.com/scl/fi/tx2p1ow6 … ztj2wqc7wf
redumper: https://www.dropbox.com/scl/fi/odq5zhne … 6cj4uhpgsl
Both hashes match.

db: http://redump.org/disc/81264/

Common Disc Info:
    Title: The Case of the "Cautious Condor"
    Foreign Title (Non-latin): 用心深いコンドル事件
    Disc Number / Letter: -
    Disc Title: -
    System: Fujitsu FM Towns series
    Media Type: CD-ROM
    Category: Games
    Region: Japan
    Languages: 
    Disc Serial: HMA-235

    Ringcode Information:

Label Side Mastering Code (laser branded/etched): HMA-235-V<tab>2A1<tab>TO

    Barcode: 
    EXE/Build Date: 1980-01-03
    Error Count: 0
    Comments:

[T:VOL] AIRWAVE
Errors count: edccchk:0, dic:0, redumper:0
EXE timestamp:
    1980-01-03T23:07:34+00:00 (\AIRWAVE\AIRWAVE.EXP)
    1980-01-03T23:06:41+00:00 (RUN386.EXE)

    Contents: 

Version and Editions:
    Version: 
    Edition/Release: Original

Extras:
    Primary Volume Descriptor (PVD):

0320 : 20 20 20 20 20 20 20 20  20 20 20 20 20 31 39 38                198
0330 : 30 30 31 30 33 32 33 30  30 33 31 30 30 00 31 39   0010323003100.19
0340 : 38 30 30 31 30 34 30 31  30 39 33 35 30 30 00 30   80010401093500.0
0350 : 30 30 30 30 30 30 30 30  30 30 30 30 30 30 30 00   000000000000000.
0360 : 30 30 30 30 30 30 30 30  30 30 30 30 30 30 30 30   0000000000000000
0370 : 00 01 00 00 00 00 00 00  00 00 00 00 00 00 00 00   ................

Tracks and Write Offsets:
    DAT:

<rom name="dump.bin" size="367441200" crc="e68a9814" md5="8a549bce2388fc1815317b42f16ee59f" sha1="7347db260c32c5505554f7e197974bce9368c432" />

    Cuesheet:

FILE "dump.bin" BINARY
  TRACK 01 MODE1/2352
    INDEX 01 00:00:00

    Write Offset: +160

Dumping Info:
    Dumping Program: DiscImageCreator 20240101
    Date: 2024-02-02 02:45:33
    Manufacturer: PLEXTOR
    Model: DVDR    PX-760A
    Firmware: 1.07
    Reported Disc Type: CD-DA or CD-ROM Disc