Thank you for your explanation.

full logs

subdump_*.sub?
I thought that these were tmp files, so I deleted...
Do you still need?

DICUI 1.11 + DIC (20181020 191326)
all hashes match
dic/subdump logs

Title: Virtua Fighter Kids
Disc Number / Letter: -
Disc Title: -
System: Sega Saturn
Media Type: CD-ROM
Category: Games
Region: Japan
Languages: 
Disc Serial: GS-9098 (Sega ID: 670-8808)
Build Date: 1996-05-01
Ringcode Information:
    Mastering Ring: GS-9098P-00944-P1K   V
    Mastering SID Code: IFPI L237
    Mould SID Code: IFPI4011
    Additional Mould: -
    Toolstamp or Mastering Code: 23
Barcode: 4 974365 090982
Error Count: 0
Comments: -
Contents: -
Version: V0.001
Edition/Release: Original
Header:

0000 : 53 45 47 41 20 53 45 47  41 53 41 54 55 52 4E 20   SEGA SEGASATURN 
0010 : 53 45 47 41 20 45 4E 54  45 52 50 52 49 53 45 53   SEGA ENTERPRISES
0020 : 47 53 2D 39 30 37 39 20  20 20 56 30 2E 30 30 31   GS-9079   V0.001
0030 : 31 39 39 36 30 35 30 31  43 44 2D 31 2F 31 20 20   19960501CD-1/1  
0040 : 4A 54 20 20 20 20 20 20  20 20 20 20 20 20 20 20   JT              
0050 : 4A 20 20 20 20 20 20 20  20 20 20 20 20 20 20 20   J               
0060 : 56 46 2E 20 4B 49 44 53  20 20 20 20 20 20 20 20   VF. KIDS        
0070 : 20 20 20 20 20 20 20 20  20 20 20 20 20 20 20 20                   
0080 : 20 20 20 20 20 20 20 20  20 20 20 20 20 20 20 20                   
0090 : 20 20 20 20 20 20 20 20  20 20 20 20 20 20 20 20                   
00A0 : 20 20 20 20 20 20 20 20  20 20 20 20 20 20 20 20                   
00B0 : 20 20 20 20 20 20 20 20  20 20 20 20 20 20 20 20                   
00C0 : 20 20 20 20 20 20 20 20  20 20 20 20 20 20 20 20                   
00D0 : 00 00 00 00 00 00 00 00  00 00 00 00 00 00 00 00   ................
00E0 : 00 00 80 00 00 00 00 00  00 00 00 00 00 00 00 00   ................
00F0 : 06 00 40 00 00 00 00 00  00 00 00 00 00 00 00 00   ..@.............


Primary Volume Descriptor (PVD):

0320 : 20 20 20 20 20 20 20 20  20 20 20 20 20 31 39 39                199
0330 : 36 30 36 32 38 30 30 35  39 34 35 30 30 14 31 39   6062800594500.19
0340 : 39 36 30 36 32 38 30 30  35 39 34 35 30 30 14 30   96062800594500.0
0350 : 30 30 30 30 30 30 30 30  30 30 30 30 30 30 30 00   000000000000000.
0360 : 30 30 30 30 30 30 30 30  30 30 30 30 30 30 30 30   0000000000000000
0370 : 00 01 00 00 00 00 00 00  00 00 00 00 00 00 00 00   ................

Cuesheet:

CATALOG 0000000000000
FILE "VF_KIDS (Track 01).bin" BINARY
  TRACK 01 MODE1/2352
    INDEX 01 00:00:00
FILE "VF_KIDS (Track 02).bin" BINARY
  TRACK 02 AUDIO
    INDEX 00 00:00:00
    INDEX 01 00:02:00
FILE "VF_KIDS (Track 03).bin" BINARY
  TRACK 03 AUDIO
    INDEX 00 00:00:00
    INDEX 01 00:01:74
FILE "VF_KIDS (Track 04).bin" BINARY
  TRACK 04 AUDIO
    INDEX 00 00:00:00
    INDEX 01 00:01:74
FILE "VF_KIDS (Track 05).bin" BINARY
  TRACK 05 AUDIO
    INDEX 00 00:00:00
    INDEX 01 00:01:74
FILE "VF_KIDS (Track 06).bin" BINARY
  TRACK 06 AUDIO
    INDEX 00 00:00:00
    INDEX 01 00:01:74
FILE "VF_KIDS (Track 07).bin" BINARY
  TRACK 07 AUDIO
    INDEX 00 00:00:00
    INDEX 01 00:01:74
FILE "VF_KIDS (Track 08).bin" BINARY
  TRACK 08 AUDIO
    INDEX 00 00:00:00
    INDEX 01 00:01:74
FILE "VF_KIDS (Track 09).bin" BINARY
  TRACK 09 AUDIO
    INDEX 00 00:00:00
    INDEX 01 00:01:74
FILE "VF_KIDS (Track 10).bin" BINARY
  TRACK 10 AUDIO
    INDEX 00 00:00:00
    INDEX 01 00:01:74
FILE "VF_KIDS (Track 11).bin" BINARY
  TRACK 11 AUDIO
    INDEX 00 00:00:00
    INDEX 01 00:01:74
FILE "VF_KIDS (Track 12).bin" BINARY
  TRACK 12 AUDIO
    INDEX 00 00:00:00
    INDEX 01 00:01:74
FILE "VF_KIDS (Track 13).bin" BINARY
  TRACK 13 AUDIO
    INDEX 00 00:00:00
    INDEX 01 00:01:74
FILE "VF_KIDS (Track 14).bin" BINARY
  TRACK 14 AUDIO
    INDEX 00 00:00:00
    INDEX 01 00:01:74
FILE "VF_KIDS (Track 15).bin" BINARY
  TRACK 15 AUDIO
    INDEX 00 00:00:00
    INDEX 01 00:01:74
FILE "VF_KIDS (Track 16).bin" BINARY
  TRACK 16 AUDIO
    INDEX 00 00:00:00
    INDEX 01 00:01:74
FILE "VF_KIDS (Track 17).bin" BINARY
  TRACK 17 AUDIO
    INDEX 00 00:00:00
    INDEX 01 00:01:74
FILE "VF_KIDS (Track 18).bin" BINARY
  TRACK 18 AUDIO
    INDEX 00 00:00:00
    INDEX 01 00:01:74
FILE "VF_KIDS (Track 19).bin" BINARY
  TRACK 19 AUDIO
    INDEX 00 00:00:00
    INDEX 01 00:01:74
FILE "VF_KIDS (Track 20).bin" BINARY
  TRACK 20 AUDIO
    INDEX 00 00:00:00
    INDEX 01 00:01:74

Write Offset: 684

DAT:

<rom name="VF_KIDS (Track 01).bin" size="184290960" crc="7b5caa4c" md5="60dc010de2cd684a4a07aa8c52616d1b" sha1="4493150657714862cbba91786378d4cb2cbbefbd" />
<rom name="VF_KIDS (Track 02).bin" size="26448240" crc="fcd466b7" md5="784d2abb52b733c9a03a665f075c14f7" sha1="5eef6a9a272b2f5a1c6c4a031acdf852183cb6fb" />
<rom name="VF_KIDS (Track 03).bin" size="24444336" crc="71835264" md5="05fdb76a81f46b8940c7dec33c4c09fa" sha1="f06faa2b2e6765741548a51b82b3b98f759f5408" />
<rom name="VF_KIDS (Track 04).bin" size="24757152" crc="5c11c873" md5="6de68f9bd844f2f960ed6ab8ac81316a" sha1="ae62c32d53cb0d3cec6bb3c7484d56704de55593" />
<rom name="VF_KIDS (Track 05).bin" size="24310272" crc="a6d54d94" md5="5e6d04a4774941ed3ff1184dc21d9ab8" sha1="a6dabc392a51a49eaf00e6f71a4f7e3b765c3e4c" />
<rom name="VF_KIDS (Track 06).bin" size="29115408" crc="20af2410" md5="46dd82fa1233dbffdcb05983628e7a0a" sha1="8bfc69542d214677107542babcf3fd8cefdd9458" />
<rom name="VF_KIDS (Track 07).bin" size="24486672" crc="a81316fe" md5="b662e3ac70187933e34258dd9481ab86" sha1="bd003f285adfe5098fca1d233678958470265696" />
<rom name="VF_KIDS (Track 08).bin" size="23785776" crc="fb59cbd6" md5="a133a23986bcec183d9413086ed23b8f" sha1="6efdd822ec8e82d92a328fe700e0ff6b38d2c454" />
<rom name="VF_KIDS (Track 09).bin" size="26803392" crc="97f689c9" md5="b891434587edfdc80ce802780cddb198" sha1="d4a2ff363049e1c8d03b6f88a265716f6839c0b0" />
<rom name="VF_KIDS (Track 10).bin" size="27306720" crc="3fe86e00" md5="778b649d4f037bb90bb3d0b9870de15d" sha1="a6583a9f699170b99da8b1755ecc88683337c29a" />
<rom name="VF_KIDS (Track 11).bin" size="26991552" crc="0b6dc74c" md5="51e9a6f0c3a995348e11acdba7ed65ba" sha1="4ddffd82b09f9a0e559b61b077bde963cfbb74a1" />
<rom name="VF_KIDS (Track 12).bin" size="26862192" crc="4b818024" md5="72360005aada45193a1d8d8f2d6b6f93" sha1="4503f7b1e26b4000849fc2b3d21b05d8585187d9" />
<rom name="VF_KIDS (Track 13).bin" size="25316928" crc="e3f7cbf7" md5="fa40fd68ec2f3af328c3a4a1952e096e" sha1="06c377b210443d97cef40b9061733c3cdb64182e" />
<rom name="VF_KIDS (Track 14).bin" size="11197872" crc="42b9dff9" md5="b2b1b9c75700606bd4025aa85a274b2e" sha1="41e46eb5572de4041fc02828547e050ad8b9ae4c" />
<rom name="VF_KIDS (Track 15).bin" size="1058400" crc="ee0538d9" md5="4822c0011a705fc0229f8df4354276b3" sha1="31411348cb59a421d895213acd5acb0ffd14856b" />
<rom name="VF_KIDS (Track 16).bin" size="2991744" crc="93fa10bc" md5="3e9d97e9da6ac2d356a95976114f89b2" sha1="58aaf55f185b0c3043e5f6c5a7be5b1de31a3ff6" />
<rom name="VF_KIDS (Track 17).bin" size="8377824" crc="530c25c1" md5="e101a6864ac00d7a13c30be4d639229a" sha1="5dfac3d2fa6b4ae00700b1368dce3a37667088ea" />
<rom name="VF_KIDS (Track 18).bin" size="1418256" crc="29e63405" md5="dedc8c07196ba165219a6d883c28950d" sha1="44b17b2393d9e08e5bce990142a687f5ab686027" />
<rom name="VF_KIDS (Track 19).bin" size="1613472" crc="5f44dcd3" md5="59eb8c77a82a420693f56d51c5b768e2" sha1="d1aa4b8ecfd09b5153606a75d87f7e7466496045" />
<rom name="VF_KIDS (Track 20).bin" size="2436672" crc="2535dcd0" md5="df8be77abf447fd951f800df6747d22b" sha1="8648eb252f669c04ea356d3a5d2eb99d2329b35d" />

DICUI 1.10 + DIC (20180630 31122)

http://redump.org/disc/10126/
dic/subdump logs

differences from db:
cue: pregap of Track 3
hash: Track 2 and 3

Title: Virtua Fighter Kids
Disc Number / Letter: -
Disc Title: -
System: Sega Saturn
Media Type: CD-ROM
Category: Games
Region: Japan
Languages: 
Disc Serial: GS-9098 (Sega ID: 670-8808) 
Build Date: 1996-05-01
Ringcode Information:
    Mastering Ring: GS-9098P-00944-P1K   V
    Mastering SID Code: IFPI L237
    Mould SID Code: IFPI4011
    Additional Mould: -
    Toolstamp or Mastering Code: 23
Barcode: 4 974365 090982
Error Count: 0
Comments: -
Contents: -
Version: V0.001
Edition/Release: Original
Header:

0000 : 53 45 47 41 20 53 45 47 41 53 41 54 55 52 4E 20   SEGA SEGASATURN 
0010 : 53 45 47 41 20 45 4E 54 45 52 50 52 49 53 45 53   SEGA ENTERPRISES
0020 : 47 53 2D 39 30 37 39 20 20 20 56 30 2E 30 30 31   GS-9079   V0.001
0030 : 31 39 39 36 30 35 30 31 43 44 2D 31 2F 31 20 20   19960501CD-1/1  
0040 : 4A 54 20 20 20 20 20 20 20 20 20 20 20 20 20 20   JT              
0050 : 4A 20 20 20 20 20 20 20 20 20 20 20 20 20 20 20   J               
0060 : 56 46 2E 20 4B 49 44 53 20 20 20 20 20 20 20 20   VF. KIDS        
0070 : 20 20 20 20 20 20 20 20 20 20 20 20 20 20 20 20                   
0080 : 20 20 20 20 20 20 20 20 20 20 20 20 20 20 20 20                   
0090 : 20 20 20 20 20 20 20 20 20 20 20 20 20 20 20 20                   
00A0 : 20 20 20 20 20 20 20 20 20 20 20 20 20 20 20 20                   
00B0 : 20 20 20 20 20 20 20 20 20 20 20 20 20 20 20 20                   
00C0 : 20 20 20 20 20 20 20 20 20 20 20 20 20 20 20 20                   
00D0 : 00 00 00 00 00 00 00 00 00 00 00 00 00 00 00 00   
00E0 : 00 00 80 00 00 00 00 00 00 00 00 00 00 00 00 00   
00F0 : 06 00 40 00 00 00 00 00 00 00 00 00 00 00 00 00   

Primary Volume Descriptor (PVD):

0320 : 20 20 20 20 20 20 20 20  20 20 20 20 20 31 39 39                199
0330 : 36 30 36 32 38 30 30 35  39 34 35 30 30 14 31 39   6062800594500.19
0340 : 39 36 30 36 32 38 30 30  35 39 34 35 30 30 14 30   96062800594500.0
0350 : 30 30 30 30 30 30 30 30  30 30 30 30 30 30 30 00   000000000000000.
0360 : 30 30 30 30 30 30 30 30  30 30 30 30 30 30 30 30   0000000000000000
0370 : 00 01 00 00 00 00 00 00  00 00 00 00 00 00 00 00   ................

Cuesheet:

CATALOG 0000000000000
FILE "VF_KIDS (Track 01).bin" BINARY
  TRACK 01 MODE1/2352
    INDEX 01 00:00:00
FILE "VF_KIDS (Track 02).bin" BINARY
  TRACK 02 AUDIO
    INDEX 00 00:00:00
    INDEX 01 00:02:00
FILE "VF_KIDS (Track 03).bin" BINARY
  TRACK 03 AUDIO
    INDEX 00 00:00:00
    INDEX 01 00:02:00
FILE "VF_KIDS (Track 04).bin" BINARY
  TRACK 04 AUDIO
    INDEX 00 00:00:00
    INDEX 01 00:01:74
FILE "VF_KIDS (Track 05).bin" BINARY
  TRACK 05 AUDIO
    INDEX 00 00:00:00
    INDEX 01 00:01:74
FILE "VF_KIDS (Track 06).bin" BINARY
  TRACK 06 AUDIO
    INDEX 00 00:00:00
    INDEX 01 00:01:74
FILE "VF_KIDS (Track 07).bin" BINARY
  TRACK 07 AUDIO
    INDEX 00 00:00:00
    INDEX 01 00:01:74
FILE "VF_KIDS (Track 08).bin" BINARY
  TRACK 08 AUDIO
    INDEX 00 00:00:00
    INDEX 01 00:01:74
FILE "VF_KIDS (Track 09).bin" BINARY
  TRACK 09 AUDIO
    INDEX 00 00:00:00
    INDEX 01 00:01:74
FILE "VF_KIDS (Track 10).bin" BINARY
  TRACK 10 AUDIO
    INDEX 00 00:00:00
    INDEX 01 00:01:74
FILE "VF_KIDS (Track 11).bin" BINARY
  TRACK 11 AUDIO
    INDEX 00 00:00:00
    INDEX 01 00:01:74
FILE "VF_KIDS (Track 12).bin" BINARY
  TRACK 12 AUDIO
    INDEX 00 00:00:00
    INDEX 01 00:01:74
FILE "VF_KIDS (Track 13).bin" BINARY
  TRACK 13 AUDIO
    INDEX 00 00:00:00
    INDEX 01 00:01:74
FILE "VF_KIDS (Track 14).bin" BINARY
  TRACK 14 AUDIO
    INDEX 00 00:00:00
    INDEX 01 00:01:74
FILE "VF_KIDS (Track 15).bin" BINARY
  TRACK 15 AUDIO
    INDEX 00 00:00:00
    INDEX 01 00:01:74
FILE "VF_KIDS (Track 16).bin" BINARY
  TRACK 16 AUDIO
    INDEX 00 00:00:00
    INDEX 01 00:01:74
FILE "VF_KIDS (Track 17).bin" BINARY
  TRACK 17 AUDIO
    INDEX 00 00:00:00
    INDEX 01 00:01:74
FILE "VF_KIDS (Track 18).bin" BINARY
  TRACK 18 AUDIO
    INDEX 00 00:00:00
    INDEX 01 00:01:74
FILE "VF_KIDS (Track 19).bin" BINARY
  TRACK 19 AUDIO
    INDEX 00 00:00:00
    INDEX 01 00:01:74
FILE "VF_KIDS (Track 20).bin" BINARY
  TRACK 20 AUDIO
    INDEX 00 00:00:00
    INDEX 01 00:01:74

Write Offset: 684

DAT:

<rom name="VF_KIDS (Track 01).bin" size="184290960" crc="7b5caa4c" md5="60dc010de2cd684a4a07aa8c52616d1b" sha1="4493150657714862cbba91786378d4cb2cbbefbd" />
<rom name="VF_KIDS (Track 02).bin" size="26445888" crc="3cd72eff" md5="24f10c89536f14809a051bc1130bdf48" sha1="773f022b2e2b44d9de0a1861f61e768e4eac428e" />
<rom name="VF_KIDS (Track 03).bin" size="24446688" crc="60bbc0b0" md5="be8d8abc0e1bf1aadea6b47dc79915a2" sha1="8c51ef35f6b3189188604bedc4626aaca82d8ba3" />
<rom name="VF_KIDS (Track 04).bin" size="24757152" crc="5c11c873" md5="6de68f9bd844f2f960ed6ab8ac81316a" sha1="ae62c32d53cb0d3cec6bb3c7484d56704de55593" />
<rom name="VF_KIDS (Track 05).bin" size="24310272" crc="a6d54d94" md5="5e6d04a4774941ed3ff1184dc21d9ab8" sha1="a6dabc392a51a49eaf00e6f71a4f7e3b765c3e4c" />
<rom name="VF_KIDS (Track 06).bin" size="29115408" crc="20af2410" md5="46dd82fa1233dbffdcb05983628e7a0a" sha1="8bfc69542d214677107542babcf3fd8cefdd9458" />
<rom name="VF_KIDS (Track 07).bin" size="24486672" crc="a81316fe" md5="b662e3ac70187933e34258dd9481ab86" sha1="bd003f285adfe5098fca1d233678958470265696" />
<rom name="VF_KIDS (Track 08).bin" size="23785776" crc="fb59cbd6" md5="a133a23986bcec183d9413086ed23b8f" sha1="6efdd822ec8e82d92a328fe700e0ff6b38d2c454" />
<rom name="VF_KIDS (Track 09).bin" size="26803392" crc="97f689c9" md5="b891434587edfdc80ce802780cddb198" sha1="d4a2ff363049e1c8d03b6f88a265716f6839c0b0" />
<rom name="VF_KIDS (Track 10).bin" size="27306720" crc="3fe86e00" md5="778b649d4f037bb90bb3d0b9870de15d" sha1="a6583a9f699170b99da8b1755ecc88683337c29a" />
<rom name="VF_KIDS (Track 11).bin" size="26991552" crc="0b6dc74c" md5="51e9a6f0c3a995348e11acdba7ed65ba" sha1="4ddffd82b09f9a0e559b61b077bde963cfbb74a1" />
<rom name="VF_KIDS (Track 12).bin" size="26862192" crc="4b818024" md5="72360005aada45193a1d8d8f2d6b6f93" sha1="4503f7b1e26b4000849fc2b3d21b05d8585187d9" />
<rom name="VF_KIDS (Track 13).bin" size="25316928" crc="e3f7cbf7" md5="fa40fd68ec2f3af328c3a4a1952e096e" sha1="06c377b210443d97cef40b9061733c3cdb64182e" />
<rom name="VF_KIDS (Track 14).bin" size="11197872" crc="42b9dff9" md5="b2b1b9c75700606bd4025aa85a274b2e" sha1="41e46eb5572de4041fc02828547e050ad8b9ae4c" />
<rom name="VF_KIDS (Track 15).bin" size="1058400" crc="ee0538d9" md5="4822c0011a705fc0229f8df4354276b3" sha1="31411348cb59a421d895213acd5acb0ffd14856b" />
<rom name="VF_KIDS (Track 16).bin" size="2991744" crc="93fa10bc" md5="3e9d97e9da6ac2d356a95976114f89b2" sha1="58aaf55f185b0c3043e5f6c5a7be5b1de31a3ff6" />
<rom name="VF_KIDS (Track 17).bin" size="8377824" crc="530c25c1" md5="e101a6864ac00d7a13c30be4d639229a" sha1="5dfac3d2fa6b4ae00700b1368dce3a37667088ea" />
<rom name="VF_KIDS (Track 18).bin" size="1418256" crc="29e63405" md5="dedc8c07196ba165219a6d883c28950d" sha1="44b17b2393d9e08e5bce990142a687f5ab686027" />
<rom name="VF_KIDS (Track 19).bin" size="1613472" crc="5f44dcd3" md5="59eb8c77a82a420693f56d51c5b768e2" sha1="d1aa4b8ecfd09b5153606a75d87f7e7466496045" />
<rom name="VF_KIDS (Track 20).bin" size="2436672" crc="2535dcd0" md5="df8be77abf447fd951f800df6747d22b" sha1="8648eb252f669c04ea356d3a5d2eb99d2329b35d" />
fuzzball wrote:

DICUI(1.10) extracts Sega Saturn's PVD from sector 0.

It has already been fixed.
https://github.com/reignstumble/DICUI/issues/118

DICUI(1.10) extracts Sega Saturn's PVD from sector 0.

!submissionInfo.txt

Primary Volume Descriptor (PVD):

0320 : 52 F1 72 02 1F 21 51 F2  71 FF 1F 12 21 18 8B F0   R.r..!Q.q...!...
0330 : 7F 14 00 0B 00 09 00 90  06 00 2D 80 06 00 2D 84   ..........-...-.
0340 : 06 00 2D 7C 25 F8 00 00  7F E0 D3 15 1F 37 E3 00   ..-|%........7..
0350 : 1F 33 E3 00 1F 32 D3 13  1F 31 E3 00 2F 32 A0 12   .3...2...1../2..
0360 : 00 09 52 F7 72 04 1F 27  72 FC 63 22 52 F3 32 3C   ..R.r..'r.c"R.2<
0370 : 1F 23 53 F2 23 2A 1F 32  53 F2 51 F1 31 38 1F 11   .#S.#*.2S.Q.18..

mainInfo.txt

========== LBA[000000, 0000000]: Main Channel ==========
       +0 +1 +2 +3 +4 +5 +6 +7  +8 +9 +A +B +C +D +E +F
0000 : 53 45 47 41 20 53 45 47  41 53 41 54 55 52 4E 20   SEGA SEGASATURN 
0010 : 53 45 47 41 20 54 50 20  54 2D 31 32 20 20 20 20   SEGA TP T-12    
    :
0320 : 52 F1 72 02 1F 21 51 F2  71 FF 1F 12 21 18 8B F0   R.r..!Q.q...!...
0330 : 7F 14 00 0B 00 09 00 90  06 00 2D 80 06 00 2D 84   ..........-...-.
0340 : 06 00 2D 7C 25 F8 00 00  7F E0 D3 15 1F 37 E3 00   ..-|%........7..
0350 : 1F 33 E3 00 1F 32 D3 13  1F 31 E3 00 2F 32 A0 12   .3...2...1../2..
0360 : 00 09 52 F7 72 04 1F 27  72 FC 63 22 52 F3 32 3C   ..R.r..'r.c"R.2<
0370 : 1F 23 53 F2 23 2A 1F 32  53 F2 51 F1 31 38 1F 11   .#S.#*.2S.Q.18..
    :
07E0 : 3C 2B 45 7C 1B 47 98 E1  76 25 34 44 23 35 79 D0   <+E|.G..v%4D#5y.
07F0 : 57 9F 13 E1 64 44 44 44  4F 1E E1 64 44 44 44 4F   W...dDDDO..dDDDO
========== LBA[000016, 0x00010]: Main Channel ==========
       +0 +1 +2 +3 +4 +5 +6 +7  +8 +9 +A +B +C +D +E +F
0000 : 01 43 44 30 30 31 01 00  53 45 47 41 20 53 45 47   .CD001..SEGA SEG
0010 : 41 53 41 54 55 52 4E 20  20 20 20 20 20 20 20 20   ASATURN         
    :
0320 : 20 20 20 20 20 20 20 20  20 20 20 20 20 31 39 39                199
0330 : 36 30 32 30 36 31 37 32  31 35 35 30 30 DC 31 39   6020617215500.19
0340 : 39 36 30 32 30 36 31 37  32 31 35 35 30 30 DC 30   96020617215500.0
0350 : 30 30 30 30 30 30 30 30  30 30 30 30 30 30 30 00   000000000000000.
0360 : 30 30 30 30 30 30 30 30  30 30 30 30 30 30 30 30   0000000000000000
0370 : 00 01 00 00 00 00 00 00  00 00 00 00 00 00 00 00   ................
    :

And a little, "Build date" format is YYYY-MM-DD.

F1ReB4LL wrote:

SS cover also says Moujiya for もうぢや - https://segaretro.org/images/f/f7/RPGM_ … x_Back.jpg

Is Saturn's spine reliable? (unlike PlayStation)

8

(15 replies, posted in Fixes & additions)

sarami wrote:

That is to say, otōsan is otousan, ōkami is ookami.

It is not pronunciation.

By the way, I closed this topic.
Please do not comment.

I'm tired.
I will never have an opinion on all naming.

If I were reborn, I will study English seriously.

10

(8 replies, posted in Fixes & additions)

F1ReB4LL wrote:
fuzzball wrote:

Pronunciation(Hepburn) is "mōja".

Why? There's a city in Japan, おぢや, reads as "Ojiya", not "Oja".

This is not a simple substitution.
For example:
けふ -> きょう(今日)
とうきやう -> とうきょう(東京)

Also, the origin of this title name is probably "金の亡者(Kane no Mouja)".

I can not explain anymore.

http://redump.org/disc/31394/

"もうぢや" is a historical kana orthography(歴史的仮名遣).
https://en.wikipedia.org/wiki/Historica … rthography

Historical kana orthography: もうぢ
Modern kana usage: もうぢ

Pronunciation(Hepburn) is "mōja".
Therefore, "Mouja" is correct.

*edited: "じ" to "ぢ"

12

(5 replies, posted in Fixes & additions)

"Taikenban" is part of the title.
should fix it.

13

(15 replies, posted in Fixes & additions)

closed

14

(15 replies, posted in Fixes & additions)

deleted

15

(15 replies, posted in Fixes & additions)

deleted

16

(15 replies, posted in Fixes & additions)

deleted

17

(15 replies, posted in Fixes & additions)

deleted

18

(15 replies, posted in Fixes & additions)

deleted

19

(15 replies, posted in Fixes & additions)

deleted

20

(1 replies, posted in Fixes & additions)

addition

PVD:

0320 : 20 20 20 20 20 20 20 20  20 20 20 20 20 32 30 30                200
0330 : 32 30 31 32 37 30 31 30  31 30 32 30 30 24 30 30   2012701010200$00
0340 : 30 30 30 30 30 30 30 30  30 30 30 30 30 30 00 30   00000000000000.0
0350 : 30 30 30 30 30 30 30 30  30 30 30 30 30 30 30 00   000000000000000.
0360 : 30 30 30 30 30 30 30 30  30 30 30 30 30 30 30 30   0000000000000000
0370 : 00 01 00 00 00 00 00 00  00 00 00 00 00 00 00 00   ................

21

(1 replies, posted in Fixes & additions)

Harukanaru Toki no Naka de 2
http://redump.org/disc/22262/

NG: 2002-01-25
OK: 2002-01-27

F1ReB4LL wrote:
Lizard wrote:

Mobile Suit Gundam - Version 2.0 (Japan) (v1.0) http://redump.org/disc/6472/
SID Code: IFPI L275
Mastering Code: SLPS-00280  7
Mould SID Code: IFPI 454A

What's the disc front serial? 00280 or 00281? This one is quite confusing, I've thought there was some kind of error, because this one's internal serial is 00281 and v1.1 is 00280.


As far as I can remember, this title has interesting serials.

23

(2 replies, posted in Fixes & additions)

F1ReB4LL wrote:

"Means" or "reads as"? Do you pronounce "to" when you read this title?

means "from Tokyo to Nanki Shirahama" in English. wink
and reads as "Tokyo kara Nanki Shirahama".

24

(2 replies, posted in Fixes & additions)

@F1ReB4LL

Nishimura Kyoutarou Travel Mystery: Akugyaku no Kisetsu: Tokyo: Nanki Shirahama Renzoku Satsujin Jiken
http://redump.org/disc/14150/
http://redump.org/disc/14149/

I think the colon is inappropriate because "東京~南紀白浜" means "Tokyo to Nanki Shirahama".

25

(0 replies, posted in Fixes & additions)

http://redump.org/disc/40868/

x: 4 582224 491414
o: 4582224491414

not separated.