1

(0 replies, posted in Verifications)

Additions: Gokan Pack Serial

System: Fujitsu FM Towns series
Media: CD-ROM
Title: Galaxy Force II
Foreign title: 
Disc number/letter: -
Disc title: -
Category: Games
Region: Japan
Languages: 
Serial: HMB-168
Ring:
  Mastering Code: HMB-168<tab>1
  Mastering SID Code: IFPI L274
  Toolstamp or Mastering Code: -
  Mould SID Code: IFPI 4509
  Additional Mould Text: S M J
Write offset: +2
Barcode: 
EXE date: 1991-01-28
Errors count: edccchk:0, DIC:0, CDMage:0
Comments: 
  db: http://redump.org/disc/11110/
  logs: https://www.mediafire.com/file/895we6ntu1lu4s4
  Gokan Pack Serial: T2072 (from manual)
  Version is from CRI.DOC
  EXE date:
    1991-01-28T16:34:48+00:00 (GF2.EXP)
    1991-01-28T16:34:45+00:00 (RUN386.EXE)
Contents: -
Version: 1.00
Editions/Releases: CRI Gokan Pack

Primary Volume Descriptor (PVD):
0320 : 20 20 20 20 20 20 20 20  20 20 20 20 20 31 39 39                199
0330 : 31 30 31 32 38 31 36 33  31 35 39 30 30 00 31 39   1012816315900.19
0340 : 39 31 30 31 32 38 31 36  33 36 34 30 30 30 00 30   91012816364000.0
0350 : 30 30 30 30 30 30 30 30  30 30 30 30 30 30 30 00   000000000000000.
0360 : 30 30 30 30 30 30 30 30  30 30 30 30 30 30 30 30   0000000000000000
0370 : 00 01 00 00 00 00 00 00  00 00 00 00 00 00 00 00   ................

ClrMamePro data:
<rom name="dic (Track 01).bin" size="20815200" crc="c12ad545" md5="2bb11d0030625372d89c2b2a2df9315f" sha1="9b601a87c2323d90c5f91b382279e8a627f9db6f" />
<rom name="dic (Track 02).bin" size="16976736" crc="491d7d44" md5="04ed3b69276e2f0cab1acb46b857bdb3" sha1="f56f220690854344c5fc8eca1d6d0a94f22ca428" />
<rom name="dic (Track 03).bin" size="19149984" crc="dbed371e" md5="69fe06a8415d704b16570a10d820fb54" sha1="c42b4f485330f66bce17d2a5e875aa0471880859" />
<rom name="dic (Track 04).bin" size="56647920" crc="0f464575" md5="6e8e672cfd502abb2ebe0ceffdbc3ccc" sha1="4642bf42309efa653bc9adac6f9c263e155c089d" />
<rom name="dic (Track 05).bin" size="56784336" crc="bb298d3a" md5="5bc08771117218ac447134566be3a53a" sha1="bc7cc41c1b96b3dc4f11d46542546e4772522124" />
<rom name="dic (Track 06).bin" size="59928960" crc="f9f46110" md5="26a53c488a1fea053a93726138d45b30" sha1="1697a3cf9a328ec0a9d4c62e5079eb15112c9468" />
<rom name="dic (Track 07).bin" size="57746304" crc="aceb768a" md5="9a9a81815249ed84d2c9a44e0ce062d5" sha1="a3f9165b029768aa4ea5ff8594a560c706ff7a8c" />
<rom name="dic (Track 08).bin" size="65056320" crc="c3c5bc9f" md5="a11fc962de5ef694767d14dd7504b575" sha1="16e68b558949fa55d6016ccd0a82044b6fe602c2" />
<rom name="dic (Track 09).bin" size="26984496" crc="81cdb2a6" md5="61b4416777e67e03a5043cb9940c7832" sha1="5fcc390382b07a4983237cf7def7f95e6990810c" />
<rom name="dic (Track 10).bin" size="25124064" crc="ccf99476" md5="e9aeece01e2bc62f2ddbcb88f6ac8c71" sha1="358d9da776e2dc479e21570d58a602d9d9755007" />

Cuesheet:
FILE "dic (Track 01).bin" BINARY
  TRACK 01 MODE1/2352
    INDEX 01 00:00:00
FILE "dic (Track 02).bin" BINARY
  TRACK 02 AUDIO
    INDEX 00 00:00:00
    INDEX 01 00:02:00
FILE "dic (Track 03).bin" BINARY
  TRACK 03 AUDIO
    INDEX 01 00:00:00
FILE "dic (Track 04).bin" BINARY
  TRACK 04 AUDIO
    INDEX 01 00:00:00
FILE "dic (Track 05).bin" BINARY
  TRACK 05 AUDIO
    INDEX 01 00:00:00
FILE "dic (Track 06).bin" BINARY
  TRACK 06 AUDIO
    INDEX 01 00:00:00
FILE "dic (Track 07).bin" BINARY
  TRACK 07 AUDIO
    INDEX 01 00:00:00
FILE "dic (Track 08).bin" BINARY
  TRACK 08 AUDIO
    INDEX 01 00:00:00
FILE "dic (Track 09).bin" BINARY
  TRACK 09 AUDIO
    INDEX 01 00:00:00
FILE "dic (Track 10).bin" BINARY
  TRACK 10 AUDIO
    INDEX 01 00:00:00

https://static.mercdn.net/item/detail/o … 9471_2.jpg
This is probably an error. (Initial version?)

http://redump.org/disc/66127/

https://i.postimg.cc/k2K8Lp16/towns-after-burner-manual-back.jpg

1. Maximum Power*
2. Final Take Off*
3. After Burner*
4. City 202
5. Red Out
6. Super Stripe
Music Arranged by Haruhiko Noda* & Norio Hanzawa

Turbo Out Run

in title screen
https://i.postimg.cc/0MXQKk4M/towns-turbo-out-run.png


in CRI.DOC

TURBO  OUT  RUN
  for FM-TOWNS
    Ver.1.01

5

(0 replies, posted in Fixes & additions)

"F-BASIC" and "386" are not separate.
The correct title is "F-BASIC386".

http://redump.org/discs/quicksearch/basic-386/

Why is the title not fixed?

http://redump.org/disc/64836/
http://forum.redump.org/topic/24827/add … run-japan/

7

(1 replies, posted in Fixes & additions)

Maki wrote:

PC -> Macintosh?

Win/Mac hybrid
http://forum.redump.org/topic/17762/add … diablo-ii/

8

(2 replies, posted in General discussion)

bump

https://www.sie.com/content/dam/corpora … 10910c.pdf
https://www.sie.com/content/dam/corpora … 50203b.pdf

bump

10

(9 replies, posted in General discussion)

Has the rule changed?

@sadikyo
If it has not been changed, please discard EXE date change.

11

(8 replies, posted in General discussion)

need to fix the foreign title of Wizardry V

12

(8 replies, posted in General discussion)

I see. I respect the title screen and the size of the logo.

13

(8 replies, posted in General discussion)

new one
http://redump.org/disc/65174/

14

(0 replies, posted in General discussion)

I want to search the data including the Japan region.
Can J (Japan) region contain J,*? (J,A (Japan, Asia), J,E (Japan, Europe), etc.)
Or is there any other way?

15

(8 replies, posted in General discussion)

Why is the original title used instead of the Japanese title?

http://redump.org/disc/39005/
http://redump.org/disc/64842/

Also, "災禍の中心" will not appear in the TOWNS version of Wizardry V.
http://redump.org/disc/40347/

16

(9 replies, posted in General discussion)

I do not have an opinion and follow the decided rules.

17

(9 replies, posted in General discussion)

Has it changed?

http://redump.org/disc/4496/changes/
http://forum.redump.org/post/73059/#p73059

https://i.postimg.cc/18TwQMvQ/GS-9044.jpg

Understood. I don't care.

http://redump.org/disc/28974/
http://redump.org/disc/49977/
http://redump.org/disc/52682/
http://redump.org/disc/52683/
etc.

21

(0 replies, posted in Guests & account requests)

I need an account for DICUI.
username: fuzzball_for_dicui

I noticed that the cause was login by DICUI.

There are no unread posts recently.

DICUI 1.12.2 + DIC (20190326 220739)
http://redump.org/disc/24187/
all hashes match
dic/subdump logs

Title: Sega International: Victory Goal
Disc Number / Letter: -
Disc Title: -
System: Sega Saturn
Media Type: CD-ROM
Category: Games
Region: Japan
Languages: 
Disc Serial: GS-9044 (Sega ID: 670-7174)
Build Date: 1995-08-21
Ringcode Information:
    Mastering Code (laser branded/etched): GS-9044P-00460[TAB]5MB1[TAB]C[TAB]59[TAB]Y
    Mastering SID Code: IFPI L223
    Data-Side Mould SID Code: IFPI 3903
    Label-Side Mould SID Code: -
    Additional Mould: -
    Toolstamp or Mastering Code (engraved/stamped): -
Barcode: 
Error Count: 0
Comments: -
Contents: -
Version: V1.000
Edition/Release: Original
Header:

0000 : 53 45 47 41 20 53 45 47  41 53 41 54 55 52 4E 20   SEGA SEGASATURN 
0010 : 53 45 47 41 20 45 4E 54  45 52 50 52 49 53 45 53   SEGA ENTERPRISES
0020 : 47 53 2D 39 30 34 34 20  20 20 56 31 2E 30 30 30   GS-9044   V1.000
0030 : 31 39 39 35 30 38 32 31  43 44 2D 31 2F 31 20 20   19950821CD-1/1  
0040 : 4A 54 55 20 20 20 20 20  20 20 20 20 20 20 20 20   JTU             
0050 : 4A 54 20 20 20 20 20 20  20 20 20 20 20 20 20 20   JT              
0060 : 53 45 47 41 20 20 20 20  20 20 20 20 20 20 20 20   SEGA            
0070 : 49 4E 54 45 52 4E 41 54  49 4F 4E 41 4C 20 20 20   INTERNATIONAL   
0080 : 56 49 43 54 4F 52 59 20  47 4F 41 4C 20 20 20 20   VICTORY GOAL    
0090 : 4A 41 50 41 4E 20 20 20  20 20 20 20 20 20 20 20   JAPAN           
00A0 : 20 20 20 20 20 20 20 20  20 20 20 20 20 20 20 20                   
00B0 : 20 20 20 20 20 20 20 20  20 20 20 20 20 20 20 20                   
00C0 : 20 20 20 20 20 20 20 20  20 20 20 20 20 20 20 20                   
00D0 : 00 00 00 00 00 00 00 00  00 00 00 00 00 00 00 00   ................
00E0 : 00 00 80 00 00 00 00 00  06 0F FF FC 00 00 00 00   ................
00F0 : 06 00 A0 00 00 00 00 00  00 00 00 00 00 00 00 00   ................

Primary Volume Descriptor (PVD):

0320 : 20 20 20 20 20 20 20 20  20 20 20 20 20 31 39 39                199
0330 : 35 30 38 32 38 30 30 34  31 34 31 30 30 14 31 39   5082800414100.19
0340 : 39 35 30 38 32 38 30 30  34 31 34 31 30 30 14 30   95082800414100.0
0350 : 30 30 30 30 30 30 30 30  30 30 30 30 30 30 30 00   000000000000000.
0360 : 30 30 30 30 30 30 30 30  30 30 30 30 30 30 30 30   0000000000000000
0370 : 00 01 00 00 00 00 00 00  00 00 00 00 00 00 00 00   ................

DAT:

<rom name="SEGA_INTERNATIONAL_VICTORY_GOAL_JAPAN (Track 01).bin" size="170602320" crc="61d6dd6c" md5="c672aa3298e6bfec3233b82aa09343bd" sha1="d7259cce415bdee2027a186b50d731efcbb4b655" />
<rom name="SEGA_INTERNATIONAL_VICTORY_GOAL_JAPAN (Track 02).bin" size="5804736" crc="17085bd1" md5="9d79663cdb7c73cc74c960eba47dd2b8" sha1="05ec01ad44f38466c76086890078711ffab322f5" />
<rom name="SEGA_INTERNATIONAL_VICTORY_GOAL_JAPAN (Track 03).bin" size="22351056" crc="543aa25c" md5="578583520cb73a750056f479292aa62d" sha1="7aa61a570e96352586273ba207aa4d87462d0069" />
<rom name="SEGA_INTERNATIONAL_VICTORY_GOAL_JAPAN (Track 04).bin" size="34094592" crc="2fe64871" md5="9227a4e8ff42cac9504bcb3f82b8769e" sha1="761d7d4152a2a22008fbbdb4d4cf00a06dcf8b59" />
<rom name="SEGA_INTERNATIONAL_VICTORY_GOAL_JAPAN (Track 05).bin" size="33697104" crc="a4c82ada" md5="3739ad075d79dcda0a4f7a50d97e2e1d" sha1="c55abaa30cc231ebb64597afbe756fc4ef8452eb" />
<rom name="SEGA_INTERNATIONAL_VICTORY_GOAL_JAPAN (Track 06).bin" size="33744144" crc="2fdabdea" md5="d70ec088e5da3a8e9f40ac5e743e3ad6" sha1="d417e20da1dcb627b83be84e54dc8c174295e3ab" />
<rom name="SEGA_INTERNATIONAL_VICTORY_GOAL_JAPAN (Track 07).bin" size="45137232" crc="96610be7" md5="3687917083603a19a0706b2f73c9b30d" sha1="8aefe5bef98c0b53787382cc5d1d89f2bf904491" />
<rom name="SEGA_INTERNATIONAL_VICTORY_GOAL_JAPAN (Track 08).bin" size="39602976" crc="9420221c" md5="7dd1a183c9ce598a7e71746a624e252f" sha1="b12dbcc59cd6edd8507a8e2e4de903a044b79440" />
<rom name="SEGA_INTERNATIONAL_VICTORY_GOAL_JAPAN (Track 09).bin" size="43234464" crc="15ddded8" md5="08166510a943005f24090469abbbc2dd" sha1="3db97fccf921d9514e422d8da0bbdb51ffd5a9d2" />
<rom name="SEGA_INTERNATIONAL_VICTORY_GOAL_JAPAN (Track 10).bin" size="33231408" crc="7ebca968" md5="5eb09f4b4d588ac642afd6a796e63087" sha1="60493fe6edbb6ea749fa3d6e40eef85e7a9ee969" />
<rom name="SEGA_INTERNATIONAL_VICTORY_GOAL_JAPAN (Track 11).bin" size="23472960" crc="1b4a7a81" md5="035d6c7560c31db1e44a8cac7dfa9403" sha1="33037e12caff65cb1842d2a42b730e68a369f3de" />
<rom name="SEGA_INTERNATIONAL_VICTORY_GOAL_JAPAN (Track 12).bin" size="23261280" crc="288d3e24" md5="17ab4a739f53f253c77ec5b9e3f4b558" sha1="a61b5ad3b3ab26e0349f1a58346e04316a5548a6" />
<rom name="SEGA_INTERNATIONAL_VICTORY_GOAL_JAPAN (Track 13).bin" size="3502128" crc="afc8ae50" md5="7a9bdb0600ecf6daf444e6c279739688" sha1="a6457c138658241eab6861ce894c0081ba6fa7df" />
<rom name="SEGA_INTERNATIONAL_VICTORY_GOAL_JAPAN (Track 14).bin" size="15744288" crc="c1fd63d6" md5="6fc71ada65da1f4e02bc6d9637c3b91d" sha1="7ce7fca7be2ec26b90b53637f5e7c83bcafcb332" />

Cuesheet:

CATALOG 0000000000000
FILE "SEGA_INTERNATIONAL_VICTORY_GOAL_JAPAN (Track 01).bin" BINARY
  TRACK 01 MODE1/2352
    INDEX 01 00:00:00
FILE "SEGA_INTERNATIONAL_VICTORY_GOAL_JAPAN (Track 02).bin" BINARY
  TRACK 02 AUDIO
    INDEX 00 00:00:00
    INDEX 01 00:02:00
FILE "SEGA_INTERNATIONAL_VICTORY_GOAL_JAPAN (Track 03).bin" BINARY
  TRACK 03 AUDIO
    INDEX 00 00:00:00
    INDEX 01 00:02:00
FILE "SEGA_INTERNATIONAL_VICTORY_GOAL_JAPAN (Track 04).bin" BINARY
  TRACK 04 AUDIO
    INDEX 00 00:00:00
    INDEX 01 00:02:00
FILE "SEGA_INTERNATIONAL_VICTORY_GOAL_JAPAN (Track 05).bin" BINARY
  TRACK 05 AUDIO
    INDEX 00 00:00:00
    INDEX 01 00:02:00
FILE "SEGA_INTERNATIONAL_VICTORY_GOAL_JAPAN (Track 06).bin" BINARY
  TRACK 06 AUDIO
    INDEX 00 00:00:00
    INDEX 01 00:02:00
FILE "SEGA_INTERNATIONAL_VICTORY_GOAL_JAPAN (Track 07).bin" BINARY
  TRACK 07 AUDIO
    INDEX 00 00:00:00
    INDEX 01 00:02:00
FILE "SEGA_INTERNATIONAL_VICTORY_GOAL_JAPAN (Track 08).bin" BINARY
  TRACK 08 AUDIO
    INDEX 00 00:00:00
    INDEX 01 00:02:00
FILE "SEGA_INTERNATIONAL_VICTORY_GOAL_JAPAN (Track 09).bin" BINARY
  TRACK 09 AUDIO
    INDEX 00 00:00:00
    INDEX 01 00:02:00
FILE "SEGA_INTERNATIONAL_VICTORY_GOAL_JAPAN (Track 10).bin" BINARY
  TRACK 10 AUDIO
    INDEX 00 00:00:00
    INDEX 01 00:02:00
FILE "SEGA_INTERNATIONAL_VICTORY_GOAL_JAPAN (Track 11).bin" BINARY
  TRACK 11 AUDIO
    INDEX 00 00:00:00
    INDEX 01 00:02:00
FILE "SEGA_INTERNATIONAL_VICTORY_GOAL_JAPAN (Track 12).bin" BINARY
  TRACK 12 AUDIO
    INDEX 00 00:00:00
    INDEX 01 00:02:00
FILE "SEGA_INTERNATIONAL_VICTORY_GOAL_JAPAN (Track 13).bin" BINARY
  TRACK 13 AUDIO
    INDEX 00 00:00:00
    INDEX 01 00:02:00
FILE "SEGA_INTERNATIONAL_VICTORY_GOAL_JAPAN (Track 14).bin" BINARY
  TRACK 14 AUDIO
    INDEX 00 00:00:00
    INDEX 01 00:02:00

Write Offset: 0

25

(2,258 replies, posted in General discussion)

darksabre76 wrote:

DICUI is fixed now in WIP builds. The error file was renamed between builds. This has been addressed. If anything like this comes up again, please ping on Discord in the #discimagecreator channel. I rarely look in this thread for DICUI related anything.

Thank you for the quick fix.
I do not use Discord, so I will report on GitHub.