Sadikyo can you describe your process please? i had one PSX disc that worked good and another one that didnt worked completly.

yea that is the reupload of the first post for normal disc, I didnt find the pics for the PSX one

I thought i have lost all the images and couldnt put them online again but luckily i found them today and here there are again.

https://i.imgur.com/LMWDOyR.jpg
https://i.imgur.com/ijXCFxb.jpg
https://i.imgur.com/kKtIj2B.jpg
https://i.imgur.com/Kaf8L2y.jpg
https://i.imgur.com/HQeDPqA.jpg
https://i.imgur.com/o3uFc2i.jpg
https://i.imgur.com/YHTwrYQ.jpg
https://i.imgur.com/360UBBz.jpg
https://i.imgur.com/n7sz4c4.jpg

iR0b0t wrote:

A randomly generated password has been sent to your email, please change it upon login.

url for password change

Keep in mind that wiki usernames begin with a capitalized letter.
(XTMODX)
^^ I made it all upper case letters, hope its okay with you, i thought it was probably the best case smile

Thanks, yea that is best case smile

Hi i would like to update the ibm pc MIA list here http://wiki.redump.org/index.php?title= … atible_MIA and need an account for that.
Thanks

6

(3,100 replies, posted in General discussion)

sarami wrote:
xTMODx wrote:

when i try dump only track 1 with isobuster it stops at sector 97208 (93%) with Error: 03/11/05

Then, do you dump only track 2, 3, 4 and 5 by Isobuster?

Track 2 it dumped to 93% and then stopped
Track 3 didnt start dumping
Track 4 didnt start dumping
Track 5 didnt start dumping

Edit: maybe my disc is too old and cant be dumped...
If you have no ideas i wont dump this disc then

7

(3,100 replies, posted in General discussion)

sarami wrote:
xTMODx wrote:

Disc has 5 tracks and also a ring on the data side, isobuster dump takes very long dont know if i have to cancel this

According to the log, LBA 115010 is not a data sector. Do you dump only track 1 by Isobuster?

when i try dump only track 1 with isobuster it stops at sector 97208 (93%) with Error: 03/11/05
when i cancel the process isobuster crash

8

(3,100 replies, posted in General discussion)

sarami wrote:
xTMODx wrote:

i have a problem dumping a disc it stop with this error

Try other app (isobuster, clonecd, etc.)

Disc has 5 tracks and also a ring on the data side, isobuster dump takes very long dont know if i have to cancel this

it is this disc https://www.ebay.de/itm/Kommissar-Kugel … 3181902862

but i have this cover https://www.ebay.de/itm/Kommissar-Kugel … 4109801439 but they dont ship outside germany

9

(3,100 replies, posted in General discussion)

hey sarami i have a problem dumping a disc it stop with this error

https://i.imgur.com/uPCJViv.jpg

logs https://gofile.io/?c=XI2K6a

10

(3,100 replies, posted in General discussion)

sarami wrote:
xTMODx wrote:

i couldnt mount with both daemon tools and alcohol 52%

Character set was unrelated.

IEC 60908:1999 wrote:

The size of a character string is recommended to be less than 160 bytes.

This means single-byte character can show 160 letters, double-byte character can show 80 bytes.
Old DIC had stored 80 bytes for single-byte character, so app crashed due to the short of buf size.

It seems Alcohol 120/52% has same(?) problem. If you want to mount the image with your cue,
1. delete the line of TITLE "Missi Moppel. Detektivin für alle Fälle. Das Geheimnis im Turmzimmer und andere Rätselhaftigkeiten CD1"
2. comment out like this

REM TITLE "Missi Moppel. Detektivin für alle Fälle. Das Geheimnis im Turmzimmer und andere Rätselhaftigkeiten CD1"

3. report the bug to the author of Alcohol 120/52% and wait for this problem to be fixed.

Anyway, the cue is correct.

that helped many thanks for your help!!

11

(3,100 replies, posted in General discussion)

sarami wrote:

TEXT is correct.

TITLE "Missi Moppel. Detektivin für alle Fälle. Das Geheimnis im Turmzimmer und andere Rätselhaftigkeiten CD1"
TITLE "Was man vorweg über Missi Moppel wissen sollte I"
xTMODx wrote:

but i cant moun the image with the cue, any help here?

What tool do you use? Daemon tools? Alcohol 120/52%? Anyway, if tool you use doesn't support Latin-1, you need to convert to other charactor set (unicode etc.)

i couldnt mount with both daemon tools and alcohol 52% here the image for testing https://www.mediafire.com/file/vd7ikq1g … /1.7z/file

12

(3,100 replies, posted in General discussion)

sarami wrote:
sarami wrote:
xTMODx wrote:

i have problem with an audio cd, DIC crash at the end... i can't mount the dump, it looks like the cue file is broken because of CDTEXT.

Perhaps, it needs unicode. I'll support it.

It's ISO/IEC8859-1 (aka Latin-1), not unicode.

http://www.mediafire.com/file/eq80y20l9 … st.7z/file
- fixed: buf size of CDTEXT

thanks for fixing it, the dump finish without error now and cue looks fine i think? but i cant moun the image with the cue, any help here?

log files https://www.mediafire.com/file/vrjt78wu … cd.7z/file

13

(3,100 replies, posted in General discussion)

Hi sarami, i have problem with an audio cd, DIC crash at the end... i can't mount the dump, it looks like the cue file is broken because of CDTEXT. here the logs https://www.mediafire.com/file/tbzmj99q … ue.7z/file

Edit: updated link

disc http://redump.org/disc/40793/

https://abload.de/img/13zj76.jpg

logs https://www.mediafire.com/file/ygz7l70d … s1.7z/file

Jackal wrote:

Yeah the dump itself seems to be fine now, but there's still 1 problem with the cuesheet: http://redump.org/disc/39048/

Session 1: 0-92629
Session 2: 104030-332133

The cuesheet has:

REM SESSION 01
FILE "dump (Track 1).bin" BINARY
  TRACK 01 MODE1/2352
    INDEX 01 00:00:00
REM LEAD-OUT 01:30:00
REM SESSION 02
REM LEAD-IN 01:00:00
FILE "dump (Track 2).bin" BINARY
  TRACK 02 MODE2/2352
    INDEX 01 00:00:00
FILE "dump (Track 3).bin" BINARY
  TRACK 03 AUDIO
    INDEX 00 00:00:00
    INDEX 01 00:01:74
FILE "dump (Track 4).bin" BINARY
  TRACK 04 AUDIO
    INDEX 00 00:00:00
    INDEX 01 00:01:74

The area between the 2 sessions is 92630 - 104029 = 11400 sectors = 02:32:00, so the Track 2 pregap of 2 seconds is still unaccounted for in the cuesheet. How to define it, since it's not included in the dump? PREGAP 02:00 / REM PREGAP 02:00?


@xTMODx do you have this disc also still? http://redump.org/disc/40793/

Or does anyone else have some more discs to test? Just to confirm that there's no weird stuff going on.

yea i have it i will dump it later today

sarami wrote:

Uploaded test ver. (download's link is same.)

download link is updated and it produce the hash from the db now. thanks

uploaded the log files, can someone check the log files if everything is fine now... the big "_mainError.txt" bug is fixed too

https://www.mediafire.com/file/jqyi2yvj … /3.7z/file

dumped with new version, it still doesnt match the db, here the log files
https://www.mediafire.com/file/r4l14zjv … /2.7z/file

Jackal wrote:
sarami wrote:

Also fixed.

Fixed where? And what about the wrong track01 size? wink

he send me the link with pm but he queoted it here http://www.mediafire.com/file/eq80y20l9 … st.7z/file

sarami wrote:
xTMODx wrote:
sarami wrote:

Some were fixed. http://www.mediafire.com/file/eq80y20l9 … st.7z/file
But perhaps all bug haven't fixed yet.

thanks it produce same result as the previous release

Thanks.

Jackal wrote:

The LEAD-OUT seems to be in the wrong place also?

Also fixed.

----
Some dumpers dump multisessional disc and lead-out length's is 6750 (01:30:00)
http://forum.redump.org/post/69590/#p69590
REM LEAD-OUT and REM LEAD-IN is still needed?

oh wait i think i missed something. I only compared the .dat file and they looks same. but now i have checked the cues and it fixed some stuff.

old cue

REM SESSION 01
FILE "dump (Track 1).bin" BINARY
  TRACK 01 MODE1/2352
    INDEX 01 00:00:00
REM SESSION 02
FILE "dump (Track 2).bin" BINARY
  TRACK 02 AUDIO
    INDEX 00 00:00:00
    INDEX 01 23:07:05
FILE "dump (Track 3).bin" BINARY
  TRACK 03 AUDIO
    INDEX 00 00:00:00
    INDEX 01 00:01:74
REM LEAD-OUT 01:30:00
FILE "dump (Track 4).bin" BINARY
  TRACK 04 AUDIO
    INDEX 00 00:00:00
    INDEX 01 00:01:74

new cue

REM SESSION 01
FILE "dump (Track 1).bin" BINARY
  TRACK 01 MODE1/2352
    INDEX 01 00:00:00
REM LEAD-OUT 01:30:00
REM SESSION 02
FILE "dump (Track 2).bin" BINARY
  TRACK 02 MODE2/2352
    INDEX 00 00:00:00
    INDEX 01 23:07:05
FILE "dump (Track 3).bin" BINARY
  TRACK 03 AUDIO
    INDEX 00 00:00:00
    INDEX 01 00:01:74
FILE "dump (Track 4).bin" BINARY
  TRACK 04 AUDIO
    INDEX 00 00:00:00
    INDEX 01 00:01:74

Dump is complete now but only track 2 is matching crc from the db.
In the cue file track 2 is Audio but should be Data/Mode 2.
_mainError.txt is 1,67gb big i will upload with it and without it
Dumped with PX-716A

https://abload.de/img/17vk9o.jpg

with _mainError.txt
https://ufile.io/76zmfz0o

without _mainError.txt
https://www.mediafire.com/file/xl7c12s6 … ut.7z/file

it is a different error now
PX-716A
https://abload.de/img/1fejhi.jpg

PX-760A
https://abload.de/img/11hk6f.jpg

and the logs https://www.mediafire.com/file/9oj3vbc4 … 60.7z/file

my first dump with the latest version using PX-716A and PX-760A drive on both same error
https://abload.de/img/19bj70.jpg

logs https://www.mediafire.com/file/87rd6iik … st.7z/file

i will try later today to dump this http://redump.org/disc/39048/ if i not forget it

24

(2 replies, posted in General discussion)

the first is the pegi id you can search for the game here with the id https://pegi.info/

25

(3,100 replies, posted in General discussion)

sarami wrote:

As cmd says,
1. If your disc has scratches, it needs to be polished
2. Try to dump with different drive speed
3. Try to dump with different drive

If the problem isn't solved, you can use this.

Option (for CD SubChannel)
          /nq     Not fix SubQ

i have tried with the /nq option and the plextor 712 drive but DIC crashed then, but with the plextor premium it worked perfectly even without the /nq option