Existing: http://redump.org/disc/32764/
Title: Wings of Honour: Battles of the Red Baron
Disc Number / Letter: (OPTIONAL)
Disc Title: (OPTIONAL)
System: IBM PC Compatible
Media Type: CD-ROM
Category: Games
Region: Europe
Languages: Not checked
Disc Serial: (REQUIRED, IF EXISTS)
Ringcode Information:
    Mastering Code (laser branded/etched): VEGCD 4273   Vegart
    Mastering SID Code: (REQUIRED, IF EXISTS)
    Label-Side Mould SID Code: (REQUIRED, IF EXISTS)
    Data-Side Mould SID Code: (REQUIRED, IF EXISTS)
    Additional Mould: (REQUIRED, IF EXISTS)
    Toolstamp or Mastering Code (engraved/stamped): (REQUIRED, IF EXISTS)
Barcode: 5 906961 198679
ISBN: (OPTIONAL)
Error Count: 0
Comments: (OPTIONAL)
Contents: (OPTIONAL)
Version: (REQUIRED, IF EXISTS)
Edition/Release: Original
Primary Volume Descriptor (PVD):

0320 : 20 20 20 20 20 20 20 20  20 20 20 20 20 32 30 30                200
0330 : 36 30 36 32 31 31 35 34  32 30 30 30 30 08 32 30   6062115420000.20
0340 : 30 36 30 36 32 31 31 35  34 32 30 30 30 30 08 30   06062115420000.0
0350 : 30 30 30 30 30 30 30 30  30 30 30 30 30 30 30 00   000000000000000.
0360 : 30 30 30 30 30 30 30 30  30 30 30 30 30 30 30 30   0000000000000000
0370 : 00 01 00 00 00 00 00 00  00 00 00 00 00 00 00 00   ................

Copy Protection: None found

DAT:

<rom name="WingsOfHonourBOTRB.bin" size="382533984" crc="537e3c7e" md5="393de820adf7e6a0b32c8e1de91bd5cc" sha1="7760d0aa0f147ecc7c51c7194b969ce9d891b5d5" />

Cuesheet:

FILE "WingsOfHonourBOTRB.bin" BINARY
  TRACK 01 MODE1/2352
    INDEX 01 00:00:00

Write Offset: 0

Added via new disc form

Title: Savage Reign ~ Fūun Mokushiroku: Kakutou Sousei
風雲黙示録 ~格闘創世~
Disc Number / Letter: (OPTIONAL)
Disc Title: (OPTIONAL)
System: SNK Neo Geo CD
Media Type: CD-ROM
Category: Games
Region: Japan
Languages: English, Japanese, Spanish, Portuguese
Disc Serial: NGCD-059
Ringcode Information:
    Mastering Ring: NGCD-059 MT    B01
    Mastering SID Code: IFPI L262
    Mould SID Code: IFPI 4405
    Additional Mould: L
    Toolstamp or Mastering Code: (REQUIRED, IF EXISTS)
Barcode (Obi): T4964808 50069 7
Error Count: 0
Comments: (OPTIONAL)
Contents: (OPTIONAL)
Version: (REQUIRED, IF EXISTS)
Edition/Release: Original
Primary Volume Descriptor (PVD):

0320 : 20 20 20 20 20 20 20 20  20 20 20 20 20 31 39 39                199
0330 : 35 30 36 30 32 31 37 33  30 32 30 30 30 00 31 39   5060217302000.19
0340 : 39 35 30 36 30 32 31 37  33 30 32 30 30 30 00 30   95060217302000.0
0350 : 30 30 30 30 30 30 30 30  30 30 30 30 30 30 30 00   000000000000000.
0360 : 31 39 39 35 30 36 30 32  31 37 33 30 32 30 30 30   1995060217302000
0370 : 00 01 00 00 00 00 00 00  00 00 00 00 00 00 00 00   ................

Cuesheet:

FILE "SavageReign (Track 01).bin" BINARY
  TRACK 01 MODE1/2352
    FLAGS DCP
    INDEX 01 00:00:00
    INDEX 02 00:04:00
    INDEX 03 00:08:00
    INDEX 04 00:12:00
    INDEX 05 00:16:00
    INDEX 06 00:20:00
    INDEX 07 00:24:00
    INDEX 08 00:28:00
    INDEX 09 00:32:00
    INDEX 10 00:36:00
    INDEX 11 00:40:00
    INDEX 12 00:44:00
    INDEX 13 00:48:00
    INDEX 14 00:52:00
    INDEX 15 00:56:00
    INDEX 16 01:00:00
    INDEX 17 01:04:00
    INDEX 18 01:08:00
    INDEX 19 01:12:00
    INDEX 20 01:16:00
    INDEX 21 01:20:00
    INDEX 22 01:24:00
    INDEX 23 01:28:00
    INDEX 24 01:32:00
    INDEX 25 01:36:00
    INDEX 26 01:40:00
    INDEX 27 01:44:00
    INDEX 28 01:48:00
    INDEX 29 01:52:00
    INDEX 30 01:56:00
    INDEX 31 02:00:00
    INDEX 32 02:04:00
    INDEX 33 02:08:00
    INDEX 34 02:12:00
    INDEX 35 02:16:00
    INDEX 36 02:20:00
    INDEX 37 02:24:00
    INDEX 38 02:28:00
    INDEX 39 02:32:00
    INDEX 40 02:36:00
    INDEX 41 02:40:00
    INDEX 42 02:44:00
    INDEX 43 02:48:00
    INDEX 44 02:52:00
    INDEX 45 02:56:00
    INDEX 46 03:00:00
    INDEX 47 03:04:00
    INDEX 48 03:08:00
    INDEX 49 03:12:00
    INDEX 50 03:16:00
    INDEX 51 03:20:00
    INDEX 52 03:24:00
    INDEX 53 03:28:00
    INDEX 54 03:32:00
    INDEX 55 03:36:00
    INDEX 56 03:40:00
    INDEX 57 03:44:00
    INDEX 58 03:48:00
    INDEX 59 03:52:00
    INDEX 60 03:56:00
    INDEX 61 04:00:00
    INDEX 62 04:04:00
    INDEX 63 04:08:00
    INDEX 64 04:12:00
    INDEX 65 04:16:00
    INDEX 66 04:20:00
    INDEX 67 04:24:00
    INDEX 68 04:28:00
    INDEX 69 04:32:00
    INDEX 70 04:36:00
    INDEX 71 04:40:00
    INDEX 72 04:44:00
    INDEX 73 04:48:00
    INDEX 74 04:52:00
    INDEX 75 04:56:00
    INDEX 76 05:00:00
    INDEX 77 05:04:00
    INDEX 78 05:08:00
    INDEX 79 05:12:00
    INDEX 80 05:16:00
    INDEX 81 05:20:00
    INDEX 82 05:24:00
    INDEX 83 05:28:00
    INDEX 84 05:32:00
    INDEX 85 05:36:00
FILE "SavageReign (Track 02).bin" BINARY
  TRACK 02 AUDIO
    FLAGS DCP
    INDEX 00 00:00:00
    INDEX 01 00:03:00
FILE "SavageReign (Track 03).bin" BINARY
  TRACK 03 AUDIO
    FLAGS DCP
    INDEX 01 00:00:00
FILE "SavageReign (Track 04).bin" BINARY
  TRACK 04 AUDIO
    FLAGS DCP
    INDEX 01 00:00:00
FILE "SavageReign (Track 05).bin" BINARY
  TRACK 05 AUDIO
    FLAGS DCP
    INDEX 01 00:00:00
FILE "SavageReign (Track 06).bin" BINARY
  TRACK 06 AUDIO
    FLAGS DCP
    INDEX 01 00:00:00
FILE "SavageReign (Track 07).bin" BINARY
  TRACK 07 AUDIO
    FLAGS DCP
    INDEX 01 00:00:00
FILE "SavageReign (Track 08).bin" BINARY
  TRACK 08 AUDIO
    FLAGS DCP
    INDEX 01 00:00:00
FILE "SavageReign (Track 09).bin" BINARY
  TRACK 09 AUDIO
    FLAGS DCP
    INDEX 01 00:00:00
FILE "SavageReign (Track 10).bin" BINARY
  TRACK 10 AUDIO
    FLAGS DCP
    INDEX 01 00:00:00
FILE "SavageReign (Track 11).bin" BINARY
  TRACK 11 AUDIO
    FLAGS DCP
    INDEX 01 00:00:00
FILE "SavageReign (Track 12).bin" BINARY
  TRACK 12 AUDIO
    FLAGS DCP
    INDEX 01 00:00:00
FILE "SavageReign (Track 13).bin" BINARY
  TRACK 13 AUDIO
    FLAGS DCP
    INDEX 01 00:00:00
FILE "SavageReign (Track 14).bin" BINARY
  TRACK 14 AUDIO
    FLAGS DCP
    INDEX 01 00:00:00
FILE "SavageReign (Track 15).bin" BINARY
  TRACK 15 AUDIO
    FLAGS DCP
    INDEX 01 00:00:00
FILE "SavageReign (Track 16).bin" BINARY
  TRACK 16 AUDIO
    FLAGS DCP
    INDEX 01 00:00:00
FILE "SavageReign (Track 17).bin" BINARY
  TRACK 17 AUDIO
    FLAGS DCP
    INDEX 01 00:00:00
FILE "SavageReign (Track 18).bin" BINARY
  TRACK 18 AUDIO
    FLAGS DCP
    INDEX 01 00:00:00
FILE "SavageReign (Track 19).bin" BINARY
  TRACK 19 AUDIO
    FLAGS DCP
    INDEX 01 00:00:00
FILE "SavageReign (Track 20).bin" BINARY
  TRACK 20 AUDIO
    FLAGS DCP
    INDEX 01 00:00:00
FILE "SavageReign (Track 21).bin" BINARY
  TRACK 21 AUDIO
    FLAGS DCP
    INDEX 01 00:00:00
FILE "SavageReign (Track 22).bin" BINARY
  TRACK 22 AUDIO
    FLAGS DCP
    INDEX 01 00:00:00
FILE "SavageReign (Track 23).bin" BINARY
  TRACK 23 AUDIO
    FLAGS DCP
    INDEX 01 00:00:00
FILE "SavageReign (Track 24).bin" BINARY
  TRACK 24 AUDIO
    FLAGS DCP
    INDEX 01 00:00:00
FILE "SavageReign (Track 25).bin" BINARY
  TRACK 25 AUDIO
    FLAGS DCP
    INDEX 01 00:00:00
FILE "SavageReign (Track 26).bin" BINARY
  TRACK 26 AUDIO
    FLAGS DCP
    INDEX 01 00:00:00
FILE "SavageReign (Track 27).bin" BINARY
  TRACK 27 AUDIO
    FLAGS DCP
    INDEX 01 00:00:00
FILE "SavageReign (Track 28).bin" BINARY
  TRACK 28 AUDIO
    FLAGS DCP
    INDEX 01 00:00:00
FILE "SavageReign (Track 29).bin" BINARY
  TRACK 29 AUDIO
    FLAGS DCP
    INDEX 01 00:00:00
FILE "SavageReign (Track 30).bin" BINARY
  TRACK 30 AUDIO
    FLAGS DCP
    INDEX 01 00:00:00
FILE "SavageReign (Track 31).bin" BINARY
  TRACK 31 AUDIO
    FLAGS DCP
    INDEX 01 00:00:00
FILE "SavageReign (Track 32).bin" BINARY
  TRACK 32 AUDIO
    FLAGS DCP
    INDEX 01 00:00:00
FILE "SavageReign (Track 33).bin" BINARY
  TRACK 33 AUDIO
    FLAGS DCP
    INDEX 01 00:00:00
FILE "SavageReign (Track 34).bin" BINARY
  TRACK 34 AUDIO
    FLAGS DCP
    INDEX 01 00:00:00
FILE "SavageReign (Track 35).bin" BINARY
  TRACK 35 AUDIO
    FLAGS DCP
    INDEX 01 00:00:00

Write Offset: 2

DAT:

<rom name="SavageReign (Track 01).bin" size="59562048" crc="89074587" md5="ed12060f02e8347ce639261943d2ad27" sha1="610515a22118f4c2593969cf39531c2ec8569c93" />
<rom name="SavageReign (Track 02).bin" size="7180656" crc="f0eba4d9" md5="d80f6da29ed83c8fdb004ec68cd35d7c" sha1="c1e1e76d9cd0bb05667d1b6637800dae7729272e" />
<rom name="SavageReign (Track 03).bin" size="9565584" crc="7f4198c6" md5="668af8c942d6d9672808a4fb2b6f62c9" sha1="0a520c05993d6b65732ba6b0926d3b1dd867d1a6" />
<rom name="SavageReign (Track 04).bin" size="12345648" crc="f872ddc9" md5="59643f813e5a58a7b0d6f3009e3de08a" sha1="1d7fd3714830d3b091bd3fa36342736ccbe035c4" />
<rom name="SavageReign (Track 05).bin" size="4123056" crc="073c740c" md5="2d261977cf1cd130e8832ed6780cff46" sha1="46159128ffb84aa4876c75d591e622e9828101bc" />
<rom name="SavageReign (Track 06).bin" size="2415504" crc="c832453f" md5="c477979f9dcc84d0de82439fedeb4dd4" sha1="2786ad667c0b3fe55304e73fa3e538a71faccb61" />
<rom name="SavageReign (Track 07).bin" size="3368064" crc="fddd2987" md5="ad9a1198c816260a3d99cbcee699050c" sha1="505635b17881e27c8ccd0e87117ae96364619738" />
<rom name="SavageReign (Track 08).bin" size="18837168" crc="64045236" md5="b8dbd56accc43dfe2488343da1f40823" sha1="c882c87f47bd4a506a85cd85c15dc05a83663858" />
<rom name="SavageReign (Track 09).bin" size="35924448" crc="5d701087" md5="c259f9c37470826cd3369a7fd929f656" sha1="38dfe3016abb325243cf5720b11661eb607ba5b3" />
<rom name="SavageReign (Track 10).bin" size="2354352" crc="ad2df538" md5="d6eb144044d14406346264ac9421b5c3" sha1="dc8d91b422cb25f51a209fb3e69742c70d295048" />
<rom name="SavageReign (Track 11).bin" size="35275296" crc="ca287cd1" md5="770e2839d06d6d4a3bbfd8d9c29335b1" sha1="199688e38fb5bcd0cac8448603b9e43122502a23" />
<rom name="SavageReign (Track 12).bin" size="34348608" crc="67ce0a68" md5="2602d3413529bb457e17238d5e1e9f60" sha1="1cee9f505a9d00b414741ebac8157cb54165c495" />
<rom name="SavageReign (Track 13).bin" size="2354352" crc="ad2df538" md5="d6eb144044d14406346264ac9421b5c3" sha1="dc8d91b422cb25f51a209fb3e69742c70d295048" />
<rom name="SavageReign (Track 14).bin" size="35912688" crc="eed26f3d" md5="7cbae3104faa823f57d3319794128c90" sha1="8e84347810c3f87c8e323be9f51939cdeaa54655" />
<rom name="SavageReign (Track 15).bin" size="34717872" crc="e176d6ad" md5="5b09deff12810e53613a8e6dc0723577" sha1="0ad45633c9e0d1209fdc66fe9557ec13089f3de9" />
<rom name="SavageReign (Track 16).bin" size="2354352" crc="ad2df538" md5="d6eb144044d14406346264ac9421b5c3" sha1="dc8d91b422cb25f51a209fb3e69742c70d295048" />
<rom name="SavageReign (Track 17).bin" size="35432880" crc="c1095ef0" md5="c5f44bb70d5c358659a0d06c8fa494f7" sha1="b7728648d0f1d2c4b20da477060f0f965fb0fb0e" />
<rom name="SavageReign (Track 18).bin" size="34903680" crc="46eb5d30" md5="ec074825cd7dc6424d99a4d79587bc39" sha1="d19f3f0d0a15def0dd314ff904d22d6439d44e36" />
<rom name="SavageReign (Track 19).bin" size="2354352" crc="ad2df538" md5="d6eb144044d14406346264ac9421b5c3" sha1="dc8d91b422cb25f51a209fb3e69742c70d295048" />
<rom name="SavageReign (Track 20).bin" size="34045200" crc="b1ea6d68" md5="c8dc96e66568c8ac7867961342fc97bc" sha1="7e6f89f1c50db42133cd59095d0c9964a11bf00a" />
<rom name="SavageReign (Track 21).bin" size="34278048" crc="e940cd6b" md5="eeeab247a0ad81ea3366e75acaf5a84e" sha1="fb9ab1bb3d2cdded3ec74dab75ea7f169cfd2d7f" />
<rom name="SavageReign (Track 22).bin" size="2354352" crc="ad2df538" md5="d6eb144044d14406346264ac9421b5c3" sha1="dc8d91b422cb25f51a209fb3e69742c70d295048" />
<rom name="SavageReign (Track 23).bin" size="33445440" crc="dff61a7f" md5="dd51ea91a5c5d6fc27dd9393fbb0eed6" sha1="aefef5b44d8c64b69d5ba534bb0b88ca1488f437" />
<rom name="SavageReign (Track 24).bin" size="5315520" crc="c58f8f3b" md5="0931e0f723573ec823a598cbaff82042" sha1="384985ce7c677e6fb24995814259f9141386d06e" />
<rom name="SavageReign (Track 25).bin" size="9095184" crc="63c79454" md5="55f37a4526e8a323666686e2102b1152" sha1="b8b70e8cbd88eeb01ee52accc90ff52541794da1" />
<rom name="SavageReign (Track 26).bin" size="2648352" crc="04a4677d" md5="6c284b889f2ff744c2b72fbf15414d73" sha1="af1ad592b4fa26cc90b81248e4c6eb5e03c49fbe" />
<rom name="SavageReign (Track 27).bin" size="33092640" crc="c8eaabb7" md5="4d48fd51fd2f4b2ed5a210880cff36c2" sha1="71b2665dee1b2982771d2fefc7988a33ee7bf52b" />
<rom name="SavageReign (Track 28).bin" size="12355056" crc="82422142" md5="83eb90e062695ae163244a12d1c7bfe6" sha1="1db85f89453bc3f223ffac95b0cc31d358a6ca5c" />
<rom name="SavageReign (Track 29).bin" size="12625536" crc="f1e6302a" md5="749d7833aa95a94e9d0ad9bd7c953238" sha1="03f904400a58e4563e1f789b090745f835863c6e" />
<rom name="SavageReign (Track 30).bin" size="17635296" crc="db945db2" md5="3a2d3bf1e168cad76efdebf46ddbc673" sha1="90d21a2da995c13c636050b75124d392c60adb8b" />
<rom name="SavageReign (Track 31).bin" size="4708704" crc="f1b46d89" md5="12c3425d25c18851c7142a0da4bc02a9" sha1="b3f3871cfba085d95b2b4876fd64765d7a077774" />
<rom name="SavageReign (Track 32).bin" size="18670176" crc="dee8b65e" md5="08eff5ddf4835c905460eb0017efd2c3" sha1="4a5ec9d61d92a41823217eebca0f4c6b160f1de5" />
<rom name="SavageReign (Track 33).bin" size="17385984" crc="0467f5bc" md5="f297059285b0116f3951a046324d6085" sha1="06557ef03ea9b747b68942c76cfd0ffd62403da4" />
<rom name="SavageReign (Track 34).bin" size="12907776" crc="c1ee8fb0" md5="27bbc8b9680a069f2c782811e6bb845c" sha1="2153d3937a899dd62124bff11224c2ed08be59eb" />
<rom name="SavageReign (Track 35).bin" size="21076272" crc="b32d4cbe" md5="bd0d9a442c47ab0626554f2f25dba761" sha1="52a8ae41a72848003aa3bce8b5b3719764569f1e" />

Logs: https://mega.nz/#!FYRjiQRZ!YbFJyzP0RUky … s9C0gWLWfQ

Added via new disc form

Title: The Last Blade 2 ~ Bakumatsu Rouman Dai Ni Maku: Gekka no Kenshi - Tsuki ni Saku Hana, Chiri Yuku Hana
幕末浪漫第二幕 月華の剣士 ~月に咲く華、散りゆく花~
Disc Number / Letter: (OPTIONAL)
Disc Title: (OPTIONAL)
System: SNK Neo Geo CD
Media Type: CD-ROM
Category: Games
Region: Japan
Languages: English, Japanese, Spanish, Portuguese
Disc Serial: NGCD-2430
Ringcode Information:
    Mastering Ring: NGCD-2430 MT    A03
    Mastering SID Code: IFPI L261
    Mould SID Code: IFPI 4479
    Additional Mould: (REQUIRED, IF EXISTS)
    Toolstamp or Mastering Code: (REQUIRED, IF EXISTS)
Barcode (Obi): T4964808 50108 3
Error Count: 0
Comments: (OPTIONAL)
Contents: (OPTIONAL)
Version: (REQUIRED, IF EXISTS)
Edition/Release: Original
Primary Volume Descriptor (PVD):

0320 : 20 20 20 20 20 20 20 20  20 20 20 20 20 31 39 39                199
0330 : 39 30 32 30 34 32 32 33  39 35 39 30 30 00 31 39   9020422395900.19
0340 : 39 39 30 32 30 34 32 32  33 39 35 39 30 30 00 69   99020422395900.i
0350 : 70 00 00 00 70 0A 00 30  32 30 34 31 39 30 30 00   p...p..02041900.
0360 : 69 64 00 00 00 64 0B 00  00 70 0A 00 69 70 30 30   id...d...p..ip00
0370 : 00 01 00 00 00 00 00 00  00 00 00 00 00 00 00 00   ................

Cuesheet:

FILE "LastBlade2 (Track 01).bin" BINARY
  TRACK 01 MODE1/2352
    INDEX 01 00:00:00
    INDEX 02 00:04:00
    INDEX 03 00:08:00
    INDEX 04 00:12:00
    INDEX 05 00:16:00
    INDEX 06 00:20:00
    INDEX 07 00:24:00
    INDEX 08 00:28:00
    INDEX 09 00:32:00
    INDEX 10 00:36:00
    INDEX 11 00:40:00
    INDEX 12 00:44:00
    INDEX 13 00:48:00
    INDEX 14 00:52:00
    INDEX 15 00:56:00
    INDEX 16 01:00:00
    INDEX 17 01:04:00
    INDEX 18 01:08:00
    INDEX 19 01:12:00
    INDEX 20 01:16:00
    INDEX 21 01:20:00
    INDEX 22 01:24:00
    INDEX 23 01:28:00
    INDEX 24 01:32:00
    INDEX 25 01:36:00
    INDEX 26 01:40:00
    INDEX 27 01:44:00
    INDEX 28 01:48:00
    INDEX 29 01:52:00
    INDEX 30 01:56:00
    INDEX 31 02:00:00
    INDEX 32 02:04:00
    INDEX 33 02:08:00
    INDEX 34 02:12:00
    INDEX 35 02:16:00
    INDEX 36 02:20:00
    INDEX 37 02:24:00
    INDEX 38 02:28:00
    INDEX 39 02:32:00
    INDEX 40 02:36:00
    INDEX 41 02:40:00
    INDEX 42 02:44:00
    INDEX 43 02:48:00
    INDEX 44 02:52:00
    INDEX 45 02:56:00
    INDEX 46 03:00:00
    INDEX 47 03:04:00
    INDEX 48 03:08:00
    INDEX 49 03:12:00
    INDEX 50 03:16:00
    INDEX 51 03:20:00
    INDEX 52 03:24:00
    INDEX 53 03:28:00
    INDEX 54 03:32:00
    INDEX 55 03:36:00
    INDEX 56 03:40:00
    INDEX 57 03:44:00
    INDEX 58 03:48:00
    INDEX 59 03:52:00
    INDEX 60 03:56:00
    INDEX 61 04:00:00
    INDEX 62 04:04:00
    INDEX 63 04:08:00
    INDEX 64 04:12:00
    INDEX 65 04:16:00
    INDEX 66 04:20:00
    INDEX 67 04:24:00
    INDEX 68 04:28:00
    INDEX 69 04:32:00
    INDEX 70 04:36:00
    INDEX 71 04:40:00
    INDEX 72 04:44:00
    INDEX 73 04:48:00
    INDEX 74 04:52:00
    INDEX 75 04:56:00
    INDEX 76 05:00:00
    INDEX 77 05:04:00
    INDEX 78 05:08:00
    INDEX 79 05:12:00
    INDEX 80 05:16:00
    INDEX 81 05:20:00
    INDEX 82 05:24:00
    INDEX 83 05:28:00
    INDEX 84 05:32:00
    INDEX 85 05:36:00
    INDEX 86 05:40:00
    INDEX 87 05:44:00
    INDEX 88 05:48:00
    INDEX 89 05:52:00
    INDEX 90 05:56:00
    INDEX 91 06:00:00
    INDEX 92 06:04:00
    INDEX 93 06:08:00
    INDEX 94 06:12:00
    INDEX 95 06:16:00
    INDEX 96 06:20:00
    INDEX 97 06:24:00
    INDEX 98 06:28:00
    INDEX 99 06:32:00
FILE "LastBlade2 (Track 02).bin" BINARY
  TRACK 02 AUDIO
    INDEX 00 00:00:00
    INDEX 01 00:03:00
FILE "LastBlade2 (Track 03).bin" BINARY
  TRACK 03 AUDIO
    INDEX 00 00:00:00
    INDEX 01 00:02:00
FILE "LastBlade2 (Track 04).bin" BINARY
  TRACK 04 AUDIO
    INDEX 00 00:00:00
    INDEX 01 00:02:00
FILE "LastBlade2 (Track 05).bin" BINARY
  TRACK 05 AUDIO
    INDEX 00 00:00:00
    INDEX 01 00:02:00
FILE "LastBlade2 (Track 06).bin" BINARY
  TRACK 06 AUDIO
    INDEX 00 00:00:00
    INDEX 01 00:02:00
FILE "LastBlade2 (Track 07).bin" BINARY
  TRACK 07 AUDIO
    INDEX 00 00:00:00
    INDEX 01 00:02:00
FILE "LastBlade2 (Track 08).bin" BINARY
  TRACK 08 AUDIO
    INDEX 00 00:00:00
    INDEX 01 00:02:00
FILE "LastBlade2 (Track 09).bin" BINARY
  TRACK 09 AUDIO
    INDEX 00 00:00:00
    INDEX 01 00:02:00
FILE "LastBlade2 (Track 10).bin" BINARY
  TRACK 10 AUDIO
    INDEX 00 00:00:00
    INDEX 01 00:02:00
FILE "LastBlade2 (Track 11).bin" BINARY
  TRACK 11 AUDIO
    INDEX 00 00:00:00
    INDEX 01 00:02:00
FILE "LastBlade2 (Track 12).bin" BINARY
  TRACK 12 AUDIO
    INDEX 00 00:00:00
    INDEX 01 00:02:00
FILE "LastBlade2 (Track 13).bin" BINARY
  TRACK 13 AUDIO
    INDEX 00 00:00:00
    INDEX 01 00:02:00
FILE "LastBlade2 (Track 14).bin" BINARY
  TRACK 14 AUDIO
    INDEX 00 00:00:00
    INDEX 01 00:02:00
FILE "LastBlade2 (Track 15).bin" BINARY
  TRACK 15 AUDIO
    INDEX 00 00:00:00
    INDEX 01 00:02:00
FILE "LastBlade2 (Track 16).bin" BINARY
  TRACK 16 AUDIO
    INDEX 00 00:00:00
    INDEX 01 00:02:00
FILE "LastBlade2 (Track 17).bin" BINARY
  TRACK 17 AUDIO
    INDEX 00 00:00:00
    INDEX 01 00:02:00
FILE "LastBlade2 (Track 18).bin" BINARY
  TRACK 18 AUDIO
    INDEX 00 00:00:00
    INDEX 01 00:02:00
FILE "LastBlade2 (Track 19).bin" BINARY
  TRACK 19 AUDIO
    INDEX 00 00:00:00
    INDEX 01 00:02:00
FILE "LastBlade2 (Track 20).bin" BINARY
  TRACK 20 AUDIO
    INDEX 00 00:00:00
    INDEX 01 00:02:00
FILE "LastBlade2 (Track 21).bin" BINARY
  TRACK 21 AUDIO
    INDEX 00 00:00:00
    INDEX 01 00:02:00
FILE "LastBlade2 (Track 22).bin" BINARY
  TRACK 22 AUDIO
    INDEX 00 00:00:00
    INDEX 01 00:02:00
FILE "LastBlade2 (Track 23).bin" BINARY
  TRACK 23 AUDIO
    INDEX 00 00:00:00
    INDEX 01 00:02:00
FILE "LastBlade2 (Track 24).bin" BINARY
  TRACK 24 AUDIO
    INDEX 00 00:00:00
    INDEX 01 00:02:00
FILE "LastBlade2 (Track 25).bin" BINARY
  TRACK 25 AUDIO
    INDEX 00 00:00:00
    INDEX 01 00:02:00
FILE "LastBlade2 (Track 26).bin" BINARY
  TRACK 26 AUDIO
    INDEX 00 00:00:00
    INDEX 01 00:02:00
FILE "LastBlade2 (Track 27).bin" BINARY
  TRACK 27 AUDIO
    INDEX 00 00:00:00
    INDEX 01 00:02:00
FILE "LastBlade2 (Track 28).bin" BINARY
  TRACK 28 AUDIO
    INDEX 00 00:00:00
    INDEX 01 00:02:00

Write Offset: 780

DAT:

<rom name="LastBlade2 (Track 01).bin" size="101418240" crc="ece8ed0f" md5="5cb087e0f4d14d8f65e1629d8eb1d548" sha1="eabad89ebf8b6f621d517dedded883b3aaf45d66" />
<rom name="LastBlade2 (Track 02).bin" size="13585152" crc="8e4fe77d" md5="43f12df9fd3a2227b901643d0f54ebef" sha1="975e5ccd03e6f89e249a22592e5aaf367bc712b5" />
<rom name="LastBlade2 (Track 03).bin" size="3530352" crc="e8bc9a12" md5="db3b35a455d517dec527b2bc98cf8547" sha1="c47e9425b86efef3aa06aa85e61f617547d310af" />
<rom name="LastBlade2 (Track 04).bin" size="6881952" crc="556ea889" md5="b82fdc3659d77437c1c7b8ae32ff136e" sha1="39038668032fe2d819443d63623a439952278577" />
<rom name="LastBlade2 (Track 05).bin" size="13761552" crc="1629f5e0" md5="0033e9e8f4fc7e281bcd0f84ac830c13" sha1="987e20a7491a4d0824c4f953baf6e1b834294034" />
<rom name="LastBlade2 (Track 06).bin" size="25051152" crc="97353060" md5="14a3e95083110d2ad55d56b39d07288b" sha1="3eae58570f258b2f1259b08b021aac7665a2649d" />
<rom name="LastBlade2 (Track 07).bin" size="23287152" crc="aca643aa" md5="3a1517ed51371f7b46eb08e9f312e125" sha1="cd7e9c52b0b4b86d03088db979393ffb8b30a16f" />
<rom name="LastBlade2 (Track 08).bin" size="23287152" crc="9e61dc85" md5="98d4ac7131ba652b2c17452fb9c1d045" sha1="e2a7e96c8c4e96e0b2024718a6eb5f0050d3487d" />
<rom name="LastBlade2 (Track 09).bin" size="25051152" crc="281a1933" md5="816088f6417a1b47b602e6030e6cb3a1" sha1="343be47dae4a7e8a05f797cae2b06538d62f368c" />
<rom name="LastBlade2 (Track 10).bin" size="23287152" crc="1f84011e" md5="f3569aa636567054970fdc9e6d336a7f" sha1="a843f5d77ff5e67b30ae5b68be49c56a5beda8d4" />
<rom name="LastBlade2 (Track 11).bin" size="23287152" crc="00f1e3f5" md5="a4917ee3002d9ef50012446712585788" sha1="518ee1f20d17d661690dc851b7da20949fd54df1" />
<rom name="LastBlade2 (Track 12).bin" size="23287152" crc="fae30e4f" md5="2d2c7af496e0f40abc54339869b7bbdc" sha1="d3108c469efbd2d64dafb68379b9ae187d2f7c3c" />
<rom name="LastBlade2 (Track 13).bin" size="23287152" crc="b6a1eec8" md5="a26e5e4d4dacd1762f2bd023425c8cdf" sha1="ff084b0ee897fc12b70708bc14f6c090a7e9227a" />
<rom name="LastBlade2 (Track 14).bin" size="25051152" crc="9a6909c3" md5="2ac7d3e4f9ad893dd76abbdae6eff53a" sha1="fdf8d1913375c3a9ba80e2cedec7a5dfde465436" />
<rom name="LastBlade2 (Track 15).bin" size="23287152" crc="4528b37c" md5="3d628f46c87967db1d5f27962a8bedc3" sha1="c6723bdbc3be3ece0c5e5525565e63e89d6b40a6" />
<rom name="LastBlade2 (Track 16).bin" size="23287152" crc="6f02b4f1" md5="284b2430be9cffd8eea9d4e894c62fbb" sha1="4a68c97edbba458943b9fe2bac7f8849590608bd" />
<rom name="LastBlade2 (Track 17).bin" size="23287152" crc="26eb06d6" md5="b6ef34bb32181b480012e95f1fbe449f" sha1="55af896b5125d6c3aa30447dc505e28b30d7f000" />
<rom name="LastBlade2 (Track 18).bin" size="23287152" crc="a3aced2e" md5="b3a39fc6b870751cb45aecd3fef4188c" sha1="0e0baa6035d7ee78c29335e935c52440f3f2724f" />
<rom name="LastBlade2 (Track 19).bin" size="25051152" crc="611e0c38" md5="ac399201793002f461a356acb8ebf9c7" sha1="dd073c03f4a654fe19a39b865071ed184f635f86" />
<rom name="LastBlade2 (Track 20).bin" size="25051152" crc="02121f9b" md5="84fb0d97c18fcf2106d7fcdd426365ec" sha1="907bbbc4eb63f24eb1643051733226c48190c0ac" />
<rom name="LastBlade2 (Track 21).bin" size="25051152" crc="8efdec2e" md5="a482428a8e22b3b2ff80f4587ec2a9e1" sha1="a0a46079d24047effaccc0d3c4f9529076f013f2" />
<rom name="LastBlade2 (Track 22).bin" size="25051152" crc="8031d4a4" md5="634c9bb697a85a822959866a537ecb57" sha1="1de4e4f5c4d0727994328b8420e50fcab1fd8d10" />
<rom name="LastBlade2 (Track 23).bin" size="17642352" crc="fd911474" md5="f411970fb17bde447c8ec0f27d2a462e" sha1="3e09f84e8b1f561bffadd89633a937757afbd58e" />
<rom name="LastBlade2 (Track 24).bin" size="4235952" crc="b35e40e8" md5="faa8892977233e10690a011b0adc8f63" sha1="1dacaa2664750dc772f0dd26affbcf788fe654ac" />
<rom name="LastBlade2 (Track 25).bin" size="36517152" crc="7320bb80" md5="2b840c51e9eda28be38191bfc76978f5" sha1="eae28ac152b45ad4fcabdd39f804a89eae23701f" />
<rom name="LastBlade2 (Track 26).bin" size="36517152" crc="19dd47dc" md5="879df0bd75f5004bdc025a8d584c9134" sha1="f7f4b095df0a4af21118fa53192fca56a516480f" />
<rom name="LastBlade2 (Track 27).bin" size="10233552" crc="73eeab4c" md5="2569775113ab64665aa4ce649327a2a6" sha1="4ba8cfef6b69c2cef369b619d0debd896e6e88a6" />
<rom name="LastBlade2 (Track 28).bin" size="10057152" crc="8122c31b" md5="b3d455ea4c038ed378ee467d5663d217" sha1="0e19c458d7964a35119eadd4eb0ede52c6104b62" />

Logs: https://mega.nz/#!oRoxnKYB!Ui8yjAzTKLzN … b_4LvTCxIU

Added via new disc form

Title: Nickelodeon Avatar: The Legend of Aang
Disc Number / Letter: (OPTIONAL)
Disc Title: (OPTIONAL)
System: IBM PC Compatible
Media Type: CD-ROM
Category: Games
Region: Europe
Languages: English
Disc Serial: (REQUIRED, IF EXISTS)
Ringcode Information:
    Mastering Ring: CR AVATAREN @
    Mastering SID Code: IFPI L039 01/16/07 02:18:16 PM
    Mould SID Code: IFPI 5D50
    Additional Mould: (REQUIRED, IF EXISTS)
    Toolstamp or Mastering Code: (REQUIRED, IF EXISTS)
Barcode: 4 005209 084734
ISBN: (OPTIONAL)
Error Count: 0
Comments: (OPTIONAL)
Contents: (OPTIONAL)
Version: (REQUIRED, IF EXISTS)
Edition/Release: Original
Primary Volume Descriptor (PVD):

0320 : 20 20 20 20 20 20 20 20  20 20 20 20 20 32 30 30                200
0330 : 36 31 31 30 37 31 36 30  34 30 30 31 37 E0 32 30   6110716040017.20
0340 : 30 36 31 31 30 37 31 36  30 34 30 30 31 37 E0 32   06110716040017.2
0350 : 31 30 36 31 31 30 37 31  36 30 34 30 30 31 37 E0   106110716040017.
0360 : 32 30 30 36 31 31 30 37  31 36 30 34 30 30 31 37   2006110716040017
0370 : E0 01 00 00 00 00 00 00  00 00 00 00 00 00 00 00   ................

Copy Protection: None found

Cuesheet:

FILE "Avatar.bin" BINARY
  TRACK 01 MODE1/2352
    INDEX 01 00:00:00

Write Offset: -12

DAT:

<rom name="Avatar.bin" size="545165376" crc="9d36a634" md5="49dc5374e708d965ad2f5fefc2d249ee" sha1="313fa7f1a6dc4b97a4777840516ec60bbd5e7293" />

Logs: https://mega.nz/#!BEBAHKwB!spckWKcUbLEU … 8HueQmylD0

Enker wrote:
Peepo_UK wrote:

I could not find a way of changing language from English only.

Are you changing the PS3 system language before you boot the game? This game was tested recently, so the languages should be correct.

Can you also recheck http://redump.org/disc/33446/ if it was not tested with the system languages.

Thanks!

I'll double check both in the next day or so and confirm the results. Thanks.

NB: I could not find a way of changing language from English only. Existing redump entry suggests multiple languages.

Existing Entry: http://redump.org/disc/55161/
System: Sony Playstation 3
Media: BD-25
Title: Battlefield: Bad Company 2
Edition: Limited Edition
Language(s): English only
Category: Games
Serial: BLES-00779
Barcode: 5 030930 087180
Version: 01.01
Sectors: 4246080 Size: 8695971840 CRC-32: fd9f1604 MD5: 926599867bf5a8a1bd0614b2c1b555fc SHA-1: e6d5affc28c41bb7c3e4573ba3fb42463b63d9cf
Mastering Code: A0101527909-A511    1000
SID: IFPI LY26
Toolstamp: 2A00
Mould: IFPI 946K

Disc Key
933e3379fbe5862f65e641622a3bfc29

Disc ID
00000000000000ff00020004XXXXXXXX

PIC
10020000444901080000200042444f01
11010100000000000050ca3f00100000
0050ca3e000000000000000000000000
00000000000000000000000000000000
00000000000000000000000000000000
00000000000000000000000000000000
00000000000000000000000000000000
00000000000000000000000000000000
00000000

7

(5 replies, posted in Fixes & additions)

REM Tool: PerfectRip
REM Date & time: 06/06/2008 22:16:27
REM Drive: PLEXTOR DVDR   PX-760A  1.07

FILE "01.- cd.track.pcm" BINARY
  TRACK 01 MODE2/2352
    INDEX 01 00:00:00
FILE "02.- cd.track.pcm" BINARY
  TRACK 02 AUDIO
    INDEX 00 00:00:00
    INDEX 01 00:02:00
FILE "03.- cd.track.pcm" BINARY
  TRACK 03 AUDIO
    INDEX 00 00:00:00
    INDEX 01 00:02:00
FILE "04.- cd.track.pcm" BINARY
  TRACK 04 AUDIO
    INDEX 00 00:00:00
    INDEX 01 00:02:00
FILE "05.- cd.track.pcm" BINARY
  TRACK 05 AUDIO
    INDEX 00 00:00:00
    INDEX 01 00:02:00
FILE "06.- cd.track.pcm" BINARY
  TRACK 06 AUDIO
    INDEX 00 00:00:00
    INDEX 01 00:02:00
FILE "07.- cd.track.pcm" BINARY
  TRACK 07 AUDIO
    INDEX 00 00:00:00
    INDEX 01 00:02:00
FILE "08.- cd.track.pcm" BINARY
  TRACK 08 AUDIO
    INDEX 01 00:00:00

8

(5 replies, posted in Fixes & additions)

Redumped this a few times now...and here is the log from perfectrip.
I will change the DB to match and will post the dump on the tracker at some point soon.

©2006   H & H   s o f t w e r x.
PerfectRip v1.00 b28c log. 06/06/2008 22:16:25

Type    . Time     . Description
------- + -------- + -----------
Info    | 22:16:26 | Current device: PLEXTOR DVDR   PX-760A  1.07
Info    | 22:16:26 | Reported CD read speed (kbytes/s): 7056(40x)
Info    | 22:16:26 | Current read error recovery setting: mode: 00h retry count: 10
Info    | 22:16:26 | Setting of read error recovery to normal with 3 retries was successful.
Info    | 22:16:26 | Detecting subcode/C2 pointers priority..
Info    | 22:16:26 | Detecting and correcting subchannel offset..
Info    | 22:16:27 | Subcode/C2 priority is: main+C2+sub.
Info    | 22:16:27 | Subchannel sector offset: 0
Info    | 22:16:27 | Detection finished.
Info    | 22:16:27 | Main channel read offset correction: -128 bytes (-32 samples)
Info    | 22:16:27 | Main channel write offset correction: 0 bytes (0 samples)
Info    | 22:16:27 | Subchannel offset correction: 0 sectors
Info    | 22:16:27 | C2 error pointers offset correction: -128 bits
Error   | 22:16:27 | Read CD-TEXT command failed!
Info    | 22:16:27 | Reading Media Catalog Number...
Info    | 22:16:29 | MCN not encoded
Info    | 22:16:29 | Reading International Standard Recording Code...
Info    | 22:16:30 | ISRC(track 1) not encoded
Info    | 22:16:30 | ISRC(track 2) not encoded
Info    | 22:16:31 | ISRC(track 3) not encoded
Info    | 22:16:32 | ISRC(track 4) not encoded
Info    | 22:16:33 | ISRC(track 5) not encoded
Info    | 22:16:33 | ISRC(track 6) not encoded
Info    | 22:16:34 | ISRC(track 7) not encoded
Info    | 22:16:35 | ISRC(track 8) not encoded
Info    | 22:16:35 | Trk 01: 00:00.00 to 07:47.55 (000000 to 035080), duration: 07:47.56 (035081)
Info    | 22:16:35 | Trk 01 format type is CD-ROM mode 2
Info    | 22:23:06 | Pause found: 01020000017400074756AC05
Info    | 22:23:07 | FLAGS DATA
Info    | 22:23:07 | Current copyright flag !DCP kept
Info    | 22:23:07 | Trk 02: 07:47.56 to 11:17.47 (035081 to 050822), duration: 03:29.67 (015742)
Info    | 22:23:07 | Trk 02 format type is CDDA
Info    | 22:23:07 | Index found: 0102010000000007495619F9
Info    | 22:24:03 | Pause found: 010300000174001117484BA5
Info    | 22:24:04 | Current copyright flag !DCP kept
Info    | 22:24:04 | Trk 03: 11:17.48 to 15:03.01 (050823 to 067726), duration: 03:45.29 (016904)
Info    | 22:24:04 | Trk 03 format type is CDDA
Info    | 22:24:04 | Index found: 01030100000000111948FE59
Info    | 22:25:15 | Pause found: 0104000001740015030200F7
Info    | 22:25:15 | Current copyright flag !DCP kept
Info    | 22:25:15 | Trk 04: 15:03.02 to 18:36.56 (067727 to 083756), duration: 03:33.55 (016030)
Info    | 22:25:15 | Trk 04 format type is CDDA
Info    | 22:25:15 | Index found: 010401000000001505023CA2
Info    | 22:26:25 | Pause found: 0105000001740018365759B5
Info    | 22:26:25 | Current copyright flag !DCP kept
Info    | 22:26:25 | Trk 05: 18:36.57 to 22:14.42 (083757 to 100092), duration: 03:37.61 (016336)
Info    | 22:26:25 | Trk 05 format type is CDDA
Info    | 22:26:25 | Index found: 01050100000000183857EC49
Info    | 22:27:25 | Pause found: 0106000001740022144344A4
Info    | 22:27:25 | Current copyright flag !DCP kept
Info    | 22:27:25 | Trk 06: 22:14.43 to 25:44.15 (100093 to 115815), duration: 03:29.48 (015723)
Info    | 22:27:25 | Trk 06 format type is CDDA
Info    | 22:27:25 | Index found: 01060100000000221643B435
Info    | 22:28:18 | Pause found: 010700000174002544162EF8
Info    | 22:28:19 | Current copyright flag !DCP kept
Info    | 22:28:19 | Trk 07: 25:44.16 to 29:18.43 (115816 to 131893), duration: 03:34.28 (016078)
Info    | 22:28:19 | Trk 07 format type is CDDA
Info    | 22:28:19 | Index found: 01070100000000254616DE69
Info    | 22:29:08 | Current copyright flag !DCP kept
Info    | 22:29:08 | Trk 08: 29:18.44 to 32:43.03 (131894 to 147228), duration: 03:24.35 (015335)
Info    | 22:29:08 | Trk 08 format type is CDDA
Info    | 22:29:08 | Index found: 01080100000000292044E867
Info    | 22:29:19 | Current copyright flag !DCP kept
Info    | 22:29:19 | OL: 32:43.04 to 32:43.04 (147229 to 147229), duration: 00:00.01 (000001)
Info    | 22:29:19 | Setting back of saved read error recovery parameters was successful.
Info    | 22:29:20 | Total corrupt Q subcode blocks: 8852
Info    | 22:29:20 | Trk 01 corrupt symbols (C2 pointers): 0
Info    | 22:29:20 | Trk 02 corrupt symbols (C2 pointers): 0
Info    | 22:29:20 | Trk 03 corrupt symbols (C2 pointers): 0
Info    | 22:29:20 | Trk 04 corrupt symbols (C2 pointers): 0
Info    | 22:29:20 | Trk 05 corrupt symbols (C2 pointers): 0
Info    | 22:29:20 | Trk 06 corrupt symbols (C2 pointers): 0
Info    | 22:29:20 | Trk 07 corrupt symbols (C2 pointers): 0
Info    | 22:29:20 | Trk 08 corrupt symbols (C2 pointers): 0
Info    | 22:29:20 | Total corrupt symbols (C2 pointers): 0
Info    | 22:29:20 | Reading process completed successfully.


And the checksums:

    rom ( name "01.- cd.track.img" size 82157712 crc 725f01ad md5 f2d04debd8095f93eb50251ef1b22a65 sha1 c01f8bd0b5b08b2b8b006fea7d04abb826ed07ff )
    rom ( name "02.- cd.track.pcm" size 37025184 crc 511ba896 md5 ee8f52220d35652aeb048c2ad8aac84f sha1 659ff970996b9aa9f0a4c017ee8ce3502d79e33d )
    rom ( name "03.- cd.track.pcm" size 39758208 crc d3fb5919 md5 53cdd102ee72827daddd510917736d81 sha1 35f80dce49039423acd82164f9fda28cf697bc15 )
    rom ( name "04.- cd.track.pcm" size 37702560 crc 5697d7f6 md5 98428c1d728fdf70f27de1597cbbef12 sha1 33dbc6fd075031cafcb7bdc1ac309e111ff420bb )
    rom ( name "05.- cd.track.pcm" size 38422272 crc 71dcd79b md5 262a438060e1d0cb1c5f5ee749f85462 sha1 fb4357096df7bce7c958bdd78003820862087532 )
    rom ( name "06.- cd.track.pcm" size 36980496 crc d5e42319 md5 60c14270e3e390892399ad8a0a28524b sha1 7898473bec6f7cbb77f482deb6cdc42d0e66ad31 )
    rom ( name "07.- cd.track.pcm" size 38168256 crc 67e96ed1 md5 1bfbb5390edd483832f81a17065891b7 sha1 c538c697a3c39967d54537b2583676064f14a245 )
    rom ( name "08.- cd.track.pcm" size 36067920 crc 43adf7c4 md5 388f7dcf7d4304e113d8a3b2f29eb198 sha1 3f58c1dd62ab85d1614109d3fe14e31388c7fb97 )

9

(5 replies, posted in Fixes & additions)

http://redump.org/disc/1034/

I have been going through my PSX discs and the checksums for track 7 and 8 in Bedlam (SLES-00334) are consistently different to what I calculated initially.

The correct values are as follows:

    rom ( name Track07.bin size 37815456 crc 97aae9e0 md5 208017c10cd315ad3acfb10b712bae2b sha1 27aac3c90aa09fe2ca26695b408a88ccea0a6f19 )
    rom ( name Track08.bin size 36420720 crc 89871b70 md5 ad71b6440bd4aedc198ad3d2f822567f sha1 64e4472de2d9c50db2676abf5c23c720ea25a599 )

Please update the DB with these values. Thanks.