1

(0 replies, posted in Verifications)

http://redump.org/disc/45726/

Common Disc Info:
    Title: Mad Dog McCree
    Foreign Title (Non-latin): 
    Disc Number / Letter: (OPTIONAL)
    Disc Title: (OPTIONAL)
    System: Panasonic 3DO Interactive Multiplayer
    Media Type: CD-ROM
    Category: Games
    Matching IDs: 45726
    Region: USA
    Languages: English
    Disc Serial: ALG 000029

    Ringcode Information:
        Mastering Code (laser branded/etched): CP 000029 SRCR**02
        Mastering SID Code: (REQUIRED, IF EXISTS)
        Data-Side Mould SID Code: (REQUIRED, IF EXISTS)
        Label-Side Mould SID Code: (REQUIRED, IF EXISTS)
        Additional Mould: (REQUIRED, IF EXISTS)
        Toolstamp or Mastering Code (engraved/stamped): M1S2
    Barcode: 7 67861 00002 9
    Error Count: 0
    Comments: (OPTIONAL)
    Contents: (OPTIONAL)

Version and Editions:
    Version: (REQUIRED, IF EXISTS)
    Edition/Release: Original

Extras:
    Primary Volume Descriptor (PVD): Disc has no PVD

Tracks and Write Offsets:
    DAT:

<rom name="Disc Not Detected.bin" size="422188704" crc="affbf1e2" md5="37d3745e9c379cf30cc372066072ec0b" sha1="80775a618808a1b6f1a8239ef5f7964507a85ee9" />

    Cuesheet:

CATALOG 0000000000000
FILE "Disc Not Detected.bin" BINARY
  TRACK 01 MODE1/2352
    INDEX 01 00:00:00

    Write Offset: 0

https://mega.nz/file/YAoGhYoT#jg2mNSaWr … DpLOHeCNRE

2

(0 replies, posted in Verifications)

http://redump.org/disc/16088/

Common Disc Info:
    Title: Shock Wave
    Foreign Title (Non-latin): 
    Disc Number / Letter: (OPTIONAL)
    Disc Title: (OPTIONAL)
    System: Panasonic 3DO Interactive Multiplayer
    Media Type: CD-ROM
    Category: Games
    Matching IDs: 16088
    Region: USA
    Languages: English
    Disc Serial: (REQUIRED, IF EXISTS)

    Ringcode Information:
        Mastering Code (laser branded/etched): Allied Record Company    A780  CC 722207-2 RE2    R76
        Mastering SID Code: (REQUIRED, IF EXISTS)
        Data-Side Mould SID Code: (REQUIRED, IF EXISTS)
        Label-Side Mould SID Code: (REQUIRED, IF EXISTS)
        Additional Mould: (REQUIRED, IF EXISTS)
        Toolstamp or Mastering Code (engraved/stamped): ARC *M2 S8
    Barcode: (OPTIONAL)
    Error Count: 0
    Comments: I don't have original box or cover
    Contents: (OPTIONAL)

Version and Editions:
    Version: (REQUIRED, IF EXISTS)
    Edition/Release: Not for Resale

Extras:
    Primary Volume Descriptor (PVD): Disc has no PVD

Tracks and Write Offsets:
    DAT:

<rom name="Shockwave.bin" size="747329184" crc="5d77f078" md5="1fa86975f226a7db24fe513368b62e69" sha1="403da6c5c27c9785f255b0cbe9adfb55c122a6d3" />

    Cuesheet:

CATALOG 0000000000000
FILE "Shockwave.bin" BINARY
  TRACK 01 MODE1/2352
    INDEX 01 00:00:00

    Write Offset: -954

https://mega.nz/file/1M4CRQwZ#K7OCY6JhM … _PmjRkPMKs

Disc 4:
http://redump.org/disc/5300/

Common Disc Info:
    Title: The Daedalus Encounter
    Foreign Title (Non-latin): 
    Disc Number / Letter: 4
    Disc Title: (OPTIONAL)
    System: Panasonic 3DO Interactive Multiplayer
    Media Type: CD-ROM
    Category: Games
    Matching IDs: 5300
    Region: USA
    Languages: English
    Disc Serial: FZ-SM3751

    Ringcode Information:
        Mastering Code (laser branded/etched): FZSM37514 R1J
        Mastering SID Code: IFPI# L239
        Data-Side Mould SID Code: (REQUIRED, IF EXISTS)
        Label-Side Mould SID Code: (REQUIRED, IF EXISTS)
        Additional Mould: (REQUIRED, IF EXISTS)
        Toolstamp or Mastering Code (engraved/stamped): 22
    Barcode: 
    Error Count: 0
    Comments: no barcode
    Contents: (OPTIONAL)

Version and Editions:
    Version: (REQUIRED, IF EXISTS)
    Edition/Release: Original

Extras:
    Primary Volume Descriptor (PVD): Disc has no PVD

Tracks and Write Offsets:
    DAT:

<rom name="Daedalus cd4.bin" size="771060864" crc="c43f91d2" md5="0c5bf88b3532e9446138d8f7836a6f5b" sha1="d9f6076fd37e8aa508e62a1b41dc8f207b940a30" />

    Cuesheet:

CATALOG 0000000000000
FILE "Daedalus cd4.bin" BINARY
  TRACK 01 MODE1/2352
    INDEX 01 00:00:00

    Write Offset: 222

https://mega.nz/file/4AgwUY5Q#gJDl-MgPQ … Tls7n9EGFc

Disc 3:
http://redump.org/disc/5299/

Common Disc Info:
    Title: The Daedalus Encounter
    Foreign Title (Non-latin): 
    Disc Number / Letter: 3
    Disc Title: (OPTIONAL)
    System: Panasonic 3DO Interactive Multiplayer
    Media Type: CD-ROM
    Category: Games
    Matching IDs: 5299
    Region: USA
    Languages: English
    Disc Serial: FZ-SM3751

    Ringcode Information:
        Mastering Code (laser branded/etched): FZSM37513 R1J
        Mastering SID Code: IFPI# L239
        Data-Side Mould SID Code: IFPI4111
        Label-Side Mould SID Code: (REQUIRED, IF EXISTS)
        Additional Mould: (REQUIRED, IF EXISTS)
        Toolstamp or Mastering Code (engraved/stamped): 13
    Barcode: 
    Error Count: 0
    Comments: no barcode
    Contents: (OPTIONAL)

Version and Editions:
    Version: (REQUIRED, IF EXISTS)
    Edition/Release: Original

Extras:
    Primary Volume Descriptor (PVD): Disc has no PVD

Tracks and Write Offsets:
    DAT:

<rom name="Daedalus cd3.bin" size="771060864" crc="fdc4aa42" md5="cb55d8980412484e83fe50d0e6be877b" sha1="57d018cb88a4182720de85a2ee1fa0b7b00f76ca" />

    Cuesheet:

CATALOG 0000000000000
FILE "Daedalus cd3.bin" BINARY
  TRACK 01 MODE1/2352
    INDEX 01 00:00:00

    Write Offset: 222

https://mega.nz/file/ZB50RAAI#kHYiP5CbU … 9bM65Z0Oic

I dumped discs 1,3,4
Disc 2 in bad shape
Disc 1:
http://redump.org/disc/5297/

Common Disc Info:
    Title: The Daedalus Encounter
    Foreign Title (Non-latin): 
    Disc Number / Letter: 1
    Disc Title: (OPTIONAL)
    System: Panasonic 3DO Interactive Multiplayer
    Media Type: CD-ROM
    Category: Games
    Matching IDs: 5297
    Region: USA
    Languages: English
    Disc Serial: FZ-SM3751

    Ringcode Information:
        Mastering Code (laser branded/etched): FZSM37511 R2J
        Mastering SID Code: IFPI# L239
        Data-Side Mould SID Code: (REQUIRED, IF EXISTS)
        Label-Side Mould SID Code: (REQUIRED, IF EXISTS)
        Additional Mould: (REQUIRED, IF EXISTS)
        Toolstamp or Mastering Code (engraved/stamped): 12
    Barcode: 
    Error Count: 0
    Comments: No barcode
    Contents: (OPTIONAL)

Version and Editions:
    Version: (REQUIRED, IF EXISTS)
    Edition/Release: Original

Extras:
    Primary Volume Descriptor (PVD): Disc has no PVD

Tracks and Write Offsets:
    DAT:

<rom name="Daedalus cd1.bin" size="771060864" crc="9474f05c" md5="374eafbd0524dabaa3a326180260f57f" sha1="a332d9236498c225bf42704343fd31d50f66b9e4" />

    Cuesheet:

CATALOG 0000000000000
FILE "Daedalus cd1.bin" BINARY
  TRACK 01 MODE1/2352
    INDEX 01 00:00:00

    Write Offset: 222

https://mega.nz/file/tdhCnQrC#zF2mMBsPr … ZcpHhwCKIY

http://redump.org/disc/19366/

Common Disc Info:
    Title: FIFA International Soccer
    Foreign Title (Non-latin): 
    Disc Number / Letter: (OPTIONAL)
    Disc Title: (OPTIONAL)
    System: Panasonic 3DO Interactive Multiplayer
    Media Type: CD-ROM
    Category: Games
    Matching IDs: 19366
    Region: USA
    Languages: English
    Disc Serial: (REQUIRED, IF EXISTS)

    Ringcode Information:
        Mastering Code (laser branded/etched): Allied Record Company    B326 CC 738507-2    R70
        Mastering SID Code: (REQUIRED, IF EXISTS)
        Data-Side Mould SID Code: (REQUIRED, IF EXISTS)
        Label-Side Mould SID Code: (REQUIRED, IF EXISTS)
        Additional Mould: (REQUIRED, IF EXISTS)
        Toolstamp or Mastering Code (engraved/stamped): ARC *M1 S8
    Barcode: (OPTIONAL)
    Error Count: 0
    Comments: Don't have original cover, disc only
    Contents: (OPTIONAL)

Version and Editions:
    Version: (REQUIRED, IF EXISTS)
    Edition/Release: Not for Resale

Extras:
    Primary Volume Descriptor (PVD): Disc has no PVD

Tracks and Write Offsets:
    DAT:

<rom name="FIFA.bin" size="711550560" crc="9bd2a7e9" md5="2f61e24a3999ef4b2f144d89d9db8225" sha1="96317ed4b8ca331a8372a394bc87c766542dc769" />

    Cuesheet:

CATALOG 0000000000000
FILE "FIFA.bin" BINARY
  TRACK 01 MODE1/2352
    INDEX 01 00:00:00

    Write Offset: 222

https://mega.nz/file/JBhGBIRY#na3cHU0nT … dSh8u59InA

7

(0 replies, posted in Verifications)

http://redump.org/disc/5296/

Common Disc Info:
    Title: Starblade
    Foreign Title (Non-latin): 
    Disc Number / Letter: (OPTIONAL)
    Disc Title: (OPTIONAL)
    System: Panasonic 3DO Interactive Multiplayer
    Media Type: CD-ROM
    Category: Games
    Matching IDs: 5296
    Region: Europe
    Languages: English
    Disc Serial: FZ-SE5351

    Ringcode Information:
        Mastering Code (laser branded/etched): FZ-SE5351    2
        Mastering SID Code: IFPI L251
        Data-Side Mould SID Code: IFPI 42A4
        Label-Side Mould SID Code: (REQUIRED, IF EXISTS)
        Additional Mould: (REQUIRED, IF EXISTS)
        Toolstamp or Mastering Code (engraved/stamped): (REQUIRED, IF EXISTS)
    Barcode: 5 025232 024117
    Error Count: 0
    Comments: (OPTIONAL)
    Contents: (OPTIONAL)

Version and Editions:
    Version: (REQUIRED, IF EXISTS)
    Edition/Release: Not for Resale

Extras:
    Primary Volume Descriptor (PVD): Disc has no PVD

Tracks and Write Offsets:
    DAT:

<rom name="Starblade.bin" size="662680704" crc="a6597a8e" md5="88b78655f6a7385fe472cafab7df07d3" sha1="07efc853ff3715dfbbca93c736d675abb7169506" />

    Cuesheet:

FILE "Starblade.bin" BINARY
  TRACK 01 MODE1/2352
    INDEX 01 00:00:00

    Write Offset: -22

https://mega.nz/file/gYZXyQjL#5UeGdxX7m … VP05WCpTfo

8

(0 replies, posted in Verifications)

I have 2 copies, but one set of covers, and don't have original box. Barcode: 5 026555 120098 >
Ring codes is absolutely same.
ID under barcode: FD615.INLAY

Common Disc Info:
    Title: Primal Rage
    Foreign Title (Non-latin): 
    Disc Number / Letter: (OPTIONAL)
    Disc Title: (OPTIONAL)
    System: Panasonic 3DO Interactive Multiplayer
    Media Type: CD-ROM
    Category: Games
    Matching IDs: 14765
    Region: USA, Europe
    Languages: Klingon (CHANGE THIS)
    Disc Serial: 

    Ringcode Information:
        Mastering Code (laser branded/etched): CDD9355    -MASTERED BY NIMBUS-
        Mastering SID Code: IFPI L122
        Data-Side Mould SID Code: ifpi 2320
        Label-Side Mould SID Code: (REQUIRED, IF EXISTS)
        Additional Mould: (REQUIRED, IF EXISTS)
        Toolstamp or Mastering Code (engraved/stamped): 1:0
    Barcode: (OPTIONAL)
    Error Count: 0
    Comments: Only have back cover, no barcode on it
    Contents: (OPTIONAL)

Version and Editions:
    Version: (REQUIRED, IF EXISTS)
    Edition/Release: Original

Extras:
    Primary Volume Descriptor (PVD): Disc has no PVD

Tracks and Write Offsets:
    DAT:

<rom name="Disc Not Detected.bin" size="391226976" crc="7e971f73" md5="84248d0388a3f676e5ec42545d439a9c" sha1="6ffdcb274dc72eb199661b3fc1e7165dfe387f3d" />

    Cuesheet:

CATALOG 0000000000000
FILE "Disc Not Detected.bin" BINARY
  TRACK 01 MODE1/2352
    INDEX 01 00:00:00

    Write Offset: 0

https://mega.nz/file/ZMYRRAgB#qMMziSYrb … KjBnDf1StI
https://mega.nz/file/cFAlVSQb#wzgOxH7EQ … S-B_AgEtS0

http://redump.org/disc/57199/

Common Disc Info:
    Title: Tales of Xillia 2: Original Soundtrack
    Foreign Title (Non-latin): 
    Disc Number / Letter: (OPTIONAL)
    Disc Title: (OPTIONAL)
    System: Audio CD
    Media Type: CD-ROM
    Category: Bonus Discs
    Matching IDs: 57199
    Region: Europe, Australia
    Languages: Klingon (CHANGE THIS)
    Disc Serial: TOX2/ST

    Ringcode Information:
        Mastering Code (laser branded/etched): Sony DADC    A0102356815-0101    38
        Mastering SID Code: IFPI L558
        Data-Side Mould SID Code: IFPI 94Y6
        Label-Side Mould SID Code: (REQUIRED, IF EXISTS)
        Additional Mould: (REQUIRED, IF EXISTS)
        Toolstamp or Mastering Code (engraved/stamped): A00
    Barcode: 3 391891 977678, 3 391891 977753
    Error Count: Error retrieving error count
    Comments: Bundled with <a href=/disc/57188/>Tales of Xillia 2 (Europe)</a>, Day One Edition.
    Contents: (OPTIONAL)

Version and Editions:
    Version: (REQUIRED, IF EXISTS)
    Edition/Release: PS3 Game Bundle

Extras:
    Primary Volume Descriptor (PVD): Disc has no PVD

Tracks and Write Offsets:
    DAT:

<rom name="Audio CD (Track 01).bin" size="19810896" crc="de757ed5" md5="bb2a91aef041a087fb669fdb6955b539" sha1="dd99f78854bb56e69f8f4fb5081f423b76c37f6b" />
<rom name="Audio CD (Track 02).bin" size="45106656" crc="950ea6fa" md5="5190dbb1a273df82e63dc720750361ed" sha1="8de509ac5c01b4c3575fe83c1fb5676e43e84c23" />
<rom name="Audio CD (Track 03).bin" size="35439936" crc="cbdd66a8" md5="78589a202f98f75d5dd21dfae517c6f6" sha1="ff49291fc055fa01f964e9fb5a36fa95121a8cf6" />
<rom name="Audio CD (Track 04).bin" size="43342656" crc="d54e5cc7" md5="d866a7894641d6ed5d6ff6b7a6f52093" sha1="8b05e2a38ff2cf7f1fcaff0d6f50033eb0192cd6" />
<rom name="Audio CD (Track 05).bin" size="37714320" crc="45db9f37" md5="539cbab1487ea491a1c12fcedd919123" sha1="85b483a509d64e4d91979743657d454e6f86a67d" />
<rom name="Audio CD (Track 06).bin" size="44471616" crc="fe89ab37" md5="4f5676a9f90cd8ebd016b8630dd74842" sha1="5152d0e24b8ac0d3ef8d53f928d7dafb3fd3ea9b" />
<rom name="Audio CD (Track 07).bin" size="42531216" crc="9dcc6bd9" md5="cf6c10646082f6ffa31d9f043f91ae80" sha1="13499bc7ff91e48b9fe1a935acd15ba4d902ee9a" />
<rom name="Audio CD (Track 08).bin" size="46710720" crc="ddb8b5ae" md5="10e137233fe83cd7d8d82cfc6b5ce665" sha1="cf9783c5d1e068a90f10e0cb4a400a7169d9a464" />
<rom name="Audio CD (Track 09).bin" size="62746656" crc="f0b9a432" md5="d5339c27fa3bd161eba8be2f0af625ef" sha1="8d825685d1466b845301422c95dfa0bda33ceb70" />
<rom name="Audio CD (Track 10).bin" size="55373136" crc="c5de0650" md5="5a3f1d9e2dcbb820b506ba02bcc8c41b" sha1="54774e494b065d61e5f07afafe0ff84f64896e9c" />
<rom name="Audio CD (Track 11).bin" size="59270400" crc="116f92d6" md5="29ce6b2950d6f022e28c36a97d2dd0f0" sha1="080fa9187b7448e12cb987e638467975ace89be3" />
<rom name="Audio CD (Track 12).bin" size="48387696" crc="67c68ade" md5="8fa82d1f8ae2ccfd2274f06362b5fdba" sha1="1862940eed28047e326c4f105f32d7354934aea5" />
<rom name="Audio CD (Track 13).bin" size="61053216" crc="fc2dda15" md5="cb4075a13c3e4dcc4a7baf502976c12e" sha1="09442ce3450159052d3c0993e0c4d69588cef3f3" />
<rom name="Audio CD (Track 14).bin" size="7180656" crc="482fc2fc" md5="95cc8a2816e8c48865a8a2668dba080e" sha1="4a1a2156569314c10f4c58d3f29b881e1f5eac69" />
<rom name="Audio CD (Track 15).bin" size="39160800" crc="a851b331" md5="0480c91287b8440c846cc6fedc28ad88" sha1="ded3d98eec9858ef967f761116c9579fd4711c27" />

    Cuesheet:

FILE "Audio CD (Track 01).bin" BINARY
  TRACK 01 AUDIO
    TITLE "Tales of Xillia 2"
    INDEX 01 00:00:00
FILE "Audio CD (Track 02).bin" BINARY
  TRACK 02 AUDIO
    TITLE "Tranquil Proof"
    INDEX 01 00:00:00
FILE "Audio CD (Track 03).bin" BINARY
  TRACK 03 AUDIO
    TITLE "Fight Until Thine Blade Breaks"
    INDEX 01 00:00:00
FILE "Audio CD (Track 04).bin" BINARY
  TRACK 04 AUDIO
    TITLE "Elle is Elle"
    INDEX 01 00:00:00
FILE "Audio CD (Track 05).bin" BINARY
  TRACK 05 AUDIO
    TITLE "The Bridge that Leads the World"
    INDEX 01 00:00:00
FILE "Audio CD (Track 06).bin" BINARY
  TRACK 06 AUDIO
    TITLE "The Illustrious Spirius Corp."
    INDEX 01 00:00:00
FILE "Audio CD (Track 07).bin" BINARY
  TRACK 07 AUDIO
    TITLE "He Who Protects his Land"
    INDEX 01 00:00:00
FILE "Audio CD (Track 08).bin" BINARY
  TRACK 08 AUDIO
    TITLE "Food is the Culture Cornerstone"
    INDEX 01 00:00:00
FILE "Audio CD (Track 09).bin" BINARY
  TRACK 09 AUDIO
    TITLE "Dance of the Resplendent Spirit"
    INDEX 01 00:00:00
FILE "Audio CD (Track 10).bin" BINARY
  TRACK 10 AUDIO
    TITLE "Gambit of the Final Waymarker"
    INDEX 01 00:00:00
FILE "Audio CD (Track 11).bin" BINARY
  TRACK 11 AUDIO
    TITLE "Proof in the Depths of Sorrow"
    INDEX 01 00:00:00
FILE "Audio CD (Track 12).bin" BINARY
  TRACK 12 AUDIO
    TITLE "The Land of Canaan"
    INDEX 01 00:00:00
FILE "Audio CD (Track 13).bin" BINARY
  TRACK 13 AUDIO
    TITLE "Go as Your Will Leads You"
    INDEX 01 00:00:00
FILE "Audio CD (Track 14).bin" BINARY
  TRACK 14 AUDIO
    TITLE "Your Wish is Granted"
    INDEX 01 00:00:00
FILE "Audio CD (Track 15).bin" BINARY
  TRACK 15 AUDIO
    TITLE "Proof of One's Choices"
    INDEX 01 00:00:00

    Write Offset: 0

https://mega.nz/file/dAAgFbob#dc6KP7BW2 … fb0d4sWrrM