According to GOST 7.79-2000 translit system that we use title probably should be: King's Bounty: Princessa v dospexax
Although it looks as stupid as possible because of "xax"
http://redump.org/disc/75675/

Common Disc Info:
    Title: King's Bounty: Princessa v dospexax
    Foreign Title (Non-latin): King's Bounty: Принцесса в доспехах
    Disc Number / Letter: (OPTIONAL)
    Disc Title: (OPTIONAL)
    System: IBM PC Compatible
    Media Type: DVD-ROM-5
    Category: Games
    Matching IDs: 75675
    Region: Russia
    Languages: Russian
    Disc Serial: (REQUIRED, IF EXISTS)

    Ringcode Information:
        Data Side Mastering Code (laser branded/etched): 63663
        Data Side Mastering SID Code: IFPI LW80
        Data Side Toolstamp or Mastering Code (engraved/stamped): (REQUIRED, IF EXISTS)
        Data Side Mould SID Code: IFPI ZK-07
        Data Side Additional Mould: ООО "Ди Ви Ди - Клуб" ЛИЦЕНЗИЯ МПТР РОССИИ ВАФ № 77-178
        Label Side Mould SID Code: (REQUIRED, IF EXISTS)
        Label Side Additional Mould: 
    Barcode: 4 601546 063663
    Comments: English title: King's Bounty: Armored Princess
    Contents: (OPTIONAL)

Version and Editions:
    Version: 1.0 build 5424
    Edition/Release: Original

Extras:
    Primary Volume Descriptor (PVD):

0320 : 20 20 20 20 20 20 20 20  20 20 20 20 20 32 30 30                200
0330 : 39 30 33 32 33 31 33 32  35 30 31 30 30 0C 32 30   9032313250100.20
0340 : 30 39 30 33 32 33 31 33  32 35 30 31 30 30 0C 30   09032313250100.0
0350 : 30 30 30 30 30 30 30 30  30 30 30 30 30 30 30 00   000000000000000.
0360 : 30 30 30 30 30 30 30 30  30 30 30 30 30 30 30 30   0000000000000000
0370 : 00 01 00 00 00 00 00 00  00 00 00 00 00 00 00 00   ................

Copy Protection:
    Copy Protection: None found

Size & Checksum:
    Size: 4325376000
    CRC32: 6facae9f
    MD5: b5f65d58dd9220505ee4f8593d178422
    SHA1: 35872f57cc8ca9ca4df27968d28d4609c22884ba

Contents: Adobe Reader 9.0
Manual (.pdf)

2

(0 replies, posted in Verifications)

http://redump.org/disc/73701/

Common Disc Info:
    Title: Gothic 3
    Foreign Title (Non-latin): Готика 3
    Disc Number / Letter: (OPTIONAL)
    Disc Title: (OPTIONAL)
    System: IBM PC Compatible
    Media Type: DVD-ROM-5
    Category: Games
    Matching IDs: 73701
    Region: Russia
    Languages: Russian
    Disc Serial: (REQUIRED, IF EXISTS)

    Ringcode Information:
        Data Side Mastering Code (laser branded/etched): LASER CRAFT    www.disc.ru    UL 065461D5
        Data Side Mastering SID Code: IFPI L642
        Data Side Toolstamp or Mastering Code (engraved/stamped): (REQUIRED, IF EXISTS)
        Data Side Mould SID Code: IFPI 1I80
        Data Side Additional Mould: UEP-CD Лицензия МПТР России ВАФ № 77-15
        Label Side Mould SID Code: (REQUIRED, IF EXISTS)
        Label Side Additional Mould: 
    Barcode: 4 607139 712000
    Comments: Voices: Russian
    Contents: Acrobat Reader 5.0
                   Manual (.pdf)

Version and Editions:
    Version: (REQUIRED, IF EXISTS)
    Edition/Release: Original

Extras:
    Primary Volume Descriptor (PVD):

0320 : 20 20 20 20 20 20 20 20  20 20 20 20 20 32 30 30                200
0330 : 36 31 31 31 30 31 33 30  30 35 34 30 30 0C 32 30   6111013005400.20
0340 : 30 36 31 31 31 30 31 33  30 30 35 34 30 30 0C 30   06111013005400.0
0350 : 30 30 30 30 30 30 30 30  30 30 30 30 30 30 30 00   000000000000000.
0360 : 30 30 30 30 30 30 30 30  30 30 30 30 30 30 30 30   0000000000000000
0370 : 00 01 00 55 4C 54 52 41  49 53 4F 00 37 2E 35 2E   ...ULTRAISO.7.5.

Copy Protection:
    Copy Protection: StarForce, StarForce 3-5, StarForce 4.50.006.016

Size & Checksum:
    Size: 4660199424
    CRC32: 165d2aaa
    MD5: dc2b5f945980d378a493518e15f5f029
    SHA1: 7d2a22ed4f60eac1e64bb0625578d4642dcd042e

http://redump.org/disc/75133/
Title probably should be in translit: King's Bounty: Legenda o rycare
and protection is StarForce 5.50.009.001

Common Disc Info:
    Title: King's Bounty: Legenda o rycare
    Foreign Title (Non-latin): King's Bounty: Легенда о рыцаре
    Disc Number / Letter: (OPTIONAL)
    Disc Title: (OPTIONAL)
    System: IBM PC Compatible
    Media Type: DVD-ROM-5
    Category: Games
    Matching IDs: 75133
    Region: Russia
    Languages: Russian
    Disc Serial: (REQUIRED, IF EXISTS)

    Ringcode Information:
        Data Side Mastering Code (laser branded/etched): LASER CRAFT    www.disc.ru    UL 082441D5
        Data Side Mastering SID Code: IFPI L641
        Data Side Toolstamp or Mastering Code (engraved/stamped): (REQUIRED, IF EXISTS)
        Data Side Mould SID Code: IFPI 1I85
        Data Side Additional Mould: UEP-CD Лицензия МПТР России ВАФ № 77-15
        Label Side Mould SID Code: (REQUIRED, IF EXISTS)
        Label Side Additional Mould: 
    Barcode: 4 601546 048059
    Comments: English title: King's Bounty: The Legend
    Contents:

Adobe Reader 8.1.0 (Ru)
Manual (.pdf) available after installation
Video drivers:
8-3_vista32_dd_ccc_wdm_enu_59752.exe
8-3_vista64_dd_ccc_wdm_enu_59753.exe
8-3_xp32_dd_ccc_wdm_enu_59746.exe
8-3_xp64_dd_ccc_enu_59747.exe
169.21_forceware_winxp_32bit_international_whql.exe
169.25_forceware_winvista_32bit_international_whql.exe
169.25_forceware_winvista_64bit_international_whql.exe

Version and Editions:
    Version: 1.0 build 7599
    Edition/Release: Original

Extras:
    Primary Volume Descriptor (PVD):

0320 : 20 20 20 20 20 20 20 20  20 20 20 20 20 32 30 30                200
0330 : 38 30 34 30 37 31 37 30  32 32 30 30 30 2C 32 30   8040717022000,20
0340 : 30 38 30 34 30 37 31 37  30 32 32 30 30 30 2C 30   08040717022000,0
0350 : 30 30 30 30 30 30 30 30  30 30 30 30 30 30 30 00   000000000000000.
0360 : 30 30 30 30 30 30 30 30  30 30 30 30 30 30 30 30   0000000000000000
0370 : 00 01 00 55 4C 54 52 41  49 53 4F 00 38 2E 36 2E   ...ULTRAISO.8.6.

Copy Protection:
    Copy Protection: None found

Size & Checksum:
    Size: 4406247424
    CRC32: c5596a86
    MD5: 046d84a38c9c8fa9335e559b0b9fd499
    SHA1: 385cf2e4a5d95428c729393022a018cd5d97e42f

https://mega.nz/file/tNxB2KpK#I172X_jqW … q1XmuOoGHk

http://redump.org/disc/80565/

Common Disc Info:
    Title: Call of Duty: Modern Warfare 2
    Disc Number / Letter: 1
    Disc Title: (OPTIONAL)
    System: IBM PC Compatible
    Media Type: DVD-ROM-9
    Category: Games
    Matching IDs: 80565
    Region: Russia
    Languages: Klingon (CHANGE THIS)
    Disc Serial: (REQUIRED, IF EXISTS)

    Ringcode Information:
        Layer 0 (Inner) Mastering Code (laser branded/etched): (REQUIRED, IF EXISTS)
        Layer 0 (Inner) Mastering SID Code: (REQUIRED, IF EXISTS)
        Layer 0 (Inner) Toolstamp or Mastering Code (engraved/stamped): (REQUIRED, IF EXISTS)
        Data Side Mould SID Code: (REQUIRED, IF EXISTS)
        Data Side Additional Mould: (REQUIRED, IF EXISTS)
        Layer 1 (Outer) Mastering Code (laser branded/etched): (REQUIRED, IF EXISTS)
        Layer 1 (Outer) Mastering SID Code: (REQUIRED, IF EXISTS)
        Layer 1 (Outer) Toolstamp or Mastering Code (engraved/stamped): (REQUIRED, IF EXISTS)
        Label Side Mould SID Code: (REQUIRED, IF EXISTS)
    Barcode: (OPTIONAL)
    Comments: <b>Activision ID</b>: 33337202RU (Rear Cover)
    Contents: (OPTIONAL)

Version and Editions:
    Version: (REQUIRED, IF EXISTS)
    Edition/Release: Original (VERIFY THIS)

Extras:
    Primary Volume Descriptor (PVD):

0320 : 20 20 20 20 20 20 20 20  20 20 20 20 20 32 30 30                200
0330 : 39 31 30 31 36 32 30 35  31 33 34 30 30 E4 32 30   9101620513400.20
0340 : 30 39 31 30 31 36 32 30  35 31 33 34 30 30 E4 31   09101620513400.1
0350 : 39 38 35 31 30 31 36 32  30 35 30 35 36 30 30 E4   985101620505600.
0360 : 32 30 30 39 31 30 31 36  32 30 35 30 35 36 30 30   2009101620505600
0370 : E4 01 00 00 00 00 00 00  00 00 00 00 00 00 00 00   ................

Copy Protection:
    Copy Protection: Steam

Size & Checksum:
    Layerbreak: 2043664
    Size: 8370388992
    CRC32: 3e4a446b
    MD5: 6aaa6c5fd2adf41363fbcc321cdbd4e6
    SHA1: 3502d8cea8bc9ad8efab4b011afd9e035f137a4c

Mastering code: LASER CRAFT    www.disc.ru    UL 095320D9 (L1)
Mastering SID: IFPI L641
Mould SID: IFPI 1I76
Additional mould text: UEP-CD Лицензия МПТР России ВАФ № 77-15

Barcode: 5 030917 080388
Disc Serial: 33337101RU
ID above barcode: 33337202RU

2 on ring code looks strange, photo attached

http://redump.org/disc/75668/

Common Disc Info:
    Title: Counter-Strike: Source
    Foreign Title (Non-latin): 
    Disc Number / Letter: (OPTIONAL)
    Disc Title: (OPTIONAL)
    System: IBM PC Compatible
    Media Type: DVD-ROM-5
    Category: Games
    Matching IDs: 75668
    Region: Russia
    Languages: Chinese, English, French, German, Italian, Japanese, Korean, Russian, Spanish, Thai, Turkish
    Disc Serial: (REQUIRED, IF EXISTS)

    Ringcode Information:
        Data Side Mastering Code (laser branded/etched): LASER CRAFT    www.disc.ru    UL 056265D5
        Data Side Mastering SID Code: IFPI L642
        Data Side Toolstamp or Mastering Code (engraved/stamped): (REQUIRED, IF EXISTS)
        Data Side Mould SID Code: IFPI 1I80
        Data Side Additional Mould: UEP-CD Лицензия МПТР России ВАФ № 77-15
        Label Side Mould SID Code: (REQUIRED, IF EXISTS)
        Label Side Additional Mould: 
    Barcode: 4 600974 003913
    Comments: [T:ISBN] (OPTIONAL)
    Contents:

[+]Counter-Strike: Source

Half-Life 2: Deathmatch

Day of Defeat: Source

Version and Editions:
    Version: (REQUIRED, IF EXISTS)
    Edition/Release: Original

Extras:
    Primary Volume Descriptor (PVD):

0320 : 20 20 20 20 20 20 20 20  20 20 20 20 20 32 30 30                200
0330 : 35 31 31 31 38 31 38 31  38 34 36 30 30 30 32 30   5111818184600020
0340 : 30 35 31 31 31 38 31 38  31 38 34 36 30 30 30 39   0511181818460009
0350 : 39 39 39 31 32 33 31 30  30 30 30 30 30 30 30 30   9991231000000000
0360 : 39 39 39 39 31 32 33 31  30 30 30 30 30 30 30 30   9999123100000000
0370 : 30 01 00 00 00 00 00 00  00 00 00 00 00 00 00 00   0...............

Copy Protection:
    Copy Protection: None found

Size & Checksum:
    Size: 2379382784
    CRC32: 91a42d86
    MD5: 556fb75bcabd01a54eea068f20489936
    SHA1: da0cd7f31cb09acbda714a972a3fbe93d50baade

https://mega.nz/file/sZ4RAALI#WOVkdRtyu … GO55uVnruo

6

(1 replies, posted in Verifications)

Bonus disc:
http://redump.org/disc/81701/

Common Disc Info:
    Title: Turgor
    Foreign Title (Non-latin): Тургор Дополнительные материалы
    Disc Number / Letter: (OPTIONAL)
    Disc Title: Additional Materials
    System: IBM PC Compatible
    Media Type: DVD-ROM-5
    Category: Bonus Discs
    Matching IDs: 81701
    Region: Russia
    Languages: Russian
    Disc Serial: (REQUIRED, IF EXISTS)

    Ringcode Information:
        Data Side Mastering Code (laser branded/etched): LASER CRAFT    UL 081798D5
        Data Side Mastering SID Code: IFPI L641
        Data Side Toolstamp or Mastering Code (engraved/stamped): (REQUIRED, IF EXISTS)
        Data Side Mould SID Code: IFPI 1I86
        Data Side Additional Mould: UEP-CD Лицензия МПТР России ВАФ № 77-15
        Label Side Mould SID Code: (REQUIRED, IF EXISTS)
        Label Side Additional Mould: 
    Barcode: 4 690241 007409 >
    Comments: [T:ISBN] (OPTIONAL)
    Contents:

[+]<b>Арт</b>

Рекламные материалы, в том числе в высоком разрешении, подходящие для печати.

Более 150 рендеров, набросков и концептов, в том числе не использованных при разработке контента игры.

<b>Аудио</b>

Аудиоверсии докладов Николая Дыбовского с КРИ 2005–2007.

Большое количество оригинальных музыкальных композиций и звуковых файлов, в том числе не вошедших в финальную версию игры.

<b>Видео</b>

Интервью для журнала «Лучшие Компьютерные Игры» (ЛКИ).

Видеорепортаж с КРИ 2007 – Часть 1.

Видеорепортаж с КРИ 2007 – Часть 2.

Первый видеоролик, иллюстрирующий игровой процесс «Тургора».

Эксклюзивный видеоролик игры «Тургор» в высоком разрешении, специально для бонусного диска к игре Sinking Island.

Видеоролик игры «Тургор» в высоком разрешении для выставки «Дискография».

Видеоролик игры «Тургор» в высоком разрешении для GC.

Видеоролик игры «Тургор» для GDC в Лионе.

Видеоролик игры «Тургор» для КРИ 2007.

Видеоролик в высоком разрешении, иллюстрирующий игровой процесс игры «Мор.Утопия».

------------------------

English

<b>Artwork</b>

Promotional materials including hi-res variants fit for printing.

More than 150 renders, sketches and concept arts, including unused ones.

<b>Audio</b>

Audio versions of Nikolay Dybowski talks from KRI 2005-2007 events.

Huge amount of original music tracks and audio files, including unused ones.

<b>Video</b>

Interview given to Best Computer Games magazine.

Video report on KRI 2007 event - Part 1.

Video report on KRI 2007 event - Part 2.

First video to showcase gameplay of Turgor.

Exclusive Turgor video in high definition intended for Sinking Island bonus materials disc.

Turgor's gameplay video in high definition intended for Dicographia exhibition.

Turgor's gameplay video in high definition intended for GC.

Turgor's gameplay video intended for GDC in Leon.

Turgor's gameplay video intended for KRI 2007 event.

High definition video showcasing gameplay of Pathologic.

Version and Editions:
    Version: (REQUIRED, IF EXISTS)
    Edition/Release: Original

Extras:
    Primary Volume Descriptor (PVD):

0320 : 20 20 20 20 20 20 20 20  20 20 20 20 20 32 30 30                200
0330 : 38 30 33 31 39 32 30 32  34 30 33 30 30 0C 32 30   8031920240300.20
0340 : 30 38 30 33 31 39 32 30  32 34 30 33 30 30 0C 30   08031920240300.0
0350 : 30 30 30 30 30 30 30 30  30 30 30 30 30 30 30 00   000000000000000.
0360 : 30 30 30 30 30 30 30 30  30 30 30 30 30 30 30 30   0000000000000000
0370 : 00 01 00 00 00 00 00 00  00 00 00 00 00 00 00 00   ................

Copy Protection:
    Copy Protection: None found

Size & Checksum:
    Size: 4198432768
    CRC32: d941bc85
    MD5: 0ea1aec6a849e07612c5cf4fdfb6f45a
    SHA1: 6b2f2db6faaf11b74b518f52a303f2fe68b9968d

7

(1 replies, posted in Verifications)

Game disc:
http://redump.org/disc/81700/

Common Disc Info:
    Title: Turgor
    Foreign Title (Non-latin): Тургор
    Disc Number / Letter: (OPTIONAL)
    Disc Title: (OPTIONAL)
    System: IBM PC Compatible
    Media Type: DVD-ROM-5
    Category: Games
    Matching IDs: 81700
    Region: Russia
    Languages: Russian
    Disc Serial: (REQUIRED, IF EXISTS)

    Ringcode Information:
        Data Side Mastering Code (laser branded/etched): LASER CRAFT    UL 081786D5
        Data Side Mastering SID Code: IFPI L641
        Data Side Toolstamp or Mastering Code (engraved/stamped): (REQUIRED, IF EXISTS)
        Data Side Mould SID Code: IFPI 1I84
        Data Side Additional Mould: UEP-CD Лицензия МПТР России ВАФ № 77-15
        Label Side Mould SID Code: (REQUIRED, IF EXISTS)
        Label Side Additional Mould: 
    Barcode: 4 690241 007409 >
    Comments:

Voices: Russian

Bundled with a <a href=/disc/81701/>Bonus DVD</a>.

    Contents: (OPTIONAL)

Version and Editions:
    Version: (REQUIRED, IF EXISTS)
    Edition/Release: Original

Extras:
    Primary Volume Descriptor (PVD):

0320 : 20 20 20 20 20 20 20 20  20 20 20 20 20 32 30 30                200
0330 : 38 30 33 31 39 31 35 35  30 30 30 30 00 0C 32 30   803191550000..20
0340 : 30 38 30 33 31 39 31 35  35 30 30 30 30 00 0C 30   0803191550000..0
0350 : 30 30 30 30 30 30 30 30  30 30 30 30 30 30 30 00   000000000000000.
0360 : 30 30 30 30 30 30 30 30  30 30 30 30 30 30 30 30   0000000000000000
0370 : 00 01 00 00 00 00 00 00  00 00 00 00 00 00 00 00   ................

Copy Protection:
    Copy Protection: None found

Size & Checksum:
    Size: 4693262336
    CRC32: d6651493
    MD5: a59de5ec19f4895cfd654580bfddb5a8
    SHA1: b78b94c313c60c454511e697d55bf34796159ca5

http://redump.org/disc/29264/

Common Disc Info:
    Title: Xbox 360 Accessories 1.2
    Foreign Title (Non-latin): 
    Disc Number / Letter: (OPTIONAL)
    Disc Title: (OPTIONAL)
    System: IBM PC Compatible
    Media Type: CD-ROM
    Category: Applications
    Matching IDs: 29264
    Region: World
    Languages: Chinese, English, French, German, Greek, Italian, Japanese, Korean, Portuguese, Spanish
    Disc Serial: (REQUIRED, IF EXISTS)

    Ringcode Information:
        Data Side Mastering Code (laser branded/etched): arvato digital services BERTELSMANN    111213 --207810    X16-06788-01
        Data Side Mastering SID Code: (REQUIRED, IF EXISTS)
        Data Side Toolstamp or Mastering Code (engraved/stamped): (REQUIRED, IF EXISTS)
        Data Side Mould SID Code: ifpi ADV01
        Data Side Additional Mould: (REQUIRED, IF EXISTS)
        Label Side Mould SID Code: (REQUIRED, IF EXISTS)
        Label Side Additional Mould: 
    Barcode: (OPTIONAL)
    Error Count: 0
    Comments: PartNo.X1606787-01
    Contents: (OPTIONAL)

Version and Editions:
    Version: (REQUIRED, IF EXISTS)
    Edition/Release: Original (VERIFY THIS)

Extras:
    Primary Volume Descriptor (PVD):

0320 : 20 20 20 20 20 20 20 20  20 20 20 20 20 32 30 30                200
0330 : 39 31 30 31 31 31 37 30  30 30 30 30 30 E4 30 30   9101117000000.00
0340 : 30 30 30 30 30 30 30 30  30 30 30 30 30 30 00 30   00000000000000.0
0350 : 30 30 30 30 30 30 30 30  30 30 30 30 30 30 30 00   000000000000000.
0360 : 30 30 30 30 30 30 30 30  30 30 30 30 30 30 30 30   0000000000000000
0370 : 00 01 00 00 00 00 00 00  00 00 00 00 00 00 00 00   ................

Copy Protection:
    Copy Protection: (CHECK WITH PROTECTIONID)

Tracks and Write Offsets:
    DAT:

<rom name="Xbox360_1_2.bin" size="121668960" crc="4bcaf613" md5="fe497a3a26bec808b5a8955f4c226c68" sha1="1d35c50d35ccfb54a66b71dfc684e44f5278e37f" />

    Cuesheet:

FILE "Xbox360_1_2.bin" BINARY
  TRACK 01 MODE1/2352
    INDEX 01 00:00:00

    Write Offset: -12

https://mega.nz/file/9dhwHLDZ#GTxziVWEi … bA89MgioY0

9

(1 replies, posted in Verifications)

Disc 2
http://redump.org/disc/10615/

Common Disc Info:
    Title: Grand Theft Auto IV
    Foreign Title (Non-latin): 
    Disc Number / Letter: 2
    Disc Title: (OPTIONAL)
    System: IBM PC Compatible
    Media Type: DVD-ROM-9
    Category: Games
    Matching IDs: 10615
    Region: Russia
    Languages: Russian
    Disc Serial: (REQUIRED, IF EXISTS)

    Ringcode Information:
        Layer 0 (Inner) Mastering Code (laser branded/etched): LASER CRAFT    www.disc.ru    UL 088610D9 (L1)
        Layer 0 (Inner) Mastering SID Code: IFPI L641
        Layer 0 (Inner) Toolstamp or Mastering Code (engraved/stamped): (REQUIRED, IF EXISTS)
        Data Side Mould SID Code: IFPI 1I94
        Data Side Additional Mould: UEP-CD Лицензия МПТР России ВАФ № 77-15
        Layer 1 (Outer) Mastering Code (laser branded/etched): (REQUIRED, IF EXISTS)
        Layer 1 (Outer) Mastering SID Code: (REQUIRED, IF EXISTS)
        Layer 1 (Outer) Toolstamp or Mastering Code (engraved/stamped): (REQUIRED, IF EXISTS)
        Label Side Mould SID Code: (REQUIRED, IF EXISTS)
        Label Side Additional Mould: 
    Barcode: 4 601546 056443
    Comments: [T:ISBN] (OPTIONAL)
    Contents: (OPTIONAL)

Version and Editions:
    Version: 1.0
    Edition/Release: Original

Extras:
    Primary Volume Descriptor (PVD): 

Copy Protection:
    Copy Protection: None found

Size & Checksum:
    Layerbreak: 1709568
    Size: 7002357760
    CRC32: 202d1287
    MD5: b08db467b340aed0e709616d980bc945
    SHA1: a7f2c84dc6a3027590b4e648796c349f8b7dcd22

https://mega.nz/file/NM4GjADK#i8dR15Z1V … rurhn4lCe8

10

(1 replies, posted in Verifications)

Disc 1
http://redump.org/disc/10614/

Common Disc Info:
    Title: Grand Theft Auto IV
    Foreign Title (Non-latin): 
    Disc Number / Letter: 1
    Disc Title: (OPTIONAL)
    System: IBM PC Compatible
    Media Type: DVD-ROM-9
    Category: Games
    Matching IDs: 10614
    Region: Russia
    Languages: Russian
    Disc Serial: (REQUIRED, IF EXISTS)

    Ringcode Information:
        Layer 0 (Inner) Mastering Code (laser branded/etched): LASER CRAFT    www.disc.ru    UL 088542D9 (L1)
        Layer 0 (Inner) Mastering SID Code: IFPI L641
        Layer 0 (Inner) Toolstamp or Mastering Code (engraved/stamped): (REQUIRED, IF EXISTS)
        Data Side Mould SID Code: IFPI 1I92
        Data Side Additional Mould: UEP-CD Лицензия МПТР России ВАФ № 77-15
        Layer 1 (Outer) Mastering Code (laser branded/etched): (REQUIRED, IF EXISTS)
        Layer 1 (Outer) Mastering SID Code: (REQUIRED, IF EXISTS)
        Layer 1 (Outer) Toolstamp or Mastering Code (engraved/stamped): (REQUIRED, IF EXISTS)
        Label Side Mould SID Code: (REQUIRED, IF EXISTS)
        Label Side Additional Mould: 
    Barcode: 4 601546 056443
    Comments: [T:ISBN] (OPTIONAL)
    Contents: (OPTIONAL)

Version and Editions:
    Version: 1.0
    Edition/Release: Original

Extras:
    Primary Volume Descriptor (PVD): 

Copy Protection:
    Copy Protection: Games for Windows LIVE, Games for Windows LIVE 1.0.0.0, SecuROM 7.38.0014, SecuROM Product Activation 1.0.1.14

Size & Checksum:
    Layerbreak: 1919088
    Size: 7860584448
    CRC32: 75c3a71c
    MD5: 515010fda91291b2442d305994e5bdd5
    SHA1: 2bff52e146deb358088667e52864ae62777c0cb3

https://mega.nz/file/0chWlapB#ztzKCBZQH … aZQJFPGUEI

http://redump.org/disc/71159/
Another disc with different ring code. No unusual symbols this time

Common Disc Info:
    Title: Call of Duty: Black Ops
    Foreign Title (Non-latin): 
    Disc Number / Letter: (OPTIONAL)
    Disc Title: (OPTIONAL)
    System: IBM PC Compatible
    Media Type: DVD-ROM-9
    Category: Games
    Matching IDs: 71159
    Region: Russia
    Languages: Klingon (CHANGE THIS)
    Disc Serial: 35801101RU

    Ringcode Information:
        Layer 0 (Inner) Mastering Code (laser branded/etched): 05222-1 L0
        Layer 0 (Inner) Mastering SID Code: IFPI LW80
        Layer 0 (Inner) Toolstamp or Mastering Code (engraved/stamped): (REQUIRED, IF EXISTS)
        Data Side Mould SID Code: (REQUIRED, IF EXISTS)
        Data Side Additional Mould: (REQUIRED, IF EXISTS)
        Layer 1 (Outer) Mastering Code (laser branded/etched): 05222-1 L1
        Layer 1 (Outer) Mastering SID Code: IFPI LW80
        Layer 1 (Outer) Toolstamp or Mastering Code (engraved/stamped): (REQUIRED, IF EXISTS)
        Label Side Mould SID Code: IFPI ZK-18
        Label Side Additional Mould: ООО "Ди Ви Ди КЛУБ" ЛИЦЕНЗИЯ МПТР РОССИИ ВАФ № 77-178
    Barcode: 4 603752 005222
    Comments: Ringcode contains an unknown <a href=https://web.archive.org/web/20200703152111/https://i.ibb.co/LJD61yn/Clipboard01.png>symbol</a>.
    Contents:

[+]call of duty black ops content.ncf AC17FBAE013EB5D5A549EBF9907C78A5

Call of Duty Black Ops Russian.ncf D9AD91A8DB3258C4C8210D505DCB0F70

Version and Editions:
    Version: (REQUIRED, IF EXISTS)
    Edition/Release: Original

Extras:
    Primary Volume Descriptor (PVD):

0320 : 20 20 20 20 20 20 20 20  20 20 20 20 20 32 30 31                201
0330 : 30 31 30 31 33 30 32 30  37 34 33 30 30 E4 32 30   0101302074300.20
0340 : 31 30 31 30 31 33 30 32  30 37 34 33 30 30 E4 31   10101302074300.1
0350 : 39 38 36 31 30 31 33 30  32 30 37 32 34 30 30 E4   986101302072400.
0360 : 32 30 31 30 31 30 31 33  30 32 30 37 32 34 30 30   2010101302072400
0370 : E4 01 00 00 00 00 00 00  00 00 00 00 00 00 00 00   ................

Copy Protection:
    Copy Protection: Steam

Size & Checksum:
    Layerbreak: 1953872
    Size: 7837941760
    CRC32: e98b0e1e
    MD5: e8bef34214b8edeff48bf7400883bb76
    SHA1: e2d9fd8e382d1ff469348236988b840e83e0b9c9

https://mega.nz/file/sNwV1aKA#Adfsgbm2a … 6rHGt3x7nU

12

(0 replies, posted in Verifications)

http://redump.org/disc/8319/

Common Disc Info:
    Title: BioShock
    Foreign Title (Non-latin): 
    Disc Number / Letter: (OPTIONAL)
    Disc Title: (OPTIONAL)
    System: IBM PC Compatible
    Media Type: DVD-ROM-5
    Category: Games
    Matching IDs: 8319
    Region: Russia
    Languages: Russian
    Disc Serial: (REQUIRED, IF EXISTS)

    Ringcode Information:
        Data Side Mastering Code (laser branded/etched): Sony DADC    5273152DVDRUS 04
        Data Side Mastering SID Code: IFPI LY33
        Data Side Toolstamp or Mastering Code (engraved/stamped): (REQUIRED, IF EXISTS)
        Data Side Mould SID Code: IFPI 1I84
        Data Side Additional Mould: UEP-CD Лицензия МПТР России ВАФ № 77-15
        Label Side Mould SID Code: (REQUIRED, IF EXISTS)
        Label Side Additional Mould: 
    Barcode: 4 601546 042750
    Comments: 
    Contents: (OPTIONAL)

Version and Editions:
    Version:
    Edition/Release: Original (VERIFY THIS)

Extras:
    Primary Volume Descriptor (PVD): 

Copy Protection:
    Copy Protection: SecuROM 7.34.0007, SecuROM Product Activation 1.0.1.3

Size & Checksum:
    Size: 4647649280
    CRC32: 91109721
    MD5: b4d26c1865469caee07e557129bca46c
    SHA1: 8716acc52447ea159827ad41c0b04da36f7ffafc

https://mega.nz/file/VJgzQQRI#zry0q10zS … L_DBQ427CA

13

(2 replies, posted in Verifications)

Disc 3
http://redump.org/disc/59747/

Common Disc Info:
    Title: BioShock Infinite
    Foreign Title (Non-latin): 
    Disc Number / Letter: 3
    Disc Title: (OPTIONAL)
    System: IBM PC Compatible
    Media Type: DVD-ROM-5
    Category: Games
    Matching IDs: 59747
    Region: Europe
    Languages: English, French, German, Italian, Japanese, Portuguese, Spanish
    Disc Serial: (REQUIRED, IF EXISTS)

    Ringcode Information:
        Data Side Mastering Code (laser branded/etched): 5059343DVD3
        Data Side Mastering SID Code: IFPI LZ74
        Data Side Toolstamp or Mastering Code (engraved/stamped): (REQUIRED, IF EXISTS)
        Data Side Mould SID Code: IFPI ALB21
        Data Side Additional Mould: ООО "Сони ДАДС" Лицензия Роскомнадзора № 77-339
        Label Side Mould SID Code: (REQUIRED, IF EXISTS)
        Label Side Additional Mould: 
    Barcode: 4 603752 008278
    Comments: [T:ISBN] (OPTIONAL)
    Contents: (OPTIONAL)

Version and Editions:
    Version: (REQUIRED, IF EXISTS)
    Edition/Release: Original

Extras:
    Primary Volume Descriptor (PVD):

0320 : 20 20 20 20 20 20 20 20  20 20 20 20 20 32 30 31                201
0330 : 33 30 32 31 35 30 35 35  31 34 32 30 30 00 30 30   3021505514200.00
0340 : 30 30 30 30 30 30 30 30  30 30 30 30 30 30 00 30   00000000000000.0
0350 : 30 30 30 30 30 30 30 30  30 30 30 30 30 30 30 00   000000000000000.
0360 : 30 30 30 30 30 30 30 30  30 30 30 30 30 30 30 30   0000000000000000
0370 : 00 01 00 00 00 00 00 00  00 00 00 00 00 00 00 00   ................

Copy Protection:
    Copy Protection: None found

Size & Checksum:
    Size: 808583168
    CRC32: 655242fb
    MD5: 4d50751b3366303ed914effc04a4800a
    SHA1: 8c7b9f5e26874a62accb710227de77dacb3ef509

https://mega.nz/file/4E50lLTI#_lLQpPGJm … ohGU9b09Mk

14

(2 replies, posted in Verifications)

Disc 2
http://redump.org/disc/59746/

Common Disc Info:
    Title: BioShock Infinite
    Foreign Title (Non-latin): 
    Disc Number / Letter: 2
    Disc Title: (OPTIONAL)
    System: IBM PC Compatible
    Media Type: DVD-ROM-9
    Category: Games
    Matching IDs: 59746
    Region: Europe
    Languages: English, French, German, Italian, Japanese, Portuguese, Spanish
    Disc Serial: (REQUIRED, IF EXISTS)

    Ringcode Information:
        Layer 0 (Inner) Mastering Code (laser branded/etched): 5059343DVD2 L0
        Layer 0 (Inner) Mastering SID Code: IFPI LZ74
        Layer 0 (Inner) Toolstamp or Mastering Code (engraved/stamped): (REQUIRED, IF EXISTS)
        Data Side Mould SID Code: IFPI ALB23
        Data Side Additional Mould: ООО "Сони ДАДС" Лицензия Роскомнадзора № 77-339
        Layer 1 (Outer) Mastering Code (laser branded/etched): 5059343DVD2 L1
        Layer 1 (Outer) Mastering SID Code: IFPI LZ74
        Layer 1 (Outer) Toolstamp or Mastering Code (engraved/stamped): (REQUIRED, IF EXISTS)
        Label Side Mould SID Code: IFPI ALB 22
        Label Side Additional Mould: ООО Сони ДАДС Лицензия Роскомнадзора No77-339
    Barcode: 4 603752 008278
    Comments: [T:ISBN] (OPTIONAL)
    Contents: (OPTIONAL)

Version and Editions:
    Version: (REQUIRED, IF EXISTS)
    Edition/Release: Original

Extras:
    Primary Volume Descriptor (PVD):

0320 : 20 20 20 20 20 20 20 20  20 20 20 20 20 32 30 31                201
0330 : 33 30 32 31 35 30 35 35  31 31 30 30 30 00 30 30   3021505511000.00
0340 : 30 30 30 30 30 30 30 30  30 30 30 30 30 30 00 30   00000000000000.0
0350 : 30 30 30 30 30 30 30 30  30 30 30 30 30 30 30 00   000000000000000.
0360 : 30 30 30 30 30 30 30 30  30 30 30 30 30 30 30 30   0000000000000000
0370 : 00 01 00 00 00 00 00 00  00 00 00 00 00 00 00 00   ................

Copy Protection:
    Copy Protection: None found

Size & Checksum:
    Layerbreak: 2060688
    Size: 8440578048
    CRC32: a6117070
    MD5: 60744b149b884ac30bf29ce31d699fd8
    SHA1: b5e7deba792e490db46605897147f1a228404620

https://mega.nz/file/4E50lLTI#_lLQpPGJm … ohGU9b09Mk

15

(2 replies, posted in Verifications)

Box advertises russian subtitles, but inlay instruction, says, that you need to manually switch game to Russian via Steam.
Disc 1
http://redump.org/disc/59745/

Common Disc Info:
    Title: Bloshock Infinite
    Foreign Title (Non-latin): (OPTIONAL)
    Disc Number / Letter: 1
    Disc Title: (OPTIONAL)
    System: IBM PC Compatible
    Media Type: DVD-ROM-9
    Category: Games
    Region: Russia
    Languages: Klingon (CHANGE THIS)
    Disc Serial: (REQUIRED, IF EXISTS)

    Ringcode Information:
        Inner Mastering Code (laser branded/etched): 5059343DVD1 L0
        Inner Mastering SID Code: IFPI LZ74
        Inner Toolstamp or Mastering Code (engraved/stamped): (REQUIRED, IF EXISTS)
        Outer Mastering Code (laser branded/etched): 5059343DVD1 L1
        Outer Mastering SID Code: IFPI LZ74
        Outer Toolstamp or Mastering Code (engraved/stamped): (REQUIRED, IF EXISTS)
        Data-Side Mould SID Code: IFPI ALB22
        Label-Side Mould SID Code: IFPI ALB 23
        Additional Mould: ООО "Сони ДАДС" Лицензия Роскомнадзора № 77-339
    Barcode: 4 603752 008278
    Comments: Additional Mould L1: ООО Сони ДАДС Лицензия Роскомнадзора No77-339
    Contents: (OPTIONAL)

Version and Editions:
    Version: (REQUIRED, IF EXISTS)
    Edition/Release: Original

Extras:
    Primary Volume Descriptor (PVD):

0320 : 20 20 20 20 20 20 20 20  20 20 20 20 20 32 30 31                201
0330 : 33 30 32 31 35 30 35 35  30 34 31 30 30 00 30 30   3021505504100.00
0340 : 30 30 30 30 30 30 30 30  30 30 30 30 30 30 00 30   00000000000000.0
0350 : 30 30 30 30 30 30 30 30  30 30 30 30 30 30 30 00   000000000000000.
0360 : 30 30 30 30 30 30 30 30  30 30 30 30 30 30 30 30   0000000000000000
0370 : 00 01 00 00 00 00 00 00  00 00 00 00 00 00 00 00   ................

Copy Protection:
    Copy Protection:

E:\: Steam
E:\SteamRetailInstaller.dmg: Steam

Size & Checksum:
    Layerbreak: 2078560
    Size: 8513781760
    CRC32: 7a02ccf4
    MD5: 74e40f37ff11d038487c427e0b6819d6
    SHA1: 5d19b0d318aa923cd557d288be41fc5257abf4af

https://mega.nz/file/4E50lLTI#_lLQpPGJm … ohGU9b09Mk

16

(0 replies, posted in Verifications)

http://redump.org/disc/75773/

Common Disc Info:
    Title: Far Cry 2
    Foreign Title (Non-latin): (OPTIONAL)
    Disc Number / Letter: (OPTIONAL)
    Disc Title: (OPTIONAL)
    System: IBM PC Compatible
    Media Type: DVD-ROM-5
    Category: Games
    Region: Russia
    Languages: Klingon (CHANGE THIS)
    Disc Serial: (REQUIRED, IF EXISTS)

    Ringcode Information:
        Mastering Code (laser branded/etched): LASER CRAFT    www.disc.ru    UL 087556D5
        Mastering SID Code: IFPI L641
        Data-Side Mould SID Code: IFPI 1I04
        Label-Side Mould SID Code: (REQUIRED, IF EXISTS)
        Additional Mould: UEP-CD Лицензия МПТР России ВАФ № 77-15
        Toolstamp or Mastering Code (engraved/stamped): (REQUIRED, IF EXISTS)
    Barcode: 4 600974 009663
    Comments: [T:ISBN] (OPTIONAL)
    Contents: (OPTIONAL)

Version and Editions:
    Version: (REQUIRED, IF EXISTS)
    Edition/Release: Original

Extras:
    Primary Volume Descriptor (PVD): 

Copy Protection:
    Copy Protection:

E:\ISSetup.dll: PE Compact 2
E:\Executables\FarCry2.exe: CD Check, SecuROM 7.38.0009
E:\Executables\FC2.dll: SecuROM Product Activation 1.0.1.10

Size & Checksum:
    Size: 3038642176
    CRC32: a30fdb77
    MD5: 3d50d70687545a3780466e0e43b25cf9
    SHA1: d609cc737863e7120c55ec95b16e58884d629ec8

https://mega.nz/file/tIInRQpK#GKfh6ElZf … aRZKJwVqCQ

http://redump.org/disc/2157/
according to GOST translit system, that we use, title should be: Operaciya Flashpoint: Xolodnaya vojna
English title: Operation Flashpoint: Cold War Crisis
Copy protection: CD-Key

Common Disc Info:
    Title: Operaciya Flashpoint: Xolodnaya vojna
    Foreign Title (Non-latin): Операция Flashpoint: Холодная война
    Disc Number / Letter: (OPTIONAL)
    Disc Title: (OPTIONAL)
    System: IBM PC Compatible
    Media Type: CD-ROM
    Category: Games
    Matching IDs: 2157
    Region: Russia
    Languages: Russian
    Disc Serial: (REQUIRED, IF EXISTS)

    Ringcode Information:
        Mastering Code (laser branded/etched): UEP-CD RUSSIA    www.disc.ru    UL 020499R
        Mastering SID Code: IFPI L641
        Data-Side Mould SID Code: IFPI 1I01
        Label-Side Mould SID Code: (REQUIRED, IF EXISTS)
        Additional Mould: UEP-CD Лицензия МПТР России ВАФ № 77-15
        Toolstamp or Mastering Code (engraved/stamped): (REQUIRED, IF EXISTS)
    Barcode: 4 600974 000325
    Error Count: 0
    Comments:

according to GOST translit system, that we use, title should be: Operaciya Flashpoint: Xolodnaya vojna

English title: Operation Flashpoint: Cold War Crisis

    Contents: (OPTIONAL)

Version and Editions:
    Version: 1.46
    Edition/Release: Original

Extras:
    Primary Volume Descriptor (PVD):

0320 : 20 20 20 20 20 20 20 20  20 20 20 20 20 32 30 30                200
0330 : 32 30 33 31 35 31 37 32  34 30 30 30 30 0C 32 30   2031517240000.20
0340 : 30 32 30 33 31 35 31 37  32 34 30 30 30 30 0C 30   02031517240000.0
0350 : 30 30 30 30 30 30 30 30  30 30 30 30 30 30 30 00   000000000000000.
0360 : 30 30 30 30 30 30 30 30  30 30 30 30 30 30 30 30   0000000000000000
0370 : 00 01 00 00 00 00 00 00  00 00 00 00 00 00 00 00   ................

Copy Protection:
    Copy Protection: 

Tracks and Write Offsets:
    DAT:

<rom name="OFPRUS.bin" size="726229392" crc="82aaaad3" md5="5c1eaa5abfa8d9944b67d0f93dcbc692" sha1="b41794267ebb6cb05a670ad25eb0ae2b5b8782ae" />

    Cuesheet:

FILE "OFPRUS.bin" BINARY
  TRACK 01 MODE1/2352
    INDEX 01 00:00:00

    Write Offset: -22

https://mega.nz/file/tVRm2ByK#OJZbrLjNv … GQLeY70d9o

Disc 2
http://redump.org/disc/10612/
Disc title in fact: Igrovoj disk
Russian: Игровой диск
Translation: Play disc

Common Disc Info:
    Title: Jagged Alliance 2: Zolotaja serija
    Foreign Title (Non-latin): Jagged Alliance 2: Золотая серия
    Disc Number / Letter: 2
    Disc Title: Igrovoj
    System: IBM PC Compatible
    Media Type: CD-ROM
    Category: Games
    Matching IDs: 10612
    Region: Russia
    Languages: Russian
    Disc Serial: (REQUIRED, IF EXISTS)

    Ringcode Information:
        Mastering Code (laser branded/etched): UEP-CD    www.disc.ru    UL 031423R
        Mastering SID Code: IFPI L641
        Data-Side Mould SID Code: IFPI 1I08
        Label-Side Mould SID Code: (REQUIRED, IF EXISTS)
        Additional Mould: UEP-CD Лицензия МПТР России ВАФ № 77-15
        Toolstamp or Mastering Code (engraved/stamped): (REQUIRED, IF EXISTS)
    Barcode: 4 600974 001056
    Error Count: 0
    Comments: [T:ISBN] (OPTIONAL)
    Contents:

Jagged Alliance 2: Агония власти v1.12 (Jagged Alliance 2)


Jagged Alliance 2: Цена свободы v1.02 (Jagged Alliance 2: Unfinished Business)

Version and Editions:
    Version: (REQUIRED, IF EXISTS)
    Edition/Release: Original

Extras:
    Primary Volume Descriptor (PVD):

0320 : 20 20 20 20 20 20 20 20  20 20 20 20 20 32 30 30                200
0330 : 33 30 38 30 35 31 34 35  33 30 30 30 30 10 32 30   3080514530000.20
0340 : 30 33 30 38 30 35 31 34  35 33 30 30 30 30 10 30   03080514530000.0
0350 : 30 30 30 30 30 30 30 30  30 30 30 30 30 30 30 00   000000000000000.
0360 : 30 30 30 30 30 30 30 30  30 30 30 30 30 30 30 30   0000000000000000
0370 : 00 01 00 00 00 00 00 00  00 00 00 00 00 00 00 00   ................

Copy Protection:
    Copy Protection: 

Tracks and Write Offsets:
    DAT:

<rom name="JA2_PLAY.bin" size="740273184" crc="6ec1284a" md5="53a0e95c15626b66626307c0bde9db55" sha1="504a32aec11c389e39df82deab3c395df11e90cf" />

    Cuesheet:

FILE "JA2_PLAY.bin" BINARY
  TRACK 01 MODE1/2352
    INDEX 01 00:00:00

    Write Offset: -22

https://mega.nz/file/NRwU0ZaR#34uE7qm0e … jqSA_ueJX0

Disc 1
http://redump.org/disc/10611/
Disc title in fact: Ustanovochnyj disk
Russian: Установочный диск
Translation: Install disc

Common Disc Info:
    Title: Jagged Alliance 2: Zolotaja serija
    Foreign Title (Non-latin): Jagged Alliance 2: Золотая серия
    Disc Number / Letter: 1
    Disc Title: (OPTIONAL)
    System: IBM PC Compatible
    Media Type: CD-ROM
    Category: Games
    Matching IDs: 10611
    Region: Russia
    Languages: Russian
    Disc Serial: (REQUIRED, IF EXISTS)

    Ringcode Information:
        Mastering Code (laser branded/etched): UEP-CD    www.disc.ru    UL 031422R
        Mastering SID Code: IFPI L641
        Data-Side Mould SID Code: IFPI 1I08
        Label-Side Mould SID Code: (REQUIRED, IF EXISTS)
        Additional Mould: UEP-CD Лицензия МПТР России ВАФ № 77-15
        Toolstamp or Mastering Code (engraved/stamped): (REQUIRED, IF EXISTS)
    Barcode: 4 600974 001056
    Error Count: 0
    Comments: [T:ISBN] (OPTIONAL)
    Contents:

Adobe Reader 5.0.5

Manuals (.pdf)

Jagged Alliance 2: Агония власти v1.12 (Jagged Alliance 2)

Jagged Alliance 2: Цена свободы v1.02 (Jagged Alliance 2: Unfinished Business)

Version and Editions:
    Version: (REQUIRED, IF EXISTS)
    Edition/Release: Original

Extras:
    Primary Volume Descriptor (PVD):

0320 : 20 20 20 20 20 20 20 20  20 20 20 20 20 32 30 30                200
0330 : 33 30 38 30 35 31 34 33  37 30 30 30 30 10 32 30   3080514370000.20
0340 : 30 33 30 38 30 35 31 34  33 37 30 30 30 30 10 30   03080514370000.0
0350 : 30 30 30 30 30 30 30 30  30 30 30 30 30 30 30 00   000000000000000.
0360 : 30 30 30 30 30 30 30 30  30 30 30 30 30 30 30 30   0000000000000000
0370 : 00 01 00 00 00 00 00 00  00 00 00 00 00 00 00 00   ................

Copy Protection:
    Copy Protection:

E:\data1.hdr: CD Check, CD Check, CD Check
E:\Adobe Acrobat Reader\_user1.hdr: CD Check, CD Check

Tracks and Write Offsets:
    DAT:

<rom name="JA2_INSTALL.bin" size="342853392" crc="92943e49" md5="1967e4d1f950c68d9b7683551e861afc" sha1="fcd762da55ee3f255de81c3c19d0f368880bab7f" />

    Cuesheet:

FILE "JA2_INSTALL.bin" BINARY
  TRACK 01 MODE1/2352
    INDEX 01 00:00:00

    Write Offset: -22

https://mega.nz/file/QYwGELYY#3bxSPXkqI … llc2Z1VvR4

http://redump.org/disc/4290/
English title: Sea Dogs
Correct translit of title should be: Korsary: Proklyat'e dal'nix morej
Edition should be: 1С: Коллекция Игрушек


Common Disc Info:
    Title: Korsary: Proklyat'e dal'nix morej
    Foreign Title (Non-latin): Корсары: Проклятье дальних морей
    Disc Number / Letter: (OPTIONAL)
    Disc Title: (OPTIONAL)
    System: IBM PC Compatible
    Media Type: CD-ROM
    Category: Games
    Matching IDs: 4290
    Region: Russia
    Languages: Russian
    Disc Serial: (REQUIRED, IF EXISTS)

    Ringcode Information:
        Mastering Code (laser branded/etched): UEP-CD    www.disc.ru    UL 01642R
        Mastering SID Code: IFPI L641
        Data-Side Mould SID Code: IFPI 1I02
        Label-Side Mould SID Code: (REQUIRED, IF EXISTS)
        Additional Mould: UEP-CD Лицензия МПТР России ВАФ № 77-15
        Toolstamp or Mastering Code (engraved/stamped): (REQUIRED, IF EXISTS)
    Barcode: 4 601546 010339
    Error Count: 0
    Comments: [T:ISBN] (OPTIONAL)
    Contents: (OPTIONAL)

Version and Editions:
    Version: 1.061
    Edition/Release: 1С: Коллекция Игрушек

Extras:
    Primary Volume Descriptor (PVD):

0320 : 20 20 20 20 20 20 20 20  20 20 20 20 20 32 30 30                200
0330 : 31 30 36 33 30 30 30 34  31 30 30 30 30 10 32 30   1063000410000.20
0340 : 30 31 30 36 33 30 30 30  34 31 30 30 30 30 10 30   01063000410000.0
0350 : 30 30 30 30 30 30 30 30  30 30 30 30 30 30 30 00   000000000000000.
0360 : 30 30 30 30 30 30 30 30  30 30 30 30 30 30 30 30   0000000000000000
0370 : 00 01 00 00 00 00 00 00  00 00 00 00 00 00 00 00   ................

Copy Protection:
    Copy Protection: 

Tracks and Write Offsets:
    DAT:

<rom name="SEADOGS.bin" size="488583312" crc="67bed1ba" md5="35bb7e76f7fb7eeb3cc954a148d14aef" sha1="107aa650f99ddbc175ac47e277ed2ec6bbb1b21a" />

    Cuesheet:

FILE "SEADOGS.bin" BINARY
  TRACK 01 MODE1/2352
    INDEX 01 00:00:00

    Write Offset: -22

https://mega.nz/file/YMp12Czb#Uvgye21MG … zbs9JXVq6w

21

(0 replies, posted in Verifications)

http://redump.org/disc/81233/

Common Disc Info:
    Title: Shrek 2
    Foreign Title (Non-latin): Шрек 2
    Disc Number / Letter: (OPTIONAL)
    Disc Title: (OPTIONAL)
    System: IBM PC Compatible
    Media Type: CD-ROM
    Category: Games
    Matching IDs: 81233
    Region: Russia
    Languages: Russian
    Disc Serial: (REQUIRED, IF EXISTS)

    Ringcode Information:
        Mastering Code (laser branded/etched): SHREK 2 PC
        Mastering SID Code: (REQUIRED, IF EXISTS)
        Data-Side Mould SID Code: IFPI 1I06
        Label-Side Mould SID Code: (REQUIRED, IF EXISTS)
        Additional Mould: UEP-CD Лицензия МПТР России ВАФ № 77-15
        Toolstamp or Mastering Code (engraved/stamped): (REQUIRED, IF EXISTS)
    Barcode: 4 601546 023605
    Error Count: 584
    Comments: Voices in Russian
    Contents: (OPTIONAL)

Version and Editions:
    Version: (REQUIRED, IF EXISTS)
    Edition/Release: 1С: Коллекция Игрушек

Extras:
    Primary Volume Descriptor (PVD):

0320 : 20 20 20 20 20 20 20 20  20 20 20 20 20 32 30 30                200
0330 : 35 30 33 32 31 32 30 30  35 33 38 30 30 00 32 30   5032120053800.20
0340 : 30 35 30 33 32 31 32 30  30 35 33 38 30 30 00 30   05032120053800.0
0350 : 30 30 30 30 30 30 30 30  30 30 30 30 30 30 30 00   000000000000000.
0360 : 30 30 30 30 30 30 30 30  30 30 30 30 30 30 30 30   0000000000000000
0370 : 00 01 00 00 00 00 00 00  00 00 00 00 00 00 00 00   ................

Copy Protection:
    Copy Protection:

E:\: SafeDisc 3.15-3.20
E:\00000000.016: SafeDisc 1
E:\00000000.256: SafeDisc 1
E:\00000001.TMP: SafeDisc 1 or greater
E:\DrvMgt.dll: SafeDisc 3.15-3.20
E:\Game.exe: SafeDisc 3.20.022
E:\SECDRV.SYS: SafeDisc 3.20

Tracks and Write Offsets:
    DAT:

<rom name="SHREK2.bin" size="548171232" crc="20fb871c" md5="8594b5e1e825913c107bbe79eb52289e" sha1="66afb94fdfa0e7193bcb282adc9fc4315911ff56" />

    Cuesheet:

FILE "SHREK2.bin" BINARY
  TRACK 01 MODE1/2352
    INDEX 01 00:00:00

    Write Offset: -12

https://mega.nz/file/JBoRES4Z#GG9jD82ox … NetqrXVtk8

http://redump.org/disc/71324/

found another copy. All matched, except mould SID: IFPI 1I04

https://mega.nz/file/lFgVHQzB#sU60ZE2qK … _mFpHRlVzk