Since nothing is done with this, I decided to liven up the posts. So now with colours + names + thumbnails (rather large ones...). Blue = new info (missing in DB), Red = different with DB.

Last of the redumps...

___________________________________________________________________
|||                              Star Ocean: The Second Story (Europe)                                  |||
¯¯¯¯¯¯¯¯¯¯¯¯¯¯¯¯¯¯¯¯¯¯¯¯¯¯¯¯¯¯¯¯¯¯¯¯¯¯¯¯¯¯¯¯¯¯¯¯¯¯¯¯¯¯¯¯¯¯¯¯¯¯¯¯¯¯¯
----------------------------------------------------
¦ Star Ocean: The Second Story (Disc 1) ¦
----------------------------------------------------

http://redump.org/disc/2399/

Write offset: -647

rom name="track 01.bin" size="556266816" crc="70b5a08f" 
md5="3ce073419bd00e8dc956dd7628bcb685" 
sha1="ec50870f552c30a2b64e67815ebc4cc8ca5de516"

Track(s) Match DB

Edition: Original

Barcode (Netherlands): 7 11719 15752 6
http://i.imgur.com/Av3840ml.jpg
Photo barcode: http://i.imgur.com/Av3840m.jpg

Mastering Code (Ringcode): DADC<Tab>A0100313902-0102<Tab>15
Mastering SID Code: IFPI L555
Toolstamp: A1
Mould SID Code: IFPI 942B
Additional Mould Text: *

Scan ring: http://i.imgur.com/edHEwZE.png
http://i.imgur.com/edHEwZEl.png

Size (bytes):   556266816 (OK)
Size (sectors): 236508 (OK)
EDC in Form 2 sectors: YES
ID: SCES-02159
Date: 1999-06-17
System area: Eu EDC

Errors count: 0


----------------------------------------------------
¦ Star Ocean: The Second Story (Disc 2) ¦
----------------------------------------------------

http://redump.org/disc/2398/

Write offset: -647

rom name="track 01.bin" size="723284688" crc="61b85cf3" 
md5="9c6363f30fb407299a2bc7012ef39cf3" 
sha1="75985e3ff9b55e95ab4649915746abfd228e03c3"

Track(s) Match DB

Edition: Original

Barcode (Netherlands): 7 11719 15752 6
Photo barcode: http://i.imgur.com/Av3840m.jpg

Mastering Code (Ringcode): DADC<Tab>A0100313902-0202<Tab>15
Mastering SID Code: IFPI L555
Toolstamp: A3
Mould SID Code: IFPI 943Q
Additional Mould Text: NULL

Scan/photo ring: http://i.imgur.com/ZaBEC7A.png
http://i.imgur.com/ZaBEC7Al.png

Size (bytes):   723284688 (OK)
Size (sectors): 307519 (OK)
EDC in Form 2 sectors: YES
ID: SCES-12159
Date: 1999-06-17
System area: Eu EDC

Errors count: 0

___________________________________________________________________
|||                                                  Suikoden II (Europe)                                           |||
¯¯¯¯¯¯¯¯¯¯¯¯¯¯¯¯¯¯¯¯¯¯¯¯¯¯¯¯¯¯¯¯¯¯¯¯¯¯¯¯¯¯¯¯¯¯¯¯¯¯¯¯¯¯¯¯¯¯¯¯¯¯¯¯¯¯¯
http://redump.org/disc/2378/

Write offset: -647

rom name="track 01.bin" size="513914352" crc="e9ae2dd7" 
md5="e79ab52a6cdef92526eb7ac05201607a" 
sha1="664e9dc6ae92c730bdaaf2ac882e590666cee169"

Track(s) Match DB

Edition: Original

Barcode (Netherlands): 4 988602 685749
http://i.imgur.com/W19C0dXl.jpg
Photo barcode: http://i.imgur.com/W19C0dX.jpg

Mastering Code (Ringcode): Sony DADC<Tab>A0100320931-0101<Tab>13
Mastering SID Code: IFPI L553
Toolstamp: A2
Mould SID Code: IFPI 945R
Additional Mould Text: NULL

Scan ring: http://i.imgur.com/enBnIAu.png
http://i.imgur.com/enBnIAul.png

Size (bytes):   513914352 (OK)
Size (sectors): 218501 (OK)
EDC in Form 2 sectors: YES
ID: SLES-02442
Date: 1999-11-11
System area: Eu EDC

Errors count: 0

___________________________________________________________________
|||                                                  Valkyrie Profile (USA)                                           |||
¯¯¯¯¯¯¯¯¯¯¯¯¯¯¯¯¯¯¯¯¯¯¯¯¯¯¯¯¯¯¯¯¯¯¯¯¯¯¯¯¯¯¯¯¯¯¯¯¯¯¯¯¯¯¯¯¯¯¯¯¯¯¯¯¯¯¯
--------------------------------
¦ Valkyrie Profile (Disc 1) ¦
--------------------------------

http://redump.org/disc/655/

Write offset: -647

rom name="track 01.bin" size="730448880" crc="dd0422d5" 
md5="f579cb951587081019f91af9458d305b" 
sha1="fa13cbde448a47fa87b6c7829df1c5e6215f5f66"

Track(s) Match DB

Edition: Original

Mastering Code (Ringcode): PSRM-019420<Tab>01
Mastering SID Code: IFPI L336
Toolstamp: NULL
Mould SID Code: IFPI 5100
Additional Mould Text: NULL

Scan ring: http://i.imgur.com/Q2nkSNQ.png
http://i.imgur.com/Q2nkSNQl.png

Size (bytes):   730448880 (OK)
Size (sectors): 310565 (OK)
EDC in Form 2 sectors: YES
ID: SLUS-01156
Date: 2000-06-11
System area: US EDC

Errors count: 0


--------------------------------
¦ Valkyrie Profile (Disc 2) ¦
--------------------------------

http://redump.org/disc/656/

Write offset: -647

rom name="track 01.bin" size="747352704" crc="c2132829" 
md5="19f36bd625e676ea5d74db612d26eb6c" 
sha1="7cc65766b46273b4ee166269170ecbaa433908fd"

Track(s) Match DB

Edition: Original

Mastering Code (Ringcode): PSRM-019430<Tab>01
Mastering SID Code: IFPI L336
Toolstamp: NULL
Mould SID Code: IFPI 5100
Additional Mould Text: NULL

Scan ring: http://i.imgur.com/9UfBCtv.png
http://i.imgur.com/9UfBCtvl.png

Size (bytes):   747352704 (OK)
Size (sectors): 317752 (OK)
EDC in Form 2 sectors: YES
ID: SLUS-01179
Date: 2000-06-11
System area: US EDC

Errors count: 0

___________________________________________________________________
|||                                                  Vagrant Story (USA)                                            |||
¯¯¯¯¯¯¯¯¯¯¯¯¯¯¯¯¯¯¯¯¯¯¯¯¯¯¯¯¯¯¯¯¯¯¯¯¯¯¯¯¯¯¯¯¯¯¯¯¯¯¯¯¯¯¯¯¯¯¯¯¯¯¯¯¯¯¯
http://redump.org/disc/164/

Write offset: -647 (Match DB)

rom name="track 01.bin" size="750643152" crc="eb695a2e" 
md5="8531bc73ea7cd33a4c8e97bdf139ba9c" 
sha1="38c63db6c49a06b91d87cd5a4e31b1ec68fe212c"

Track(s) Match DB

Edition: Original

Barcode (Canada): 6 62248 90011 7
http://i.imgur.com/nlzyfkTl.jpg
Photo barcode: http://i.imgur.com/nlzyfkT.jpg

Mastering Code (Ringcode): PSRM-018910<Tab>2
Mastering SID Code: IFPI L325
Toolstamp: NULL
Mould SID Code: IFPI 5020
Additional Mould Text: NULL

Scan/photo ring: http://i.imgur.com/deWCRB4.png
http://i.imgur.com/deWCRB4l.png

Size (bytes):   750643152 (OK)
Size (sectors): 319151 (OK)
EDC in Form 2 sectors: YES
ID: SLUS-01040
Date: 2000-03-28
System area: US EDC

Errors count: 0

___________________________________________________________________
|||                                                    Xenogears (USA)                                               |||
¯¯¯¯¯¯¯¯¯¯¯¯¯¯¯¯¯¯¯¯¯¯¯¯¯¯¯¯¯¯¯¯¯¯¯¯¯¯¯¯¯¯¯¯¯¯¯¯¯¯¯¯¯¯¯¯¯¯¯¯¯¯¯¯¯¯¯
----------------------------
¦ Xenogears (Disc 1) ¦
----------------------------

http://redump.org/disc/177/

Write offset: +2 (Match DB)

rom name="track 01.bin" size="718738272" crc="c75e45ff" 
md5="110ece1c6b0fdcd443df340fa7db30f4" 
sha1="12db8ccb93516c391630f046a143762337cc21f4"

Track(s) Match DB

Edition: Greatest Hits
Serial: SLUS-00664GH

Mastering Code (Ringcode): PSRM-010770<Tab>2
Mastering SID Code: IFPI L330
Toolstamp: NULL
Mould SID Code: IFPI 7200
Additional Mould Text: NULL

Mastering Code doesn't match disc cover, "PSRM-010771"

Scan ring: http://i.imgur.com/TJ1gt9y.png
http://i.imgur.com/TJ1gt9yl.png

Size (bytes):   718738272 (OK)
Size (sectors): 305586 (OK)
EDC in Form 2 sectors: YES
ID: SLUS-00664
Date: 1998-08-27
System area: US EDC

Errors count: 0


----------------------------
¦ Xenogears (Disc 2) ¦
----------------------------

http://redump.org/disc/178/

Write offset: -12

rom name="track 01.bin" size="688700880" crc="0e89ebf6" 
md5="f942f416066a6473226b21a1504416f3" 
sha1="0a4c56e6c64db11f8eada43545c2af08e948665c"

Track(s) Match DB

Edition: Greatest Hits
Serial: SLUS-00669GH

Mastering Code (Ringcode): PSRM-010890<Tab>3
Mastering SID Code: IFPI L327
Toolstamp: NULL
Mould SID Code: IFPI 720T
Additional Mould Text: NULL

Mastering Code doesn't match disc cover, "PSRM-010891"

Scan ring: http://i.imgur.com/Xlxgbf5.png
http://i.imgur.com/Xlxgbf5l.png

Size (bytes):   688700880 (OK)
Size (sectors): 292815 (OK)
EDC in Form 2 sectors: YES
ID: SLUS-00669
Date: 1998-08-27
System area: US EDC

Errors count: 0

"Are we there yet, are we there yet", "One batch yet to go", "Ahhhhhhhhh"...  (edit: added photo psrm front discs, edit2: more unneeded s removed...)

___________________________________________________________________
|||                                                     Grandia (USA)                                                   |||
¯¯¯¯¯¯¯¯¯¯¯¯¯¯¯¯¯¯¯¯¯¯¯¯¯¯¯¯¯¯¯¯¯¯¯¯¯¯¯¯¯¯¯¯¯¯¯¯¯¯¯¯¯¯¯¯¯¯¯¯¯¯¯¯¯¯¯
------------------------
¦ Grandia (Disc 1) ¦
------------------------

http://redump.org/disc/7662/

Write offset: -647 (Match DB)

rom name="track 01.bin" size="693155568" crc="ec1138b7" 
md5="b747f0978466588e198067aba8cd81f2" 
sha1="1670785bfc54d9888e2ea612acdd60b9cc025d35"

Track(s) Match DB

Edition: Original

Mastering Code (Ringcode): PSRM-013820<Tab>3
Mastering SID Code: IFPI L330
Toolstamp: A10
Mould SID Code: IFPI 500D
Additional Mould Text: NULL

Scan ring: http://i.imgur.com/krY9ds5.png
http://i.imgur.com/krY9ds5l.png

Size (bytes):   693155568 (OK)
Size (sectors): 294709 (OK)
EDC in Form 2 sectors: YES
ID: SCUS-94457
Date: 1999-09-06
System area: US EDC

Errors count: 0


------------------------
¦ Grandia (Disc 2) ¦
------------------------

http://redump.org/disc/7663/

Write offset: -647 (Match DB)

rom name="track 01.bin" size="678142752" crc="b26ba8ca" 
md5="bfd84253d3d3e8acac7cc26d6336d3af" 
sha1="c4a5d7528b711990312495719e06d63273974139"

Track(s) Match DB

Edition: Original

Mastering Code (Ringcode): PSRM-014350<Tab>2
Mastering SID Code: IFPI L330
Toolstamp: A07
Mould SID Code: IFPI 5029
Additional Mould Text: NULL

Scan ring: http://i.imgur.com/af1vBuJ.png
http://i.imgur.com/af1vBuJl.png

Size (bytes):   678142752 (OK)
Size (sectors): 288326 (OK)
EDC in Form 2 sectors: YES
ID: SCUS-94465
Date: 1999-09-06
System area: US EDC

Errors count: 0

___________________________________________________________________
|||                                 Lunar: Silver Star Story Complete (USA)                               |||
¯¯¯¯¯¯¯¯¯¯¯¯¯¯¯¯¯¯¯¯¯¯¯¯¯¯¯¯¯¯¯¯¯¯¯¯¯¯¯¯¯¯¯¯¯¯¯¯¯¯¯¯¯¯¯¯¯¯¯¯¯¯¯¯¯¯¯
--------------------------------------------------------
¦ Lunar: Silver Star Story Complete (Disc 1) ¦
--------------------------------------------------------

http://redump.org/disc/2676/

Write offset: -647 (Match DB)

rom name="01.- cd.track.img" size="580054944" crc="6c322289" 
md5="ff8c7002690e8ea8f109ac04626937ed" 
sha1="c9e6b1f4ad56711b9af92ead01536a794f00fc47"

rom name="02.- cd.track.pcm" size="26570544" crc="242e16cb" 
md5="18dc93157e9c0973ea2cd5d037bdbc5c" 
sha1="733c9ae32570590e2dff34e483792b7325f16dd7"

rom name="03.- cd.track.pcm" size="8041488" crc="c3d61aa5" 
md5="3667288bcc30037483b96a5beae33503" 
sha1="4aa2fa14f8cee60cccb308f2380e35d83bc49c7b"

Track(s) Match DB

Edition: Collector's Edition

Mastering Code (Ringcode): PSRM-014150<Tab>8
Mastering SID Code: IFPI L330
Toolstamp: B02
Mould SID Code: IFPI 5021
Additional Mould Text: NULL

Scan ring: http://i.imgur.com/6OICMuB.png
http://i.imgur.com/6OICMuBl.png

Size (bytes):   580054944
From image:     614666976
Size (sectors): 246622
From image:     261338
EDC in Form 2 sectors: YES
ID: SLUS-00628
Date: 1999-04-19
System area: US EDC
FILE "01.- cd.track.img" BINARY
  TRACK 01 MODE2/2352
    INDEX 01 00:00:00
FILE "02.- cd.track.pcm" BINARY
  TRACK 02 AUDIO
    INDEX 00 00:00:00
    INDEX 01 00:02:00
FILE "03.- cd.track.pcm" BINARY
  TRACK 03 AUDIO
    INDEX 00 00:00:00
    INDEX 01 00:02:00

Errors count: 0


--------------------------------------------------------
¦ Lunar: Silver Star Story Complete (Disc 2) ¦
--------------------------------------------------------

http://redump.org/disc/2677/

Write offset: -647 (Match DB)

rom name="01.- cd.track.img" size="693402528" crc="ab613fca" 
md5="38d241e69b55b72c43c8e53e4d070765" 
sha1="96ec68903dcab2750547d57c6d78846b77b9b8a8"

rom name="02.- cd.track.pcm" size="26570544" crc="242e16cb" 
md5="18dc93157e9c0973ea2cd5d037bdbc5c" 
sha1="733c9ae32570590e2dff34e483792b7325f16dd7"

rom name="03.- cd.track.pcm" size="8041488" crc="c3d61aa5" 
md5="3667288bcc30037483b96a5beae33503" 
sha1="4aa2fa14f8cee60cccb308f2380e35d83bc49c7b"

Track(s) Match DB

Edition: Collector's Edition

Mastering Code (Ringcode): PSRM-014160<Tab>1
Mastering SID Code: IFPI L330
Toolstamp: A12
Mould SID Code: IFPI 5021
Additional Mould Text: NULL

Scan ring: http://i.imgur.com/SySkBtg.png
http://i.imgur.com/SySkBtgl.png

Size (bytes):   693402528
From image:     728014560
Size (sectors): 294814
From image:     309530
EDC in Form 2 sectors: YES
ID: SLUS-00899
Date: 1999-04-19
System area: US EDC
FILE "01.- cd.track.img" BINARY
  TRACK 01 MODE2/2352
    INDEX 01 00:00:00
FILE "02.- cd.track.pcm" BINARY
  TRACK 02 AUDIO
    INDEX 00 00:00:00
    INDEX 01 00:02:00
FILE "03.- cd.track.pcm" BINARY
  TRACK 03 AUDIO
    INDEX 00 00:00:00
    INDEX 01 00:02:00

Errors count: 0


------------------------------------------------------------------
¦ Lunar: Silver Star Story Complete (The Making of) ¦
------------------------------------------------------------------

http://redump.org/disc/2675/

Write offset: -647 (Match DB)

rom name="01.- cd.track.img" size="639014880" crc="009a4ddf" 
md5="f445db0f720689bbdd02a7806c60cc74" 
sha1="a96af060c2bc03ffddef224c0c8321e206af78bf"

rom name="02.- cd.track.pcm" size="26570544" crc="242e16cb" 
md5="18dc93157e9c0973ea2cd5d037bdbc5c" 
sha1="733c9ae32570590e2dff34e483792b7325f16dd7"

rom name="03.- cd.track.pcm" size="8041488" crc="c3d61aa5" 
md5="3667288bcc30037483b96a5beae33503" 
sha1="4aa2fa14f8cee60cccb308f2380e35d83bc49c7b"

Track(s) Match DB

Edition: Collector's Edition

Mastering Code (Ringcode): PSRM-014240<Tab>2
Mastering SID Code: IFPI L330
Toolstamp: A02
Mould SID Code: IFPI 500E
Additional Mould Text: NULL

Scan ring: http://i.imgur.com/uNiFcnw.png
http://i.imgur.com/uNiFcnwl.png

Size (bytes):   639014880
From image:     673626912
Size (sectors): 271690
From image:     286406
EDC in Form 2 sectors: YES
ID: SLUS-00921
Date: 1999-05-01
System area: US EDC
FILE "01.- cd.track.img" BINARY
  TRACK 01 MODE2/2352
    INDEX 01 00:00:00
FILE "02.- cd.track.pcm" BINARY
  TRACK 02 AUDIO
    INDEX 00 00:00:00
    INDEX 01 00:02:00
FILE "03.- cd.track.pcm" BINARY
  TRACK 03 AUDIO
    INDEX 00 00:00:00
    INDEX 01 00:02:00

Errors count: 0

___________________________________________________________________
|||                                   Lunar 2: Eternal Blue Complete (USA)                                |||
¯¯¯¯¯¯¯¯¯¯¯¯¯¯¯¯¯¯¯¯¯¯¯¯¯¯¯¯¯¯¯¯¯¯¯¯¯¯¯¯¯¯¯¯¯¯¯¯¯¯¯¯¯¯¯¯¯¯¯¯¯¯¯¯¯¯¯
-----------------------------------------------------
¦ Lunar 2: Eternal Blue Complete (Disc 1) ¦
-----------------------------------------------------

http://redump.org/disc/97/

Write offset: -647 (Match DB)

rom name="track 01.bin" size="750798384" crc="1917cc55" 
md5="dffdac14787cc874e04a443e0df5421a" 
sha1="4a6847f2e3f66abac33c897d50fd8dd111b48f89"

Track(s) Match DB

Serial: SLUS-01071B
Edition: Collector's Edition

Mastering Code (Ringcode): PSRM-017510<Tab>2
Mastering SID Code: IFPI L325
Toolstamp: A14
Mould SID Code: IFPI 50D9
Additional Mould Text: NULL

Mastering Code doesn't match disc cover, "PSRM-021510".

Scan ring: http://i.imgur.com/BtStAAD.png
http://i.imgur.com/BtStAADl.png

Photo front disc: http://i.imgur.com/YekgUiy.jpg
http://i.imgur.com/YekgUiyl.jpg

Size (bytes):   750798384 (OK)
Size (sectors): 319217 (OK)
EDC in Form 2 sectors: YES
ID: SLUS-01071
Date: 2000-11-15
System area: US EDC

Errors count: 0


-----------------------------------------------------
¦ Lunar 2: Eternal Blue Complete (Disc 2) ¦
-----------------------------------------------------

http://redump.org/disc/98/

Write offset: -647 (Match DB)

rom name="track 01.bin" size="732276384" crc="217a8fbd" 
md5="a800a4a1b36b6b6a469d026fc912764c" 
sha1="83c9d39828bfcf4078d45e342a017838289d5ed5"

Track(s) Match DB

Serial: SLUS-01239B
Edition: Collector's Edition

Mastering Code (Ringcode): PSRM-019780<TAB>2
Mastering SID Code: IFPI L325
Toolstamp: A09
Mould SID Code: IFPI 50DB
Additional Mould Text: NULL

Mastering Code doesn't match disc cover, "PSRM-021520".

Scan ring: http://i.imgur.com/pLuuLdm.png
http://i.imgur.com/pLuuLdml.png

Photo front disc: http://i.imgur.com/YekgUiy.jpg

Size (bytes):   732276384 (OK)
Size (sectors): 311342 (OK)
EDC in Form 2 sectors: YES
ID: SLUS-01239
Date: 2000-11-15
System area: US EDC

Errors count: 0


-----------------------------------------------------
¦ Lunar 2: Eternal Blue Complete (Disc 3) ¦
-----------------------------------------------------

http://redump.org/disc/99/

Write offset: -647 (Match DB)

rom name="track 01.bin" size="751242912" crc="9d23a98a" 
md5="e65cd19907a91b2c631ccc34113e7b7a" 
sha1="1495d397734245dc7fb7adc7acc41b511c2541e9"

Track(s) Match DB

Serial: SLUS-01240B
Edition: Collector's Edition

Mastering Code (Ringcode): PSRM-019790<Tab>1
Mastering SID Code: IFPI L325
Toolstamp: A04
Mould SID Code: IFPI 50D9
Additional Mould Text: NULL

Mastering Code doesn't match disc cover, "PSRM-021530".

Scan ring: http://i.imgur.com/mIQp7qS.png
http://i.imgur.com/mIQp7qSl.png

Photo front disc: http://i.imgur.com/YekgUiy.jpg

Size (bytes):   751242912 (OK)
Size (sectors): 319406 (OK)
EDC in Form 2 sectors: YES
ID: SLUS-01240
Date: 2000-11-15
System area: US EDC

Errors count: 0


---------------------------------------------------------------
¦ Lunar 2: Eternal Blue Complete (The Making of) ¦
---------------------------------------------------------------

http://redump.org/disc/368/

Write offset: -647 (Match DB)

rom name="track 01.bin" size="633640560" crc="c3b91f0e" 
md5="cb6e251ece1df600314d267795588b5c" 
sha1="3a552fecddbfd2cac8b0cb557391e769e7e6e51e"

Track(s) Match DB

Edition: Collector's Edition

Mastering Code (Ringcode): PSRM-020230<Tab>1
Mastering SID Code: IFPI L325
Toolstamp: C01
Mould SID Code: IFPI 50E7
Additional Mould Text: NULL

Mastering Code doesn't match disc cover, there isn't one... (unusual for USA PSX discs)

Scan ring: http://i.imgur.com/hiNvAGB.png
http://i.imgur.com/hiNvAGBl.png

Photo front disc: http://i.imgur.com/YekgUiy.jpg

Size (bytes):   633640560 (OK)
Size (sectors): 269405 (OK)
EDC in Form 2 sectors: YES
ID: SLUS-01257
Date: 2000-11-28
System area: US EDC

Errors count: 0

___________________________________________________________________
|||                                            Saiyuki: Journey West (USA)                                      |||
¯¯¯¯¯¯¯¯¯¯¯¯¯¯¯¯¯¯¯¯¯¯¯¯¯¯¯¯¯¯¯¯¯¯¯¯¯¯¯¯¯¯¯¯¯¯¯¯¯¯¯¯¯¯¯¯¯¯¯¯¯¯¯¯¯¯¯
http://redump.org/disc/2691/

Write offset: -647

rom name="track 01.bin" size="522226320" crc="b9e0892c" 
md5="244a088eb3dfba34df124826dcc4bdb9" 
sha1="c945fb365b6e1407ce681d2fae64c6a29f4cb61c"

Track(s) Match DB

Edition: Original

Mastering Code (Ringcode): PSRM-022960<Tab>01
Mastering SID Code: IFPI L337
Toolstamp: NULL
Mould SID Code: IFPI 5100
Additional Mould Text: NULL

Scan ring: http://i.imgur.com/LwZhdhE.png
http://i.imgur.com/LwZhdhEl.png

Size (bytes):   522226320 (OK)
Size (sectors): 222035 (OK)
EDC in Form 2 sectors: YES
ID: SLUS-01381
Date: 2001-06-06
System area: US EDC

Errors count: 0

Next batch, still more to come... (edit: removed lost letter s..., edit2: added comment)

___________________________________________________________________
|||                                    Final Fantasy Anthology (USA) (v1.0)                                 |||
¯¯¯¯¯¯¯¯¯¯¯¯¯¯¯¯¯¯¯¯¯¯¯¯¯¯¯¯¯¯¯¯¯¯¯¯¯¯¯¯¯¯¯¯¯¯¯¯¯¯¯¯¯¯¯¯¯¯¯¯¯¯¯¯¯¯¯
------------------------------------------------------
¦ Final Fantasy Anthology: Final Fantasy V ¦
------------------------------------------------------

http://redump.org/disc/48/

Write offset:-647 (Match DB)

rom name="track 01.bin" size="309121008" crc="48f10985"
md5="09d7ade7a9d5ff64dbe860b98335c0f5"
sha1="ffce1389677262d307be283f514f17848598319f"

Track(s) Match DB

Edition: Original

Mastering Code (Ringcode): PSRM-014530<Tab>5
Mastering SID Code: IPFI L330
Toolstamp: A13
Mould SID Code: IFPI 5028
Additional Mould Text: NULL

Mould SID Code could also be "IFPI 502S" but it's to small...

Scan ring: http://i.imgur.com/PFRWjjn.png
http://i.imgur.com/PFRWjjnl.png

Size (bytes):   309121008 (OK)
Size (sectors): 131429 (OK)
EDC in Form 2 sectors: YES
ID: SLUS-00879
Date: 1999-04-07
System area: US EDC

Errors count: 0


-------------------------------------------------------
¦ Final Fantasy Anthology: Final Fantasy VI ¦
-------------------------------------------------------

http://redump.org/disc/49/

Write offset: -647 (Match DB)

rom name="track 01.bin" size="325145184" crc="1478196f" 
md5="640b33576b0a3b71cecb897c652abe8a" 
sha1="1ac7200bfed1edb47e8b74fc27865ea5031e6d03"

Track(s) Match DB

Edition: Original

Mastering Code (Ringcode): PSRM-014540<Tab>1
Mastering SID Code: IFPI L330
Toolstamp: NULL
Mould SID Code: IFPI 5025
Additional Mould Text: NULL

Mastering SID Code could also be "IFPI L338", but doubt it.

Scan ring: http://i.imgur.com/kvmI66e.png
http://i.imgur.com/kvmI66el.png

Size (bytes):   325145184 (OK)
Size (sectors): 138242 (OK)
EDC in Form 2 sectors: YES
ID: SLUS-00900
Date: 1999-04-07
System area: US EDC

Errors count: 0

___________________________________________________________________
|||                                   Final Fantasy Chronicles (USA) (v1.0)                                 |||
¯¯¯¯¯¯¯¯¯¯¯¯¯¯¯¯¯¯¯¯¯¯¯¯¯¯¯¯¯¯¯¯¯¯¯¯¯¯¯¯¯¯¯¯¯¯¯¯¯¯¯¯¯¯¯¯¯¯¯¯¯¯¯¯¯¯¯
--------------------------------------------------------
¦ Final Fantasy Chronicles: Final Fantasy IV ¦
--------------------------------------------------------

http://redump.org/disc/50/

Write offset: -12 (Match DB)

rom name="track 01.bin" size="385885584" crc="6148fdb4" 
md5="2e54c9b217874d8219fca6b36165ecbe" 
sha1="a84f64d3281b8b5122536a8954629629d0efd9a5"

Track(s) Match DB

Edition: Original
Barcode (Canada): 6 62248 90102 2
http://i.imgur.com/9KJ50vBl.jpg

Photo barcode: http://i.imgur.com/9KJ50vB.jpg

Mastering Code (Ringcode): PSRM-022470<Tab>2
Mastering SID Code: IFPI L327
Toolstamp: AO2
Mould SID Code: IFPI 50E2
Additional Mould Text: NULL

Toolstamp could also be "A02" (zero instead of letter O)

Scan ring: http://i.imgur.com/qibrflS.png
http://i.imgur.com/qibrflSl.png

Size (bytes):   385885584 (OK)
Size (sectors): 164067 (OK)
EDC in Form 2 sectors: YES
ID: SLUS-01360
Date: 2001-05-19
System area: US EDC

Errors count: 0


-------------------------------------------------------
¦ Final Fantasy Chronicles: Chrono Trigger ¦
-------------------------------------------------------

http://redump.org/disc/51/

Write offset: -12 (Match DB)

rom name="track 01.bin" size="547470336" crc="4ca66585" 
md5="1f3e3d0d4ee8b7ed098dca7855a741ec" 
sha1="7cc5ae691eeb92584d74db45be4d971bc6bb3366"

Track(s) Match DB

Edition: Original
Barcode (Canada): 6 62248 90102 2

Photo barcode: http://i.imgur.com/9KJ50vB.jpg

Mastering Code (Ringcode): PSRM-022480<TAB>3
Mastering SID Code: IFPI L327
Toolstamp: AO5
Mould SID Code: IFPI 50E2
Additional Mould Text: NULL

Toolstamp could also be "A05" (zero instead of letter O)

Scan ring: http://i.imgur.com/5zner7o.png
http://i.imgur.com/5zner7ol.png

Size (bytes):   547470336 (OK)
Size (sectors): 232768 (OK)
EDC in Form 2 sectors: YES
ID: SLUS-01363
Date: 2001-05-22
System area: US EDC

Errors count: 3

CDmage B5 1.02.1 error report for image "Track 01.cue"

Track #| Sector|Sync|Header|Subheader|EDC|Intermediate|ECC P|ECC Q|Severity|Content of sector
      1| 83,800| No |  No  |   Yes   |No |    N/A     | No  | No  |High    |ISO9660: bytes 15769600-15771647 of the file "\CROSTR\CTXBSE00.STR"
      1| 84,512| No |  No  |   Yes   |No |    N/A     | No  | No  |High    |ISO9660: bytes 17227776-17229823 of the file "\CROSTR\CTXBSE00.STR"
      1|108,240| No |  No  |   Yes   |No |    N/A     | No  | No  |High    |ISO9660: bytes 5660672-5662719 of the file "\CROSTR\CTXMSE05.STR"

Total error count:3

Second one with different error count, am I doing something wrong (downloaded+checked with different source for file)?

___________________________________________________________________
|||                                             Final Fantasy VII (Europe)                                        |||
¯¯¯¯¯¯¯¯¯¯¯¯¯¯¯¯¯¯¯¯¯¯¯¯¯¯¯¯¯¯¯¯¯¯¯¯¯¯¯¯¯¯¯¯¯¯¯¯¯¯¯¯¯¯¯¯¯¯¯¯¯¯¯¯¯¯¯
-----------------------------------
¦ Final Fantasy VII (Disc 1) ¦
-----------------------------------

http://redump.org/disc/63/

Write offset: -647

rom name="track 01.bin" size="747432672" crc="900e6a9e" 
md5="95daa58e45d71bfe6ce3c699c87652a0" 
sha1="6b0e68ff27c636d560d4575fd990091ab09bed80"

Track(s) Match DB

Edition: Platinum

Mastering Code (Ringcode): DADC<Tab>A0100229601-103<Tab>25
Mastering SID Code: IPFI L555
Toolstamp: B1
Mould SID Code: IPFI 947Q
Additional Mould Text: NULL

Scan/photo ring: http://i.imgur.com/Y244T1D.png
http://i.imgur.com/Y244T1Dl.png

Size (bytes):   747432672 (OK)
Size (sectors): 317786 (OK)
EDC in Form 2 sectors: YES
ID: SCES-00867
Date: 1997-09-17
System area: Eu EDC

Errors count: 0


-----------------------------------
¦ Final Fantasy VII (Disc 2) ¦
-----------------------------------

http://redump.org/disc/64/

Write offset: -647

rom name="track 01.bin" size="732655056" crc="f6cf67cf" 
md5="b469faf7e80a1d4c8b51d61472fe9207" 
sha1="0244788a3e36a3e9a9c46426a904215e1d97e89b"

Track(s) Match DB

Edition: Platinum

Mastering Code (Ringcode): DADC<Tab>A0100229601-0203<Tab>35
Mastering SID Code: IFPI L555
Toolstamp: C1
Mould SID Code: IFPI 943R
Additional Mould Text: NULL

Scan/photo ring: http://i.imgur.com/fD8TSJY.png
http://i.imgur.com/fD8TSJYl.png

Size (bytes):   732655056 (OK)
Size (sectors): 311503 (OK)
EDC in Form 2 sectors: YES
ID: SCES-10867
Date: 1997-09-17
System area: Eu EDC

Errors count: 0


-----------------------------------
¦ Final Fantasy VII (Disc 3) ¦
-----------------------------------

http://redump.org/disc/65/

Write offset: +2

rom name="track 01.bin" size="659559600" crc="7ab00a42" 
md5="8538ff9ee95c9e2e029608c2ce787045" 
sha1="1e784227d105838a51ab2d862adc114ee4e44e3c

Track(s) Match DB

Edition: Platinum

Mastering Code (Ringcode): DADC AUSTRIA<TAB>A0100229601-0303<Tab>15
Mastering SID Code: IFPI L555
Toolstamp: A19
Mould SID Code: IFPI 944S
Additional Mould Text: NULL

Does anyone else think someone got its 2s and 5s mixed up?

Scan ring: http://i.imgur.com/abfjNh9.png
http://i.imgur.com/abfjNh9l.png

Size (bytes):   659559600 (OK)
Size (sectors): 280425 (OK)
EDC in Form 2 sectors: YES
ID: SCES-20867
Date: 1997-09-17
System area: Eu EDC

Errors count: 0


------------------------------------
¦ Final Fantasy VIII (Demo) ¦
------------------------------------

http://redump.org/disc/2627/

Write offset: -647

rom name="track 01.bin" size="173457648" crc="3071c6e6" 
md5="94e59994149d01f52890dac8c653dcd6" 
sha1="6d9cb6ea3585a7c16c078df8a2a868c7a47fe88e"

Track(s) Match DB

Edition: Demo

Comment: While the FF VII discs have part of the barcode beside the serial this disc has a different number, so you could make a different barcode? http://i.imgur.com/l2rfm2M.jpg
http://i.imgur.com/l2rfm2Ml.jpg

Mastering Code (Ringcode): DADC<Tab>A0100278650-0101<Tab>25
Mastering SID Code: IPFI L555
Toolstamp: B4
Mould SID Code: IFPI 943S
Additional Mould Text: NULL

Scan ring: http://i.imgur.com/8jPOnVd.png
http://i.imgur.com/8jPOnVdl.png

Size (bytes):   173457648 (OK)
Size (sectors): 73749 (OK)
EDC in Form 2 sectors: YES
ID: SCED-02062
Date: 1999-04-07
System area: Eu EDC

Errors count: 0

___________________________________________________________________
|||                                            Final Fantasy Tactics (USA)                                        |||
¯¯¯¯¯¯¯¯¯¯¯¯¯¯¯¯¯¯¯¯¯¯¯¯¯¯¯¯¯¯¯¯¯¯¯¯¯¯¯¯¯¯¯¯¯¯¯¯¯¯¯¯¯¯¯¯¯¯¯¯¯¯¯¯¯¯¯
http://redump.org/disc/55/

Write offset: -647 (Match DB)

rom name="track 01.bin" size="541315152" crc="377f6510" 
md5="b156ba386436d20fd5ed8d37bab6b624" 
sha1="2b5d4db3229cdc7bbd0358b95fcba33dddae8bba"

Track(s) Match DB

Edition: Greatest Hits

Mastering Code (Ringcode): PSRM-008740<Tab>H4 2A 13
Mastering SID Code: IPFI L424
Toolstamp: NULL
Mould SID Code: IPFI 720L
Additional Mould Text: NULL

Scan ring: http://i.imgur.com/jYovayP.png
http://i.imgur.com/jYovayPl.png

Size (bytes):   541315152 (OK)
Size (sectors): 230151 (OK)
EDC in Form 2 sectors: YES
ID: SCUS-94221
Date: 1997-10-17
System area: US EDC

Errors count: 0

___________________________________________________________________
|||                                               Legend of Mana (USA)                                            |||
¯¯¯¯¯¯¯¯¯¯¯¯¯¯¯¯¯¯¯¯¯¯¯¯¯¯¯¯¯¯¯¯¯¯¯¯¯¯¯¯¯¯¯¯¯¯¯¯¯¯¯¯¯¯¯¯¯¯¯¯¯¯¯¯¯¯¯
http://redump.org/disc/96/

Write offset: -647 (match DB)

rom name="track 01.bin" size="677406576" crc="5028946f" 
md5="5907187b16be1c656e029e79f3a67274" 
sha1="c1b536c99f0d390584eb30462a7e37f2bbef3902"

Track(s) Match DB

Edition: Original

Mastering Code (Ringcode): PSRM-016400<Tab>1
Mastering SID Code: IFPI L325
Toolstamp: A04
Mould SID Code: IFPI 502C
Additional Mould Text: NULL

Scan ring: http://i.imgur.com/jHU7ynt.png
http://i.imgur.com/jHU7yntl.png

Size (bytes):   677406576 (OK)
Size (sectors): 288013 (OK)
EDC in Form 2 sectors: YES
ID: SLUS-01013
Date: 1999-11-19
System area: US EDC

Errors count: 0

Thought about having some fun with a scanner and my PSX Discs (I was Wrong!). More info/logs on request. More to come... (edit: replaced some code tags for b tags and 1 scan to photo, edit2: some 3s turned into 6s so turned back... edit3: added psrm front disc differences, edit4: added psrm front photo/error log, changed looks like)

_______________________________________________________________
|||                                   Arc the Lad Collection (USA)                                        |||
¯¯¯¯¯¯¯¯¯¯¯¯¯¯¯¯¯¯¯¯¯¯¯¯¯¯¯¯¯¯¯¯¯¯¯¯¯¯¯¯¯¯¯¯¯¯¯¯¯¯¯¯¯¯¯¯¯¯¯¯¯¯¯
------------------------------------------------------------------------
¦ Arc the Lad Collection: Arc Arena: Monster Tournament ¦
------------------------------------------------------------------------

http://redump.org/disc/676/

Write offset: -647

rom name="track 01.bin" size="182983248" crc="d1460eab" 
md5="3222f723f838ae4acac422b6f50f27a2" 
sha1="79918243e96a536a879cf86d380030746deb9f39"

Track(s) Match DB

Edition: Collector's Edition
Contents: Omake Box (Thumb Button Covers, Memory Card Holder, Character Mini-Standees). Hardbound manual.

Mastering Code (Ringcode): PSRM-020210<Tab>01
Mastering SID Code: IFPI L336
Toolstamp: NULL
Mould SID Code: IFPI 5100
Additional Mould Text: NULL

Scan ring: http://i.imgur.com/VJczebK.png
http://i.imgur.com/VJczebKl.png

Size (bytes):   182983248 (OK)
Size (sectors): 77799 (OK)
EDC in Form 2 sectors: YES
ID: SLUS-01255
Date: 2001-12-17
System area: US EDC

Errors count: 346


-----------------------------------------------
¦ Arc the Lad Collection: Arc the Lad ¦
-----------------------------------------------

http://redump.org/disc/672/

Write offset: -647

rom name="track 01.bin" size="627784080" crc="cd0ad73b" 
md5="70e2b965b293af4845e1c0735f2b0ddf" 
sha1="a402e9ea47a7715058f23aa980837aea1ff26e04"

Track(s) Match DB

Serial: SLUS-01224B
Edition: Collector's Edition
Contents: Omake Box (Thumb Button Covers, Memory Card Holder, Character Mini-Standees). Hardbound manual.

Mastering Code (Ringcode): PSRM-019910<Tab>01
Mastering SID Code: IFPI L336
Toolstamp: NULL
Mould SID Code: IFPI 5100
Additional Mould Text: NULL

Mastering Code doesn't match disc cover, "PSRM-023750".

Scan ring: http://i.imgur.com/iormSpV.png
http://i.imgur.com/iormSpVl.png

Photo front disc: http://i.imgur.com/nELyPLL.jpg
http://i.imgur.com/nELyPLLl.jpg

Size (bytes):   627784080 (OK)
Size (sectors): 266915 (OK)
EDC in Form 2 sectors: YES
ID: SLUS-01224
Date: 2001-09-25
System area: US EDC

Errors count: 0


--------------------------------------------------
¦ Arc the Lad Collection: Arc the Lad II ¦
--------------------------------------------------

http://redump.org/disc/673/

Write offset: -647

rom name="track 01.bin" size="740762400" crc="1d3bc382" 
md5="9fcd1024ab0f5ee21ebbec2c708e70cb" 
sha1="2e6d562b95920ea19a028f2a38e70df9f752b8f0"

Track(s) Match DB

Serial: SLUS-01252B
Edition: Collector's Edition
Contents: Omake Box (Thumb Button Covers, Memory Card Holder, Character Mini-Standees). Hardbound manual.

Mastering Code (Ringcode): PSRM-020180<Tab>01
Mastering SID Code: IFPI L336
Toolstamp: NULL
Mould SID Code: IFPI 5100
Additional Mould Text: NULL

Mastering Code doesn't match disc cover, "PSRM-023760".

Scan ring: http://i.imgur.com/Z5KuUJJ.png
http://i.imgur.com/Z5KuUJJl.png

Photo front disc: http://i.imgur.com/nELyPLL.jpg

Size (bytes):   740762400 (OK)
Size (sectors): 314950 (OK)
EDC in Form 2 sectors: YES
ID: SLUS-01252
Date: 2001-12-09
System area: US EDC

Errors count: 346


-------------------------------------------------------------
¦ Arc the Lad Collection: Arc the Lad III (Disc 1) ¦
-------------------------------------------------------------

http://redump.org/disc/674/

Write offset: -647

rom name="track 01.bin" size="639461760" crc="b32be5a3"
md5="a16911072393d5c3850400cfea6876f7" 
sha1="3befd90691292a89bab4dd44b495d53d98e0256d"

Track(s) Match DB

Serial: SLUS-01253B
Edition: Collector's Edition
Contents: Omake Box (Thumb Button Covers, Memory Card Holder, Character Mini-Standees). Hardbound manual.

Mastering Code (Ringcode): PSRM-020190<Tab>01
Mastering SID Code: IFPI L336
Toolstamp: NULL
Mould SID Code: IFPI 5100
Additional Mould Text: NULL

Mastering Code doesn't match disc cover, "PSRM-023770".

Scan ring: http://i.imgur.com/yTL2gcK.png
http://i.imgur.com/yTL2gcKl.png

Photo front disc: http://i.imgur.com/nELyPLL.jpg

Size (bytes):   639461760 (OK)
Size (sectors): 271880 (OK)
EDC in Form 2 sectors: YES
ID: SLUS-01253
Date: 2002-03-05
System area: US EDC

Errors count: 0


-------------------------------------------------------------
¦ Arc the Lad Collection: Arc the Lad III (Disc 2) ¦
-------------------------------------------------------------

http://redump.org/disc/675/

Write offset: -647

rom name="track 01.bin" size="731972976" crc="6d64aa1c" 
md5="f957f526e8a45255c687bec8a8459541" 
sha1="e138bec408d7ae8230c63777c44114712e8f99bc"

Tracks(s) Match DB

Serial: SLUS-01254B
Edition: Collector's Edition
Contents: Omake Box (Thumb Button Covers, Memory Card Holder, Character Mini-Standees). Hardbound manual.

Mastering Code (Ringcode): PSRM-020200<Tab>01
Mastering SID Code: IFPI L336
Toolstamp: NULL
Mould SID Code: IFPI 5100
Additional Mould Text: NULL

Mastering Code doesn't match disc cover, "PSRM-023780".

Scan ring: http://i.imgur.com/9Acp4XB.png
http://i.imgur.com/9Acp4XBl.png

Photo front disc: http://i.imgur.com/nELyPLL.jpg

Size (bytes):   731972976 (OK)
Size (sectors): 311213 (OK)
EDC in Form 2 sectors: YES
ID: SLUS-01254
Date: 2002-03-05
System area: US EDC

Errors count: 0


-----------------------------------------------------------------
¦ Arc the Lad Collection: The Making of Arc the Lad ¦
-----------------------------------------------------------------

http://redump.org/disc/677/

Write offset: -647

rom name="track 01.bin" size="623150640" crc="6b295ebc" 
md5="5e7c5e3736740101f90a135e4720d7f6" 
sha1="db6a2bce8ba46c65bbf013dcb574ed30fa5cc804"

Tracks Match DB.

Edition: Collector's Edition
Contents: Omake Box (Thumb Button Covers, Memory Card Holder, Character Mini-Standees). Hardbound manual.

Mastering Code (Ringcode): PSRM-020220<Tab>01
Mastering SID Code: IFPI L336
Toolstamp: NULL
Mould SID Code: IFPI 5100
Additional Mould Text: NULL

Scan ring: http://i.imgur.com/yyBGfA6.png
http://i.imgur.com/yyBGfA6l.png

Size (bytes):   623150640 (OK)
Size (sectors): 264945 (OK)
EDC in Form 2 sectors: YES
ID: SLUS-01256
Date: 2001-12-19
System area: US EDC

Errors count: 0

_______________________________________________________________
|||                                       Breath of Fire III (Europe)                                       |||
¯¯¯¯¯¯¯¯¯¯¯¯¯¯¯¯¯¯¯¯¯¯¯¯¯¯¯¯¯¯¯¯¯¯¯¯¯¯¯¯¯¯¯¯¯¯¯¯¯¯¯¯¯¯¯¯¯¯¯¯¯¯¯
http://redump.org/disc/2325/

Write offset: +2 (Match DB)

rom name="01.- cd.track.img" size="442806336" crc="53a45e38" 
md5="382a17c57b6c9c2fab40893628528861" 
sha1="9ce923228ddb90fbc16310a7f1a49c5e4f2dc6ec"

rom name="02.- cd.track.pcm" size="37396800" crc="7976083e" 
md5="2d7b5e8e94a91bf5423b2356f6a34863" 
sha1="d9f92af296360772e62caa4cb276de3fa74f5538"

Track(s) Match DB

Edition: Original

Mastering Code (Ringcode): DADC<Tab>A0100260153-0101<Tab>15
Mastering SID Code: IFPI L555
Toolstamp: A1
Mould SID Code: IFPI 942Q
Additional Mould Text: NULL

Scan ring: http://i.imgur.com/EDaHbNX.png
http://i.imgur.com/EDaHbNXl.png

Size (bytes):   442806336
From image:     480203136
Size (sectors): 188268
From image:     204168
EDC in Form 2 sectors: NO
ID: SLES-01304
Date: 1998-07-23
System area: Eu NoEDC
FILE "01.- cd.track.img" BINARY
  TRACK 01 MODE2/2352
    INDEX 01 00:00:00
FILE "02.- cd.track.pcm" BINARY
  TRACK 02 AUDIO
    INDEX 00 00:00:00
    INDEX 01 00:02:00

Errors count: 1

CDmage B5 1.02.1 error report for image "cd.pcm.cue"

Track #| Sector|Sync|Header|Subheader|EDC|Intermediate|ECC P|ECC Q|Severity|Content of sector
      1|188,417| No |  No  |   No    |No |    N/A     | Yes | Yes |Low     |unused/empty

Total error count:1

_______________________________________________________________
|||                                             Chrono Cross (USA)                                          |||
¯¯¯¯¯¯¯¯¯¯¯¯¯¯¯¯¯¯¯¯¯¯¯¯¯¯¯¯¯¯¯¯¯¯¯¯¯¯¯¯¯¯¯¯¯¯¯¯¯¯¯¯¯¯¯¯¯¯¯¯¯¯¯                      -------------------------------
¦ Chrono Cross (Disc 1) ¦
-------------------------------
             
http://redump.org/disc/20/

Write offset: -647 (Match DB)

rom name="track 01.bin" size="736651104" crc="a07898cc" 
md5="3b29ee931df29f51ecf0817f30e103d7" 
sha1="91ce7726d264111c068a0bee89784f6ebd42ac54"

Track(s) Match DB

Edition: Original
Barcode (Canada): 6 62248 90018 6

Photo barcode: http://i.imgur.com/ME0FvGk.jpg
http://i.imgur.com/ME0FvGkl.jpg

Mastering Code (Ringcode): PSRM-018920<Tab>1
Mastering SID Code: IFPI L325
Toolstamp:
A04 ???
Mould SID Code: IFPI 502D
Additional Mould Text: NULL

There's another code (middle left) unreadable, could be "?04" where ? looks like a G or 6 could be A (like most toolstamps...), to me (mirrored and rotated) presumably toolstamp?

Scan ring: http://i.imgur.com/hTe2JLD.png
http://i.imgur.com/hTe2JLDl.png

Size (bytes):   736651104 (OK)
Size (sectors): 313202 (OK)
EDC in Form 2 sectors: YES
ID: SLUS-01041
Date: 2000-04-18
System area: US EDC

Errors count: 0


-------------------------------
¦ Chrono Cross (Disc 2) ¦
-------------------------------

http://redump.org/disc/21/

Write offset: -647 (Match DB)

rom name="track 01.bin" size="741797280" crc="c7f6ab73"
md5="6463d040aae5156ac146d34402a7988d" 
sha1="0ad65d093b36ae9ecf02aa9abb15952503cb5adf"

Tracks(s) Match DB

Edition: Original
Barcode (Canada): 6 62248 90018 6

Scan barcode: http://i.imgur.com/ME0FvGk.jpg

Mastering Code (Ringcode): PSRM-017490<Tab>1
Mastering SID Code: IFPI L325
Toolstamp:
B05 ???
Mould SID Code: IFPI 502F
Additional Mould Text: NULL

Another hard to read (top/right) if mirrored it becomes something like "B05" not mirrored I would say "852" ???

Scan ring: http://i.imgur.com/tIyVONy.png
http://i.imgur.com/tIyVONyl.png

Size (bytes):   741797280 (OK)
Size (sectors): 315390 (OK)
EDC in Form 2 sectors: YES
ID: SLUS-01080
Date: 2000-04-18
System area: US EDC

Errors count: 0

_______________________________________________________________
|||                                Final Fantasy Origins (USA) (v1.0)                                  |||               
¯¯¯¯¯¯¯¯¯¯¯¯¯¯¯¯¯¯¯¯¯¯¯¯¯¯¯¯¯¯¯¯¯¯¯¯¯¯¯¯¯¯¯¯¯¯¯¯¯¯¯¯¯¯¯¯¯¯¯¯¯¯¯     
http://redump.org/disc/53/

Write offset: -12 (Match DB)

rom name="track 01.bin" size="589557024" crc="d41ab110" 
md5="3ec86e30d99c75e64a04e9f5828a904f" 
sha1="495620e1c35756f53f1d0cbec9ee000f947eb79b

Tracks(s) Match DB

Edition: Original

Mastering Code (Ringcode): PSRM-025190<Tab>H4 1A 01
Mastering SID Code: IFPI L424
Toolstamp: NULL
Mould SID Code: IFPI 720B
Additional Mould Text: NULL

Scan ring: http://i.imgur.com/bjekgcd.png
http://i.imgur.com/bjekgcdl.png

Size (bytes):   589557024 (OK)
Size (sectors): 250662 (OK)
EDC in Form 2 sectors: YES
ID: SLUS-01541
Date: 2002-12-13
System area: US EDC

Errors count: 1

CDmage 1.01.5 error report for image "Final Fantasy Origins (USA) (v1.0).cue"

Track #| Sector|Sync|Header|Subheader|EDC|Intermediate|ECC P|ECC Q|Severity|Content of sector
      1|106,157| No |  No  |   Yes   |No |    N/A     | No  | No  |High    |ISO9660: bytes 35848192-35850239 of the file \M1\OPENING.STR

Total error count:1