Name: Super Mario History 1985-2010
BD: http://redump.org/disc/44023/
Logs: https://mega.nz/file/nI9DxI7B#FaACjrtc- … nxV95m4Im0

Common Disc Info:
    Title: Super Mario History 1985-2010
    Foreign Title (Non-latin): Retrospective Super Mario 1985-2010
    Disc Number / Letter: (OPTIONAL)
    Disc Title: (OPTIONAL)
    System: Audio CD
    Media Type: CD-ROM
    Category: Bonus Discs
    Region: Europe
    Languages: 
    Disc Serial: RVL-SVMP-EUR

    Ringcode Information:
        Data Side Mastering Code (laser branded/etched): 696.430 <tab> #1
        Data Side Mastering SID Code: IFPI l173
        Data Side Toolstamp or Mastering Code (engraved/stamped): (REQUIRED, IF EXISTS)
        Data Side Mould SID Code: IFPI 3086
        Data Side Additional Mould: (REQUIRED, IF EXISTS)
        Label Side Mould SID Code: (REQUIRED, IF EXISTS)
    Barcode: 2113247T
    Error Count: 0
    Comments:
    http://redump.org/disc/44023/
    French cover ID variation: : RVL-SVMP-FRA
    Contents: (OPTIONAL)

Version and Editions:
    Version: (REQUIRED, IF EXISTS)
    Edition/Release: Wii Game Bundle

Extras:
    Primary Volume Descriptor (PVD): Disc has no PVD

Tracks and Write Offsets:
    DAT:

<rom name="AudioCD - Super Mario History 1985-2010 FRE (Track 01).bin" size="33400752" crc="741029c9" md5="83198bc3d9608f7ed2f4056d02ae79de" sha1="ab396385569d0573221d4cc740bbdece1a35521c" />
<rom name="AudioCD - Super Mario History 1985-2010 FRE (Track 02).bin" size="17917536" crc="3277ba88" md5="44f14abec519af6a641876d3183c88dd" sha1="e05a7dd4c44e7b7524802b33a9e6c358817f57c0" />
<rom name="AudioCD - Super Mario History 1985-2010 FRE (Track 03).bin" size="13095936" crc="1147bb69" md5="9fac0086439038bfa531a5c70cc552d9" sha1="312781c404b60bab2b7cbd13aa305864e1e4d27d" />
<rom name="AudioCD - Super Mario History 1985-2010 FRE (Track 04).bin" size="19004160" crc="127b592d" md5="d75f0529427eac7b2a986754f7a1644e" sha1="2d0571571ed3531e1c6abfdbe551d68d3619d5f2" />
<rom name="AudioCD - Super Mario History 1985-2010 FRE (Track 05).bin" size="29195376" crc="2e62f5aa" md5="5b97305a1f9f6ece0edc2f541d68fce4" sha1="0e9bb5e50d2a11628cfb0d96ee6c85c1b75e1529" />
<rom name="AudioCD - Super Mario History 1985-2010 FRE (Track 06).bin" size="31603824" crc="18fa0812" md5="be885b100974d3366df8fbdc36cac3f6" sha1="c8e10ca02a2548eaa1894253372b2ffd7138d5e4" />
<rom name="AudioCD - Super Mario History 1985-2010 FRE (Track 07).bin" size="31425072" crc="04fa018c" md5="680d25824730c60f74149a0534d5bab8" sha1="c797f1383612c5cfe2e3c2d38ba44a8b3071c6c9" />
<rom name="AudioCD - Super Mario History 1985-2010 FRE (Track 08).bin" size="42693504" crc="a82dada1" md5="43c1f9598dad61a5a35815e825884411" sha1="371dd995ccd9582f996da00426f6267f8460faf0" />
<rom name="AudioCD - Super Mario History 1985-2010 FRE (Track 09).bin" size="17719968" crc="1c2eb6eb" md5="f46c843f7c38dada07cbf6ea78414076" sha1="5882e2315ba8c5f23a92977b048f028bcf9ddbb3" />
<rom name="AudioCD - Super Mario History 1985-2010 FRE (Track 10).bin" size="21360864" crc="bf7f628c" md5="30ca697da36a5bebf86aa601fac22c32" sha1="4307b09d38dc3627cbc8f00e400db3887c23cb91" />
<rom name="AudioCD - Super Mario History 1985-2010 FRE (Track 11).bin" size="1571136" crc="a38b7c72" md5="38e08a6fef310d206998dc893ac66f83" sha1="77673d31c437b4f696192836b6c2fe60daf50cb3" />
<rom name="AudioCD - Super Mario History 1985-2010 FRE (Track 12).bin" size="813792" crc="d1e3ca6e" md5="3ba8b8375148e35f9d1c4bf01a3898b4" sha1="e809816971cda316fc478b54bcb51aebceba9f76" />
<rom name="AudioCD - Super Mario History 1985-2010 FRE (Track 13).bin" size="933744" crc="8bed02b7" md5="54cd01476021c90f601e414c717016c5" sha1="f5378ba5ec9875689278d7c1b525983224ffcf2c" />
<rom name="AudioCD - Super Mario History 1985-2010 FRE (Track 14).bin" size="919632" crc="6195588b" md5="28c4b79474b75bee5432458b625d343e" sha1="4d44ca1332f4034eb3f05176622c45f205b65c2d" />
<rom name="AudioCD - Super Mario History 1985-2010 FRE (Track 15).bin" size="903168" crc="91843c21" md5="96525c476c1b49e6e2043fc08fe88447" sha1="37b90429654b6c036fe1e7fb77a269170d43c1e3" />
<rom name="AudioCD - Super Mario History 1985-2010 FRE (Track 16).bin" size="1065456" crc="7269496e" md5="d7b6597f9fd4ef524d957ffcba983c71" sha1="5725276fedbed9995297dcffc41289411d20d8e3" />
<rom name="AudioCD - Super Mario History 1985-2010 FRE (Track 17).bin" size="1039584" crc="1b288aab" md5="eabf2374509b608e1d3f82c64dd8a793" sha1="96d7d0aeec5c739a08e84b60de3435de23edf76f" />
<rom name="AudioCD - Super Mario History 1985-2010 FRE (Track 18).bin" size="1251264" crc="9dba2f65" md5="b02b204a48289801e20422fb40180ac4" sha1="e6080c17c6b73cd41b2d21fdbbab33677ccda340" />
<rom name="AudioCD - Super Mario History 1985-2010 FRE (Track 19).bin" size="1547616" crc="6b51c7df" md5="88e83e29c1ff44e2a9d58f174b720f8d" sha1="bee4f6ef2248219fc2625290153bcd6143cc19c1" />
<rom name="AudioCD - Super Mario History 1985-2010 FRE (Track 20).bin" size="1166592" crc="3df53ea8" md5="c341d45db133cdfc65e3843b2289310e" sha1="3de95442c5db0d1a132874853eff4b656fddf7a2" />

    Cuesheet:

TITLE "25th Anniversary Mario Collection"
PERFORMER "Nintendo"
FILE "AudioCD - Super Mario History 1985-2010 FRE (Track 01).bin" BINARY
  TRACK 01 AUDIO
    TITLE "Super Mario Bros.-Ground Theme"
    PERFORMER "Nintendo"
    FLAGS DCP
    INDEX 01 00:00:00
FILE "AudioCD - Super Mario History 1985-2010 FRE (Track 02).bin" BINARY
  TRACK 02 AUDIO
    TITLE "Super Mario Bros. 2-Ground Theme"
    PERFORMER "Nintendo"
    FLAGS DCP
    INDEX 00 00:00:00
    INDEX 01 00:01:60
FILE "AudioCD - Super Mario History 1985-2010 FRE (Track 03).bin" BINARY
  TRACK 03 AUDIO
    TITLE "Super Mario Bros. 3-Athletic Theme"
    PERFORMER "Nintendo"
    FLAGS DCP
    INDEX 00 00:00:00
    INDEX 01 00:01:60
FILE "AudioCD - Super Mario History 1985-2010 FRE (Track 04).bin" BINARY
  TRACK 04 AUDIO
    TITLE "Super Mario World-Ground Theme"
    PERFORMER "Nintendo"
    FLAGS DCP
    INDEX 00 00:00:00
    INDEX 01 00:01:60
FILE "AudioCD - Super Mario History 1985-2010 FRE (Track 05).bin" BINARY
  TRACK 05 AUDIO
    TITLE "Super Mario 64-Slider"
    PERFORMER "Nintendo"
    FLAGS DCP
    INDEX 00 00:00:00
    INDEX 01 00:01:60
FILE "AudioCD - Super Mario History 1985-2010 FRE (Track 06).bin" BINARY
  TRACK 06 AUDIO
    TITLE "Super Mario Sunshine-Delfino Plaza"
    PERFORMER "Nintendo"
    FLAGS DCP
    INDEX 00 00:00:00
    INDEX 01 00:01:60
FILE "AudioCD - Super Mario History 1985-2010 FRE (Track 07).bin" BINARY
  TRACK 07 AUDIO
    TITLE "New Super Mario Bros.-Main Theme"
    PERFORMER "Nintendo"
    FLAGS DCP
    INDEX 00 00:00:00
    INDEX 01 00:01:60
FILE "AudioCD - Super Mario History 1985-2010 FRE (Track 08).bin" BINARY
  TRACK 08 AUDIO
    TITLE "Super Mario Galaxy-Main Theme"
    PERFORMER "Nintendo"
    FLAGS DCP
    INDEX 00 00:00:00
    INDEX 01 00:01:60
FILE "AudioCD - Super Mario History 1985-2010 FRE (Track 09).bin" BINARY
  TRACK 09 AUDIO
    TITLE "New Super Mario Bros. Wii-Title Theme"
    PERFORMER "Nintendo"
    FLAGS DCP
    INDEX 00 00:00:00
    INDEX 01 00:01:60
FILE "AudioCD - Super Mario History 1985-2010 FRE (Track 10).bin" BINARY
  TRACK 10 AUDIO
    TITLE "Super Mario Galaxy 2-Main Theme (Trailer Arrangement)"
    PERFORMER "Nintendo"
    FLAGS DCP
    INDEX 00 00:00:00
    INDEX 01 00:01:60
FILE "AudioCD - Super Mario History 1985-2010 FRE (Track 11).bin" BINARY
  TRACK 11 AUDIO
    TITLE "Super Mario Bros.-Coin"
    PERFORMER "Nintendo"
    FLAGS DCP
    INDEX 00 00:00:00
    INDEX 01 00:03:60
FILE "AudioCD - Super Mario History 1985-2010 FRE (Track 12).bin" BINARY
  TRACK 12 AUDIO
    TITLE "Super Mario Bros.-Small Mario Jump"
    PERFORMER "Nintendo"
    FLAGS DCP
    INDEX 01 00:00:00
FILE "AudioCD - Super Mario History 1985-2010 FRE (Track 13).bin" BINARY
  TRACK 13 AUDIO
    TITLE "Super Mario Bros.-Power Up"
    PERFORMER "Nintendo"
    FLAGS DCP
    INDEX 01 00:00:00
FILE "AudioCD - Super Mario History 1985-2010 FRE (Track 14).bin" BINARY
  TRACK 14 AUDIO
    TITLE "Super Mario Bros.-1-Up"
    PERFORMER "Nintendo"
    FLAGS DCP
    INDEX 01 00:00:00
FILE "AudioCD - Super Mario History 1985-2010 FRE (Track 15).bin" BINARY
  TRACK 15 AUDIO
    TITLE "Super Mario Bros.-Pipe Travel/Power Down"
    PERFORMER "Nintendo"
    FLAGS DCP
    INDEX 01 00:00:00
FILE "AudioCD - Super Mario History 1985-2010 FRE (Track 16).bin" BINARY
  TRACK 16 AUDIO
    TITLE "Super Mario Bros.-Hurry Up"
    PERFORMER "Nintendo"
    FLAGS DCP
    INDEX 01 00:00:00
FILE "AudioCD - Super Mario History 1985-2010 FRE (Track 17).bin" BINARY
  TRACK 17 AUDIO
    TITLE "Super Mario Bros.-Lost a Life"
    PERFORMER "Nintendo"
    FLAGS DCP
    INDEX 01 00:00:00
FILE "AudioCD - Super Mario History 1985-2010 FRE (Track 18).bin" BINARY
  TRACK 18 AUDIO
    TITLE "Super Mario Bros.-Game Over"
    PERFORMER "Nintendo"
    FLAGS DCP
    INDEX 01 00:00:00
FILE "AudioCD - Super Mario History 1985-2010 FRE (Track 19).bin" BINARY
  TRACK 19 AUDIO
    TITLE "Super Mario Bros.-Course Clear"
    PERFORMER "Nintendo"
    FLAGS DCP
    INDEX 01 00:00:00
FILE "AudioCD - Super Mario History 1985-2010 FRE (Track 20).bin" BINARY
  TRACK 20 AUDIO
    TITLE "Super Mario Bros.-World Clear"
    PERFORMER "Nintendo"
    FLAGS DCP
    INDEX 01 00:00:00

Name: The Legend of Zelda: 25th Anniversary: Special Orchestra CD
BD: http://redump.org/disc/44022/
Logs: https://mega.nz/file/CJ8HmYBT#biXajU1vf … W5PmVhRHh8

Common Disc Info:
    Title: The Legend of Zelda: 25th Anniversary: Special Orchestra CD
    Foreign Title (Non-latin): (OPTIONAL)
    Disc Number / Letter: (OPTIONAL)
    Disc Title: (OPTIONAL)
    System: Audio CD
    Media Type: CD-ROM
    Category: Bonus Discs
    Region: Europe
    Languages: 
    Disc Serial: RVL-SOUP-EUR

    Ringcode Information:
        Data Side Mastering Code (laser branded/etched): 708.161 <tab> #3
        Data Side Mastering SID Code: IFPI LP57
        Data Side Toolstamp or Mastering Code (engraved/stamped): (REQUIRED, IF EXISTS)
        Data Side Mould SID Code: IFPI 3069
        Data Side Additional Mould: (REQUIRED, IF EXISTS)
        Label Side Mould SID Code: (REQUIRED, IF EXISTS)
    Barcode: (OPTIONAL)
    Error Count: 0
    Comments: (OPTIONAL)
    Contents:
    http://redump.org/disc/44022/

Version and Editions:
    Version: (REQUIRED, IF EXISTS)
    Edition/Release: Wii Game Bundle

Extras:
    Primary Volume Descriptor (PVD): Disc has no PVD

Tracks and Write Offsets:
    DAT:

<rom name="AudioCD - The Legend of Zelda 25th Anniversary Special Orchestra CD (Track 1).bin" size="85897392" crc="35bc9330" md5="2d853479c2489de2dd04bd95707cf107" sha1="66c50c64a5e2b5fa4e328ba9858be3a73d1ac5a3" />
<rom name="AudioCD - The Legend of Zelda 25th Anniversary Special Orchestra CD (Track 2).bin" size="29985648" crc="8352f955" md5="0a5170039b01c2068e0ca940525044e4" sha1="3f788462de005d0b2d6bc58228ba9396fbb9034a" />
<rom name="AudioCD - The Legend of Zelda 25th Anniversary Special Orchestra CD (Track 3).bin" size="111494208" crc="6ef4199f" md5="27e7ddcf86758b8650f02703f7e8511d" sha1="ac5399dffe4fa327630d823273a52db265252d27" />
<rom name="AudioCD - The Legend of Zelda 25th Anniversary Special Orchestra CD (Track 4).bin" size="38118864" crc="78d3a5a9" md5="a09e6bc7f5465132ff1a44202f42378e" sha1="bcfa111b3248a9f7ae1a2d20e72ea2751c49fb6b" />
<rom name="AudioCD - The Legend of Zelda 25th Anniversary Special Orchestra CD (Track 5).bin" size="32271792" crc="0064cc21" md5="85f93540e1989415ae2ef6163d67802b" sha1="aaf5d36ff65f040c4fae18c150dc728434e0cda4" />
<rom name="AudioCD - The Legend of Zelda 25th Anniversary Special Orchestra CD (Track 6).bin" size="111322512" crc="d6a8fedd" md5="a1bbd91536fcdb9af06aa960dfe8df78" sha1="3bec0b8d61065e8ea8d2c971344f7f7bf98e8778" />
<rom name="AudioCD - The Legend of Zelda 25th Anniversary Special Orchestra CD (Track 7).bin" size="47458656" crc="7363a75f" md5="fa33686dcc48468096787c8856892dd5" sha1="0f1441b4570cd34bf0fa71665d965e6ecb76535f" />
<rom name="AudioCD - The Legend of Zelda 25th Anniversary Special Orchestra CD (Track 8).bin" size="22541568" crc="e32a38dd" md5="a6d5189cf8d89676423eeef7586ef39b" sha1="f5914efee2d97ce30c90e3ff22f8e98598f8d5c6" />

    Cuesheet:

TITLE "The Legend of Zelda 25th Anniversary Special Orchestra CD"
PERFORMER "Nintendo"
FILE "AudioCD - The Legend of Zelda 25th Anniversary Special Orchestra CD (Track 1).bin" BINARY
  TRACK 01 AUDIO
    TITLE "The Legend of Zelda 25th Anniversary Medley"
    PERFORMER "Nintendo"
    INDEX 01 00:00:00
FILE "AudioCD - The Legend of Zelda 25th Anniversary Special Orchestra CD (Track 2).bin" BINARY
  TRACK 02 AUDIO
    TITLE "Kakariko Village-Twilight Princess Theme"
    PERFORMER "Nintendo"
    INDEX 00 00:00:00
    INDEX 01 00:01:69
FILE "AudioCD - The Legend of Zelda 25th Anniversary Special Orchestra CD (Track 3).bin" BINARY
  TRACK 03 AUDIO
    TITLE "The Wind Waker Symphonic Movement"
    PERFORMER "Nintendo"
    INDEX 00 00:00:00
    INDEX 01 00:02:13
FILE "AudioCD - The Legend of Zelda 25th Anniversary Special Orchestra CD (Track 4).bin" BINARY
  TRACK 04 AUDIO
    TITLE "Gerudo Valley"
    PERFORMER "Nintendo"
    INDEX 00 00:00:00
    INDEX 01 00:01:09
FILE "AudioCD - The Legend of Zelda 25th Anniversary Special Orchestra CD (Track 5).bin" BINARY
  TRACK 05 AUDIO
    TITLE "Great Fairy's Fountain Theme"
    PERFORMER "Nintendo"
    INDEX 00 00:00:00
    INDEX 01 00:01:37
FILE "AudioCD - The Legend of Zelda 25th Anniversary Special Orchestra CD (Track 6).bin" BINARY
  TRACK 06 AUDIO
    TITLE "Twilight Princess Symphonic Movement"
    PERFORMER "Nintendo"
    INDEX 00 00:00:00
    INDEX 01 00:02:06
FILE "AudioCD - The Legend of Zelda 25th Anniversary Special Orchestra CD (Track 7).bin" BINARY
  TRACK 07 AUDIO
    TITLE "The Legend of Zelda Main Theme Medley"
    PERFORMER "Nintendo"
    INDEX 00 00:00:00
    INDEX 01 00:02:10
FILE "AudioCD - The Legend of Zelda 25th Anniversary Special Orchestra CD (Track 8).bin" BINARY
  TRACK 08 AUDIO
    TITLE "Ballad of the Goddess from Skyward Sword"
    PERFORMER "Nintendo"
    INDEX 00 00:00:00
    INDEX 01 00:01:72
PX-W5524TA, PX-708UF, TS-H352C, BW-16D1HT