1 (edited by Edness 2022-01-08 14:40:45)

Logs: https://cdn.discordapp.com/attachments/ … Diablo2.7z


Disc 1 (Install)
http://redump.org/disc/72458/

Common Disc Info:
    Title: Diablo II
    Disc Number / Letter: 1
    Disc Title: Install Disc
    System: IBM PC Compatible
    Media Type: CD-ROM
    Category: Games
    Region: Europe
    Disc Serial: S1000486

    Ringcode Information:
        Data Side Mastering Code (laser branded/etched): sonopress arvato 51235120/S0020811 23
        Data Side Mould SID Code: IFPI 0790
    Error Count: 0
    Comments: [T:VOL] INSTALL
    Contents: Video: Warcraft III Trailer

Extras:
    Primary Volume Descriptor (PVD):

0320 : 20 20 20 20 20 20 20 20  20 20 20 20 20 32 30 30                200
0330 : 30 30 37 32 34 32 32 33  30 34 30 30 30 00 32 30   0072422304000.20
0340 : 30 30 30 37 32 34 32 32  33 31 34 38 30 30 00 00   00072422314800..
0350 : 00 00 00 00 00 00 00 00  00 00 00 00 00 00 00 00   ................
0360 : 00 00 00 00 00 00 00 00  00 00 00 00 00 00 00 00   ................
0370 : 00 01 00 00 00 00 00 00  00 00 00 00 00 00 00 00   ................

Tracks and Write Offsets:
    DAT:

<rom name="INSTALL.bin" size="614688144" crc="b7d535ec" md5="d94191a18b094eb86482248bfe35ed8b" sha1="63a046468ca7c7d3c5551da6d40ddc80085da442" />

    Cuesheet:

FILE "INSTALL.bin" BINARY
  TRACK 01 MODE1/2352
    INDEX 01 00:00:00

    Write Offset: 0


Disc 2 (Play)
http://redump.org/disc/41715/

Common Disc Info:
    Title: Diablo II
    Disc Number / Letter: 2
    Disc Title: Play Disc
    System: IBM PC Compatible
    Media Type: CD-ROM
    Category: Games
    Region: Europe
    Disc Serial: S1000495

    Ringcode Information:
        Data Side Mastering Code (laser branded/etched): sonopress arvato   50633573/S0027694 21
        Data Side Mould SID Code: IFPI 0774
    Error Count: 1
    Comments: [T:VOL] PLAYDISC
    Contents: Patch: Diablo II 1.09d

Extras:
    Primary Volume Descriptor (PVD):

0320 : 20 20 20 20 20 20 20 20  20 20 20 20 20 32 30 30                200
0330 : 33 30 32 30 36 31 31 32  39 32 38 30 30 00 32 30   3020611292800.20
0340 : 30 33 30 32 30 36 31 31  32 39 34 39 30 30 00 00   03020611294900..
0350 : 00 00 00 00 00 00 00 00  00 00 00 00 00 00 00 00   ................
0360 : 00 00 00 00 00 00 00 00  00 00 00 00 00 00 00 00   ................
0370 : 00 01 00 00 01 E8 03 00  00 00 00 00 00 00 00 00   ................

Copy Protection:
    SubIntention Data (SecuROM/LibCrypt):

MSF: 00:01:74 Q-Data: 410100 00:40:01 00 00:03:74 2ef1
MSF: 01:08:50 Q-Data: 410101 21:06:50 00 05:08:50 0a8f
MSF: 01:19:17 Q-Data: 410101 00:17:17 00 81:19:17 2b76
MSF: 02:04:02 Q-Data: 410101 02:03:02 00 02:84:02 e397
MSF: 02:29:45 Q-Data: 410101 02:27:55 00 02:29:4d abbb
MSF: 02:30:28 Q-Data: 410101 42:28:28 00 00:30:28 52fe
MSF: 02:58:07 Q-Data: 410101 42:56:07 00 00:58:07 ad82
MSF: 03:05:06 Q-Data: 410101 03:43:06 00 03:07:06 d3d5
MSF: 03:20:14 Q-Data: 410101 02:18:14 00 83:20:14 814a
MSF: 03:40:69 Q-Data: 410101 43:38:69 00 01:40:69 2cae
MSF: 04:02:25 Q-Data: 410101 04:08:25 00 04:12:25 ea11

Tracks and Write Offsets:
    DAT:

<rom name="PLAYDISC.bin" size="773222352" crc="4718ca62" md5="36a32cc270b4d049db9576561c8bb339" sha1="ab3b57c29a43002b20b010ecfe9b22a6430fd3c9" />

    Cuesheet:

FILE "PLAYDISC.bin" BINARY
  TRACK 01 MODE1/2352
    INDEX 01 00:00:00

    Write Offset: -12


Disc 3 (Cinematics)
http://redump.org/disc/36152/
Note: DIC dump had an error where two bytes were different.  A 2nd Alcohol 120% redump matched this submission.

Common Disc Info:
    Title: Diablo II
    Disc Number / Letter: 3
    Disc Title: Cinematics Disc
    System: IBM PC Compatible
    Media Type: CD-ROM
    Category: Games
    Region: Europe
    Disc Serial: S1000496

    Ringcode Information:
        Data Side Mastering Code (laser branded/etched): Sono press 50641402/S0027866 03
        Data Side Mould SID Code: IFPI 0794
    Error Count: 0
    Comments: [T:VOL] CINEMATICS
    Contents: Demo: Warcraft III: Reign of Chaos

Extras:
    Primary Volume Descriptor (PVD):

0320 : 20 20 20 20 20 20 20 20  20 20 20 20 20 32 30 30                200
0330 : 33 30 31 32 33 31 36 30  34 33 34 30 30 00 32 30   3012316043400.20
0340 : 30 33 30 31 32 33 31 36  30 36 32 34 30 30 00 00   03012316062400..
0350 : 00 00 00 00 00 00 00 00  00 00 00 00 00 00 00 00   ................
0360 : 00 00 00 00 00 00 00 00  00 00 00 00 00 00 00 00   ................
0370 : 00 01 00 00 00 00 00 00  00 00 00 00 00 00 00 00   ................

Tracks and Write Offsets:
    DAT:

<rom name="CINEMATICS.bin" size="629538672" crc="b078a157" md5="1396ea379533510b3d84c38c41d3b284" sha1="35e7a2f793d252666a512a7e4bcc51b0db4b70e9" />

    Cuesheet:

FILE "CINEMATICS.bin" BINARY
  TRACK 01 MODE1/2352
    INDEX 01 00:00:00

    Write Offset: -12