1 (edited by Edness 2022-01-08 14:44:48)

A Bug's Life
http://redump.org/disc/6256/
https://cdn.discordapp.com/attachments/ … dumpPS1.7z
The title on the promo disc says just A Bug's Life, but in-game it says Disney/Pixar Das grosse Krabbeln.  Perhaps add the disc title as the foreign/alternate title?

Common Disc Info:
    Title: Disney/Pixar Das grosse Krabbeln
    Alternate Title: A Bug's Life
    System: Sony PlayStation
    Media Type: CD-ROM
    Category: Games
    Region: Germany
    Languages: German
    Disc Serial: SCES-01521

    Ringcode Information:
        Data Side Mastering Code (laser branded/etched): DADC   A0100270000-0101   15
        Data Side Mastering SID Code: IFPI L555
        Data Side Toolstamp or Mastering Code (engraved/stamped): B1
        Data Side Mould SID Code: IFPI 941S
    Error Count: 0
    Comments:
[T:VOL] BUGSLIFE
Disc ID: 9764823 (Promo)

Version and Editions:
    Edition/Release: Promo

EDC:
    EDC: No

Extras:
    Primary Volume Descriptor (PVD):

0320 : 20 20 20 20 20 20 20 20  20 20 20 20 20 31 39 39                199
0330 : 39 30 31 31 38 31 32 30  30 30 30 30 30 24 31 39   9011812000000$19
0340 : 39 39 30 31 31 34 31 32  30 30 30 30 30 30 00 30   99011412000000.0
0350 : 30 30 30 30 30 30 30 30  30 30 30 30 30 30 30 00   000000000000000.
0360 : 30 30 30 30 30 30 30 30  30 30 30 30 30 30 30 30   0000000000000000
0370 : 00 01 00 00 00 00 00 00  00 00 00 00 00 00 00 00   ................

Copy Protection:
    Anti-modchip: No
    LibCrypt: No

Tracks and Write Offsets:
    DAT:

<rom name="BUGSLIFE.bin" size="737744784" crc="38fe252f" md5="151369b45c33346458171a2a935e980f" sha1="d676e0ef079fc2fc4465d2c19800db4b5c2ff0bc" />

    Cuesheet:

FILE "BUGSLIFE.bin" BINARY
  TRACK 01 MODE2/2352
    INDEX 01 00:00:00

    Write Offset: -647


Tomb Raider II: Starring Lara Croft
http://redump.org/disc/906/
Side note: Couldn't dump the disc with DIC because the disc is now damaged.  Had to rely on a personal dump with Alcohol 120% I had made about 7 years earlier, after "fixing" the audio tracks by adding about 150 sectors/2 seconds (minus 32 bytes) at the start of the audio track and all hashes matched.  Write offset still retrieved with DIC.

Common Disc Info:
    Title: Tomb Raider II: Starring Lara Croft
    System: Sony PlayStation
    Media Type: CD-ROM
    Category: Games
    Region: Europe
    Languages: English
    Disc Serial: SLES-00718

    Ringcode Information:
        Data Side Mastering Code (laser branded/etched): DADC AUSTRIA   A0100232436-0101   15
        Data Side Mastering SID Code: IFPI L555
        Data Side Toolstamp or Mastering Code (engraved/stamped): B1
        Data Side Mould SID Code: IFPI 943B
        Data Side Additional Mould: *
    Barcode: 5 032921 002837
    Comments: [T:VOL] TOMB2ENG

Version and Editions:
    Edition/Release: Original

Extras:
    Primary Volume Descriptor (PVD):

0320 : 20 20 20 20 20 20 20 20  20 20 20 20 20 31 39 39                199
0330 : 37 31 31 31 30 31 36 31  33 32 33 30 30 24 30 30   7111016132300$00
0340 : 30 30 30 30 30 30 30 30  30 30 30 30 30 30 00 30   00000000000000.0
0350 : 30 30 30 30 30 30 30 30  30 30 30 30 30 30 30 00   000000000000000.
0360 : 30 30 30 30 30 30 30 30  30 30 30 30 30 30 30 30   0000000000000000
0370 : 00 01 00 00 00 00 00 00  00 00 00 00 00 00 00 00   ................

Tracks and Write Offsets:
    DAT:

<rom name="TOMB2ENG (Track 01).bin" size="244530384" crc="30f2416b" md5="a46ee3d6fa3bae2383f2beac45bbe42b" sha1="307ca91df7236b1df9bcdf1ebf8fa7a4b3285546" />
<rom name="TOMB2ENG (Track 02).bin" size="15426768" crc="aaddc00c" md5="881af6b9fa293b296c015129ebf98d54" sha1="9594ff31790bf4f3f2ab32cd79f7713bc2bbedd5" />
<rom name="TOMB2ENG (Track 03).bin" size="20521200" crc="9b203a93" md5="3212fa24750aacbd376343328e0d71f4" sha1="5784924da193bf2572427bfa286e07e8e2abd802" />
<rom name="TOMB2ENG (Track 04).bin" size="24307920" crc="1b2ec8bf" md5="6447389168775a8d29f5b8ddf71880b3" sha1="ea7b60841623e544017948c64c6403fd373fb269" />
<rom name="TOMB2ENG (Track 05).bin" size="1728720" crc="a24f9c12" md5="c6e3bd5950494b640f59c61e0c1ad0da" sha1="b0fdbb17f81d11c884ef5388fc5b8bb8d43a0d91" />
<rom name="TOMB2ENG (Track 06).bin" size="1580544" crc="f9e9787c" md5="5d7e91c57fbc7411db963edb24e91529" sha1="8bb78772f3bacd7c48ef039143e1c68a904fc14d" />
<rom name="TOMB2ENG (Track 07).bin" size="1237152" crc="de3f1c21" md5="7443608ae0483e7605e0c4c0e0345d4d" sha1="62bc6549ff7ea4b23a0ac5e7170618fb647b0d44" />
<rom name="TOMB2ENG (Track 08).bin" size="1239504" crc="0049ed29" md5="93846e5c97fdcb496b5966452037545a" sha1="519419d1ba87385b5ac47474ee6daaa1e91b854f" />
<rom name="TOMB2ENG (Track 09).bin" size="1411200" crc="bc64d271" md5="745319b3eebd99bba08c17575d586ea4" sha1="d82046d1eefeb7eed91cd4a59226f39890d0a533" />
<rom name="TOMB2ENG (Track 10).bin" size="2349648" crc="fbe68bc9" md5="aeb8810bc0e37c6e9f21295a6db57566" sha1="bb8e8bc8faed2d2c51fa2918eb2f47d75d26e564" />
<rom name="TOMB2ENG (Track 11).bin" size="3139920" crc="d8e782b4" md5="0b1c0fad72b1a9e3cad9e39c627d2f48" sha1="41f41bd267c6e29afd51630cc74ae23b02309053" />
<rom name="TOMB2ENG (Track 12).bin" size="1853376" crc="b74214d7" md5="8f649b8b2ac3ff8cf9a5ef75eec3a1c8" sha1="4c4522577aa22d0a23f10201a32f5617c74fadeb" />
<rom name="TOMB2ENG (Track 13).bin" size="1961568" crc="8d3ce6f2" md5="01ae3d7329bc0e02e7e0ac702ec5d29e" sha1="d4e82a44c4be0f4d854827a1ff331ed1b0842d1f" />
<rom name="TOMB2ENG (Track 14).bin" size="1237152" crc="67eeac80" md5="8ef90c542de4979f6964ea45ab4bff20" sha1="5a65603eccf464848d001d698643dbbe4216f874" />
<rom name="TOMB2ENG (Track 15).bin" size="1237152" crc="ec67678c" md5="009edeadbfee28d2b38c1851d067310b" sha1="f3d78c480808b5558d517ad7bbfa6a0468ddfc36" />
<rom name="TOMB2ENG (Track 16).bin" size="1239504" crc="bf7113d6" md5="28ef8b50bce2becb4494bc0bdbcf6cfa" sha1="d47e6ca5bc002843e9ec179218d1cab0acc2a115" />
<rom name="TOMB2ENG (Track 17).bin" size="1945104" crc="1cc01cd5" md5="be94b9f59ec914c5d939f22e20197fa8" sha1="2e5647fcdbe0eff62dc9769f9040f39296ec8aba" />
<rom name="TOMB2ENG (Track 18).bin" size="1237152" crc="72255d2d" md5="3fac19bdd3ccd52b0321a2b26d37d27b" sha1="f5bc07df1afb2700c1f48451ae344c3eeef4a7ed" />
<rom name="TOMB2ENG (Track 19).bin" size="1237152" crc="e96a2eb2" md5="d36ff28ac42be00f6eda7fbc472eeec0" sha1="bd4df2a6c0c712a6ff9530cfdcb335a6e3e0ca7a" />
<rom name="TOMB2ENG (Track 20).bin" size="1237152" crc="41c1851a" md5="ab48461343dd120eba7916c34897c878" sha1="dbd63fd5cc6ef4bf293d7971cb60d8b3a0d3829a" />
<rom name="TOMB2ENG (Track 21).bin" size="1237152" crc="5c55fd7e" md5="58cc1cad545310079e591f010152e7aa" sha1="c3c804724c9e48a395a0c6b5ce16948b99c7ad6b" />
<rom name="TOMB2ENG (Track 22).bin" size="1237152" crc="c3da53f5" md5="cf75a20d797798b7439d3d42143a6a00" sha1="bf03271cbef48da5cdaab1c8a2610d9a499dee24" />
<rom name="TOMB2ENG (Track 23).bin" size="3290448" crc="88754797" md5="e011d4321a488ac194ed38702d51187d" sha1="7f8410ec5efe1f741f339f41de34b6a918267699" />
<rom name="TOMB2ENG (Track 24).bin" size="1942752" crc="f5491bbe" md5="37998dae723b1555b7dbdb9272375237" sha1="c981e5e0447c7237d904f90a52ddd6de2c46ad37" />
<rom name="TOMB2ENG (Track 25).bin" size="1237152" crc="e5e71d00" md5="4f3cbf9d4a70721564fb35d7f4091ac9" sha1="4b759c07dbd700c05cabef680400c8166aff2b18" />
<rom name="TOMB2ENG (Track 26).bin" size="9502080" crc="58662361" md5="2c4fb36e42aaf9e66351007278f298e9" sha1="70decd1b14bbd825734296f039051913e9c29e4c" />
<rom name="TOMB2ENG (Track 27).bin" size="21193872" crc="28fd9c44" md5="063b43125684b0e627da92b2a7a76fad" sha1="e37f8b87bb9f6bf5939975fe65a41ae350a92ebd" />
<rom name="TOMB2ENG (Track 28).bin" size="21128016" crc="dc5665da" md5="613f41897f5fc4f07728382083a3b1df" sha1="280b6f63a11ab9dfafa860d12488869eae0c696a" />
<rom name="TOMB2ENG (Track 29).bin" size="29715168" crc="e752fd2c" md5="07a5d3397bff39b2f621a6256d145ab5" sha1="0a6b0868789d2914e755fb929b0a6ece43e9910c" />
<rom name="TOMB2ENG (Track 30).bin" size="32775120" crc="b89eb1b7" md5="65ccf50ed604d06fe1ac8a2d702ac1dc" sha1="61b59c7e67c584065d164236e0761c64438aff67" />
<rom name="TOMB2ENG (Track 31).bin" size="1721664" crc="a295b216" md5="7c9bbd7a7ba5afc30d478ab07e1d9a93" sha1="6e8fed46aea0fdfe9522ff2e578a725dd81c6f16" />
<rom name="TOMB2ENG (Track 32).bin" size="1171296" crc="0c3caeb7" md5="3d47e6c4076dfacc268510fc8d73059c" sha1="6d1b46bc823427af8b411b704bbbe0cbae27fd09" />
<rom name="TOMB2ENG (Track 33).bin" size="3257520" crc="4df31b88" md5="54eba5d9538952e3d410330a332b67e6" sha1="66cbebd6d1d71e6905131c33890231a953470920" />
<rom name="TOMB2ENG (Track 34).bin" size="9958368" crc="8ac3d4a0" md5="d73ac3ed207407d9f1d8b6b2d8cc1edd" sha1="fa88fac6013486654aa4803e621f6701546f03b0" />
<rom name="TOMB2ENG (Track 35).bin" size="3859632" crc="4048fc40" md5="bfc646b9391b87b8dbb2f1335ebcb62e" sha1="4621cbfc50ef56112ed402ef3180da9ddbe1b00a" />
<rom name="TOMB2ENG (Track 36).bin" size="28386288" crc="c980d46c" md5="4d88f6e35e93ef5f012ed9aba7934cbc" sha1="7d67c9ca5c6961f89d3e2beb1c6e0750923b7fbe" />
<rom name="TOMB2ENG (Track 37).bin" size="2500176" crc="f1292761" md5="7536cc3dc65c9f016cd95c21b70d4f02" sha1="2b5893d36e5b21100fb9550307f934e3db83ffdc" />
<rom name="TOMB2ENG (Track 38).bin" size="2368464" crc="7b9c4815" md5="0c2cb795b10c1d5a26af6741eed59d9a" sha1="5dae8401724fbd6600be88f4bd19ce860f96d559" />
<rom name="TOMB2ENG (Track 39).bin" size="2970576" crc="7e24fa22" md5="a997b735454cb4889f884c68b0cf99f6" sha1="b328d58775419d2cf184a234fcd4ef15316e932a" />
<rom name="TOMB2ENG (Track 40).bin" size="3499776" crc="aee8e286" md5="07662f901a12702ff98682983459c4fa" sha1="7235b3088d3de7846d2dabbf40808c9b90fe8c2e" />
<rom name="TOMB2ENG (Track 41).bin" size="10774512" crc="05f78a21" md5="3786e64809acc6472325479cb914d5b3" sha1="2774ef9399d8b28ddbdc940f4d5b37e48ac4a804" />
<rom name="TOMB2ENG (Track 42).bin" size="6244560" crc="a2bf602e" md5="89aa22829f76d57d7af14868b687f336" sha1="e08d2d2a98c2aaa05aa89ae3a7b2429f9b624b77" />
<rom name="TOMB2ENG (Track 43).bin" size="1126608" crc="9eb27ee2" md5="b2edf8975c1a66e106e89c1f018db155" sha1="13b5e6eec3ccb8e2b355efc90ff4183208855aa7" />
<rom name="TOMB2ENG (Track 44).bin" size="2820048" crc="c940b9dc" md5="96a9d9e930e7528a4a9119fd3e26df39" sha1="37f259fb4d415a4b069fdcd2fb130b8c360a3e42" />
<rom name="TOMB2ENG (Track 45).bin" size="2112096" crc="52068edb" md5="397407bcd7e30809ddd7059749d85548" sha1="41f087850f372aa623630af2d50f483b1b12aa37" />
<rom name="TOMB2ENG (Track 46).bin" size="2533104" crc="94249f1a" md5="c0eb0af863f792c2953702cc8687e532" sha1="1595740783b524ff83fd28b737f4d374fef4665f" />
<rom name="TOMB2ENG (Track 47).bin" size="1841616" crc="97c9a533" md5="9b6b726b2ffdc4da8cf50b031f30eda0" sha1="40bdff7857fb2b513f801968e06721b67735b130" />
<rom name="TOMB2ENG (Track 48).bin" size="29124816" crc="b92229d3" md5="ca9be4d801b27caf31ff664251715292" sha1="8392ad37b9c102f2d8fbd2c9ec6c7e0415e61ef1" />
<rom name="TOMB2ENG (Track 49).bin" size="12936000" crc="ae4e84af" md5="0466722e28022c551d24712d3f623989" sha1="be1c00d64aea6aad96004199e61daca6460fb6b9" />
<rom name="TOMB2ENG (Track 50).bin" size="1698144" crc="59e836ae" md5="2c5f2e3192efc10f3461f9413fc9a465" sha1="0145d1312f11819c3aa5e83b32a8e68859e07e6c" />
<rom name="TOMB2ENG (Track 51).bin" size="7780416" crc="a3e95e7b" md5="0d4573214c30ca88bf87ec658062bc1c" sha1="82be0707687b2487fb38504ef2fd46ce1a4e6d8a" />
<rom name="TOMB2ENG (Track 52).bin" size="2081520" crc="be09b35f" md5="fd19890c153598a06afb515b8e54bbd1" sha1="c713ea05ffeef478eb58b2ad46b142b85af98823" />
<rom name="TOMB2ENG (Track 53).bin" size="9010512" crc="b79e3fab" md5="7b9e60083aedd5ed0068f3b87c793861" sha1="d5dc983ff7cadd2cf41ad7678bd5053d7f682330" />
<rom name="TOMB2ENG (Track 54).bin" size="37323888" crc="fada1d3a" md5="8112663bc77601d8a3f86aa1aba5f7f2" sha1="83fc907c6c74115756bdb89874d23dc8e7acfb19" />
<rom name="TOMB2ENG (Track 55).bin" size="37354464" crc="15797e41" md5="6b95f72d279aa352f30c864d6bdb61e2" sha1="9f8c3e7a3cafdcc66ad4e84c0a751ce45a628659" />
<rom name="TOMB2ENG (Track 56).bin" size="18999456" crc="baa531cd" md5="a29bd8224666ed8868524138312b2222" sha1="52bf44d3bf4f44d70383ae46b67ea8959649f10b" />
<rom name="TOMB2ENG (Track 57).bin" size="4515840" crc="ebf1623d" md5="cae5eefc247f361919f38b1e368413c0" sha1="f30daff1774b3c6692b749c57a2849decd3b186d" />
<rom name="TOMB2ENG (Track 58).bin" size="4172448" crc="0fed4585" md5="45c558e6072e0b10f36657ab3f882fa2" sha1="884c3bfe178e3df05ed2259c1ab18eb5c1131792" />
<rom name="TOMB2ENG (Track 59).bin" size="3478608" crc="4fcb03a1" md5="4f8b716ea25cac93f17e36d435b8928e" sha1="bbfa24e35a6acfce438ab8c6c4da74a6b8dec33e" />
<rom name="TOMB2ENG (Track 60).bin" size="29745744" crc="977cdb5e" md5="cbe8e549b5f7673d247f8dbe63cebabb" sha1="de47fa5bdc6679b3d2c46344297c7f81618b0913" />
<rom name="TOMB2ENG (Track 61).bin" size="3478608" crc="4fcb03a1" md5="4f8b716ea25cac93f17e36d435b8928e" sha1="bbfa24e35a6acfce438ab8c6c4da74a6b8dec33e" />

    Cuesheet:

FILE "TOMB2ENG (Track 01).bin" BINARY
  TRACK 01 MODE2/2352
    INDEX 01 00:00:00
FILE "TOMB2ENG (Track 02).bin" BINARY
  TRACK 02 AUDIO
    INDEX 00 00:00:00
    INDEX 01 00:02:00
FILE "TOMB2ENG (Track 03).bin" BINARY
  TRACK 03 AUDIO
    INDEX 00 00:00:00
    INDEX 01 00:02:00
FILE "TOMB2ENG (Track 04).bin" BINARY
  TRACK 04 AUDIO
    INDEX 00 00:00:00
    INDEX 01 00:02:00
FILE "TOMB2ENG (Track 05).bin" BINARY
  TRACK 05 AUDIO
    INDEX 00 00:00:00
    INDEX 01 00:02:00
FILE "TOMB2ENG (Track 06).bin" BINARY
  TRACK 06 AUDIO
    INDEX 00 00:00:00
    INDEX 01 00:02:00
FILE "TOMB2ENG (Track 07).bin" BINARY
  TRACK 07 AUDIO
    INDEX 00 00:00:00
    INDEX 01 00:02:00
FILE "TOMB2ENG (Track 08).bin" BINARY
  TRACK 08 AUDIO
    INDEX 00 00:00:00
    INDEX 01 00:02:00
FILE "TOMB2ENG (Track 09).bin" BINARY
  TRACK 09 AUDIO
    INDEX 00 00:00:00
    INDEX 01 00:02:00
FILE "TOMB2ENG (Track 10).bin" BINARY
  TRACK 10 AUDIO
    INDEX 00 00:00:00
    INDEX 01 00:02:00
FILE "TOMB2ENG (Track 11).bin" BINARY
  TRACK 11 AUDIO
    INDEX 00 00:00:00
    INDEX 01 00:02:00
FILE "TOMB2ENG (Track 12).bin" BINARY
  TRACK 12 AUDIO
    INDEX 00 00:00:00
    INDEX 01 00:02:00
FILE "TOMB2ENG (Track 13).bin" BINARY
  TRACK 13 AUDIO
    INDEX 00 00:00:00
    INDEX 01 00:02:00
FILE "TOMB2ENG (Track 14).bin" BINARY
  TRACK 14 AUDIO
    INDEX 00 00:00:00
    INDEX 01 00:02:00
FILE "TOMB2ENG (Track 15).bin" BINARY
  TRACK 15 AUDIO
    INDEX 00 00:00:00
    INDEX 01 00:02:00
FILE "TOMB2ENG (Track 16).bin" BINARY
  TRACK 16 AUDIO
    INDEX 00 00:00:00
    INDEX 01 00:02:00
FILE "TOMB2ENG (Track 17).bin" BINARY
  TRACK 17 AUDIO
    INDEX 00 00:00:00
    INDEX 01 00:02:00
FILE "TOMB2ENG (Track 18).bin" BINARY
  TRACK 18 AUDIO
    INDEX 00 00:00:00
    INDEX 01 00:02:00
FILE "TOMB2ENG (Track 19).bin" BINARY
  TRACK 19 AUDIO
    INDEX 00 00:00:00
    INDEX 01 00:02:00
FILE "TOMB2ENG (Track 20).bin" BINARY
  TRACK 20 AUDIO
    INDEX 00 00:00:00
    INDEX 01 00:02:00
FILE "TOMB2ENG (Track 21).bin" BINARY
  TRACK 21 AUDIO
    INDEX 00 00:00:00
    INDEX 01 00:02:00
FILE "TOMB2ENG (Track 22).bin" BINARY
  TRACK 22 AUDIO
    INDEX 00 00:00:00
    INDEX 01 00:02:00
FILE "TOMB2ENG (Track 23).bin" BINARY
  TRACK 23 AUDIO
    INDEX 00 00:00:00
    INDEX 01 00:02:00
FILE "TOMB2ENG (Track 24).bin" BINARY
  TRACK 24 AUDIO
    INDEX 00 00:00:00
    INDEX 01 00:02:00
FILE "TOMB2ENG (Track 25).bin" BINARY
  TRACK 25 AUDIO
    INDEX 00 00:00:00
    INDEX 01 00:02:00
FILE "TOMB2ENG (Track 26).bin" BINARY
  TRACK 26 AUDIO
    INDEX 00 00:00:00
    INDEX 01 00:02:00
FILE "TOMB2ENG (Track 27).bin" BINARY
  TRACK 27 AUDIO
    INDEX 00 00:00:00
    INDEX 01 00:02:00
FILE "TOMB2ENG (Track 28).bin" BINARY
  TRACK 28 AUDIO
    INDEX 00 00:00:00
    INDEX 01 00:02:00
FILE "TOMB2ENG (Track 29).bin" BINARY
  TRACK 29 AUDIO
    INDEX 00 00:00:00
    INDEX 01 00:02:00
FILE "TOMB2ENG (Track 30).bin" BINARY
  TRACK 30 AUDIO
    INDEX 00 00:00:00
    INDEX 01 00:02:00
FILE "TOMB2ENG (Track 31).bin" BINARY
  TRACK 31 AUDIO
    INDEX 00 00:00:00
    INDEX 01 00:02:00
FILE "TOMB2ENG (Track 32).bin" BINARY
  TRACK 32 AUDIO
    INDEX 00 00:00:00
    INDEX 01 00:02:00
FILE "TOMB2ENG (Track 33).bin" BINARY
  TRACK 33 AUDIO
    INDEX 00 00:00:00
    INDEX 01 00:02:00
FILE "TOMB2ENG (Track 34).bin" BINARY
  TRACK 34 AUDIO
    INDEX 00 00:00:00
    INDEX 01 00:02:00
FILE "TOMB2ENG (Track 35).bin" BINARY
  TRACK 35 AUDIO
    INDEX 00 00:00:00
    INDEX 01 00:02:00
FILE "TOMB2ENG (Track 36).bin" BINARY
  TRACK 36 AUDIO
    INDEX 00 00:00:00
    INDEX 01 00:02:00
FILE "TOMB2ENG (Track 37).bin" BINARY
  TRACK 37 AUDIO
    INDEX 00 00:00:00
    INDEX 01 00:02:00
FILE "TOMB2ENG (Track 38).bin" BINARY
  TRACK 38 AUDIO
    INDEX 00 00:00:00
    INDEX 01 00:02:00
FILE "TOMB2ENG (Track 39).bin" BINARY
  TRACK 39 AUDIO
    INDEX 00 00:00:00
    INDEX 01 00:02:00
FILE "TOMB2ENG (Track 40).bin" BINARY
  TRACK 40 AUDIO
    INDEX 00 00:00:00
    INDEX 01 00:02:00
FILE "TOMB2ENG (Track 41).bin" BINARY
  TRACK 41 AUDIO
    INDEX 00 00:00:00
    INDEX 01 00:02:00
FILE "TOMB2ENG (Track 42).bin" BINARY
  TRACK 42 AUDIO
    INDEX 00 00:00:00
    INDEX 01 00:02:00
FILE "TOMB2ENG (Track 43).bin" BINARY
  TRACK 43 AUDIO
    INDEX 00 00:00:00
    INDEX 01 00:02:00
FILE "TOMB2ENG (Track 44).bin" BINARY
  TRACK 44 AUDIO
    INDEX 00 00:00:00
    INDEX 01 00:02:00
FILE "TOMB2ENG (Track 45).bin" BINARY
  TRACK 45 AUDIO
    INDEX 00 00:00:00
    INDEX 01 00:02:00
FILE "TOMB2ENG (Track 46).bin" BINARY
  TRACK 46 AUDIO
    INDEX 00 00:00:00
    INDEX 01 00:02:00
FILE "TOMB2ENG (Track 47).bin" BINARY
  TRACK 47 AUDIO
    INDEX 00 00:00:00
    INDEX 01 00:02:00
FILE "TOMB2ENG (Track 48).bin" BINARY
  TRACK 48 AUDIO
    INDEX 00 00:00:00
    INDEX 01 00:02:00
FILE "TOMB2ENG (Track 49).bin" BINARY
  TRACK 49 AUDIO
    INDEX 00 00:00:00
    INDEX 01 00:02:00
FILE "TOMB2ENG (Track 50).bin" BINARY
  TRACK 50 AUDIO
    INDEX 00 00:00:00
    INDEX 01 00:02:00
FILE "TOMB2ENG (Track 51).bin" BINARY
  TRACK 51 AUDIO
    INDEX 00 00:00:00
    INDEX 01 00:02:00
FILE "TOMB2ENG (Track 52).bin" BINARY
  TRACK 52 AUDIO
    INDEX 00 00:00:00
    INDEX 01 00:02:00
FILE "TOMB2ENG (Track 53).bin" BINARY
  TRACK 53 AUDIO
    INDEX 00 00:00:00
    INDEX 01 00:02:00
FILE "TOMB2ENG (Track 54).bin" BINARY
  TRACK 54 AUDIO
    INDEX 00 00:00:00
    INDEX 01 00:02:00
FILE "TOMB2ENG (Track 55).bin" BINARY
  TRACK 55 AUDIO
    INDEX 00 00:00:00
    INDEX 01 00:02:00
FILE "TOMB2ENG (Track 56).bin" BINARY
  TRACK 56 AUDIO
    INDEX 00 00:00:00
    INDEX 01 00:02:00
FILE "TOMB2ENG (Track 57).bin" BINARY
  TRACK 57 AUDIO
    INDEX 00 00:00:00
    INDEX 01 00:02:00
FILE "TOMB2ENG (Track 58).bin" BINARY
  TRACK 58 AUDIO
    INDEX 00 00:00:00
    INDEX 01 00:02:00
FILE "TOMB2ENG (Track 59).bin" BINARY
  TRACK 59 AUDIO
    INDEX 00 00:00:00
    INDEX 01 00:02:00
FILE "TOMB2ENG (Track 60).bin" BINARY
  TRACK 60 AUDIO
    INDEX 00 00:00:00
    INDEX 01 00:02:00
FILE "TOMB2ENG (Track 61).bin" BINARY
  TRACK 61 AUDIO
    INDEX 00 00:00:00
    INDEX 01 00:02:00

    Write Offset: 2