Common Disc Info:
    Title: Ketsui: Kizuna Jigoku-tachi Original Soundtrack [STEREO Ver.]
    Foreign Title (Non-latin): ケツイ ~絆地獄たち~ Original Soundtrack [STEREO Ver.]
    Disc Number / Letter: 2
    Disc Title:
    System: Audio CD
    Media Type: CD-ROM
    Category: Audio
    Region: Japan
    Disc Serial: KEBD-0002

    Ringcode Information:
        Data Side Mastering Code (laser branded/etched): KEBD-0002   -RC01-
        Data Side Mastering SID Code: IFPI LZ49
        Data Side Toolstamp or Mastering Code (engraved/stamped):
        Data Side Mould SID Code: IFPI 7605
        Data Side Additional Mould:
        Label Side Mould SID Code:
        Label Side Additional Mould:
    Barcode:
    Error Count: 0
    Comments: Part of the Ketsui ~Kizuna Jigoku tachi Extra~ "LIMITED EDITION" Bonus set.
    Contents:

Version and Editions:
    Version:
    Edition/Release: PS3 Game Bundle

Extras:
    Primary Volume Descriptor (PVD): Disc has no PVD

Tracks and Write Offsets:
    DAT:

<rom name="Ketsui - Kizuna Jigoku-tachi Extra Original Soundtrack [STEREO Ver] (Japan) (Track 01).bin" size="15403248" crc="f644bb9a" md5="3fac00a46c3527c8ccb3e8b4ee97f9e6" sha1="3a6aa72f8d8054c3f60af3dd9e066b6fa4c18f24" />
<rom name="Ketsui - Kizuna Jigoku-tachi Extra Original Soundtrack [STEREO Ver] (Japan) (Track 02).bin" size="37869552" crc="c24f4b40" md5="0dde0a6e7e162da088f2bda4d93dea13" sha1="ad11ae1f49fedec970f127b7e337d561f8d3a1f4" />
<rom name="Ketsui - Kizuna Jigoku-tachi Extra Original Soundtrack [STEREO Ver] (Japan) (Track 03).bin" size="35677488" crc="c674aaab" md5="34de4a65991f90aace27de18e11841b0" sha1="f84c117011aa8d4b289b82cef4e959dce1bc0b11" />
<rom name="Ketsui - Kizuna Jigoku-tachi Extra Original Soundtrack [STEREO Ver] (Japan) (Track 04).bin" size="4381776" crc="bf1e9662" md5="4cb6b686f50ad7edcdc6e90baf68ebe8" sha1="94c3b31a0918b0a5c69f7f68fbf0a1be0c813e3c" />
<rom name="Ketsui - Kizuna Jigoku-tachi Extra Original Soundtrack [STEREO Ver] (Japan) (Track 05).bin" size="37669632" crc="3405c7e5" md5="e298b7d7edb9aea1fae71383a62a423b" sha1="e700a84d491655e3a805a8d987a8c62fcf44f0c6" />
<rom name="Ketsui - Kizuna Jigoku-tachi Extra Original Soundtrack [STEREO Ver] (Japan) (Track 06).bin" size="32577552" crc="ae751c15" md5="d9d853a8c0dfcee5dc0630fc4e0a0699" sha1="0c5cb80ed3920160f29ff6cd3eff5597d35c8245" />
<rom name="Ketsui - Kizuna Jigoku-tachi Extra Original Soundtrack [STEREO Ver] (Japan) (Track 07).bin" size="40325040" crc="03cf7e4a" md5="04ab06bb2d65ffbb6db51c57d5f563cd" sha1="06cc8d371076c82f40f9a6bf8b8d359f728f3d6d" />
<rom name="Ketsui - Kizuna Jigoku-tachi Extra Original Soundtrack [STEREO Ver] (Japan) (Track 08).bin" size="48211296" crc="2ba571d1" md5="84850800ef71ae693c0a5db19656e452" sha1="5dd988e0e1f2359e4e99202b76de819058f9fbab" />
<rom name="Ketsui - Kizuna Jigoku-tachi Extra Original Soundtrack [STEREO Ver] (Japan) (Track 09).bin" size="25342800" crc="aa40beb7" md5="28ab099dc31ffa66e4f748ded4828179" sha1="b8445d3ca53eac79c43417efdd80ea5e6947bb50" />
<rom name="Ketsui - Kizuna Jigoku-tachi Extra Original Soundtrack [STEREO Ver] (Japan) (Track 10).bin" size="40336800" crc="269b235e" md5="86a76d1e8661181825e0e0ec63a44352" sha1="62b330668ba2f9a8de203d76bc4e3e388c0fa1fc" />
<rom name="Ketsui - Kizuna Jigoku-tachi Extra Original Soundtrack [STEREO Ver] (Japan) (Track 11).bin" size="27271440" crc="e5a24faf" md5="4bb751068fbbb48849fa8e802705566e" sha1="a484e9e4f07cb4fdd677fcd53a264109e9463ff9" />
<rom name="Ketsui - Kizuna Jigoku-tachi Extra Original Soundtrack [STEREO Ver] (Japan) (Track 12).bin" size="1220688" crc="54c826fb" md5="3ec4e24c19521e390ada8ecde72789b5" sha1="9a476f0fcd7f6c7f14f1b27c885021557e9b5cc9" />
<rom name="Ketsui - Kizuna Jigoku-tachi Extra Original Soundtrack [STEREO Ver] (Japan) (Track 13).bin" size="15810144" crc="cce5ea6a" md5="a1d4a0833032dfec79584d8cedb8a06f" sha1="513dbd66f408a605b5b84594e779eb5057098fc2" />

    Cuesheet:

TITLE "KETSUI_OST"
PERFORMER "?"
SONGWRITER "?"
FILE "Ketsui - Kizuna Jigoku-tachi Extra Original Soundtrack [STEREO Ver] (Japan) (Track 01).bin" BINARY
  TRACK 01 AUDIO
    TITLE "01_kkj_stereo_psel"
    PERFORMER "?"
    SONGWRITER "?"
    INDEX 01 00:00:00
FILE "Ketsui - Kizuna Jigoku-tachi Extra Original Soundtrack [STEREO Ver] (Japan) (Track 02).bin" BINARY
  TRACK 02 AUDIO
    TITLE "02_kkj_stereo_stg1"
    PERFORMER "?"
    SONGWRITER "?"
    INDEX 00 00:00:00
    INDEX 01 00:02:50
FILE "Ketsui - Kizuna Jigoku-tachi Extra Original Soundtrack [STEREO Ver] (Japan) (Track 03).bin" BINARY
  TRACK 03 AUDIO
    TITLE "03_kkj_stereo_boss"
    PERFORMER "?"
    SONGWRITER "?"
    INDEX 00 00:00:00
    INDEX 01 00:02:25
FILE "Ketsui - Kizuna Jigoku-tachi Extra Original Soundtrack [STEREO Ver] (Japan) (Track 04).bin" BINARY
  TRACK 04 AUDIO
    TITLE "04_kkj_stereo_sclr"
    PERFORMER "?"
    SONGWRITER "?"
    INDEX 00 00:00:00
    INDEX 01 00:01:74
FILE "Ketsui - Kizuna Jigoku-tachi Extra Original Soundtrack [STEREO Ver] (Japan) (Track 05).bin" BINARY
  TRACK 05 AUDIO
    TITLE "05_kkj_stereo_stg2"
    PERFORMER "?"
    SONGWRITER "?"
    INDEX 00 00:00:00
    INDEX 01 00:02:32
FILE "Ketsui - Kizuna Jigoku-tachi Extra Original Soundtrack [STEREO Ver] (Japan) (Track 06).bin" BINARY
  TRACK 06 AUDIO
    TITLE "06_kkj_stereo_stg3"
    PERFORMER "?"
    SONGWRITER "?"
    INDEX 00 00:00:00
    INDEX 01 00:01:74
FILE "Ketsui - Kizuna Jigoku-tachi Extra Original Soundtrack [STEREO Ver] (Japan) (Track 07).bin" BINARY
  TRACK 07 AUDIO
    TITLE "07_kkj_stereo_stg4"
    PERFORMER "?"
    SONGWRITER "?"
    INDEX 00 00:00:00
    INDEX 01 00:01:74
FILE "Ketsui - Kizuna Jigoku-tachi Extra Original Soundtrack [STEREO Ver] (Japan) (Track 08).bin" BINARY
  TRACK 08 AUDIO
    TITLE "08_kkj_stereo_stg5"
    PERFORMER "?"
    SONGWRITER "?"
    INDEX 00 00:00:00
    INDEX 01 00:01:74
FILE "Ketsui - Kizuna Jigoku-tachi Extra Original Soundtrack [STEREO Ver] (Japan) (Track 09).bin" BINARY
  TRACK 09 AUDIO
    TITLE "09_kkj_stereo_lbs1"
    PERFORMER "?"
    SONGWRITER "?"
    INDEX 00 00:00:00
    INDEX 01 00:01:74
FILE "Ketsui - Kizuna Jigoku-tachi Extra Original Soundtrack [STEREO Ver] (Japan) (Track 10).bin" BINARY
  TRACK 10 AUDIO
    TITLE "10_kkj_stereo_lbs2"
    PERFORMER "?"
    SONGWRITER "?"
    INDEX 00 00:00:00
    INDEX 01 00:01:74
FILE "Ketsui - Kizuna Jigoku-tachi Extra Original Soundtrack [STEREO Ver] (Japan) (Track 11).bin" BINARY
  TRACK 11 AUDIO
    TITLE "11_kkj_stereo_endg"
    PERFORMER "?"
    SONGWRITER "?"
    INDEX 00 00:00:00
    INDEX 01 00:01:74
FILE "Ketsui - Kizuna Jigoku-tachi Extra Original Soundtrack [STEREO Ver] (Japan) (Track 12).bin" BINARY
  TRACK 12 AUDIO
    TITLE "12_kkj_stereo_govr"
    PERFORMER "?"
    SONGWRITER "?"
    INDEX 00 00:00:00
    INDEX 01 00:01:74
FILE "Ketsui - Kizuna Jigoku-tachi Extra Original Soundtrack [STEREO Ver] (Japan) (Track 13).bin" BINARY
  TRACK 13 AUDIO
    TITLE "13_kkj_stereo_name"
    PERFORMER "?"
    SONGWRITER "?"
    INDEX 00 00:00:00
    INDEX 01 00:02:48

    Write Offset: 0

https://cdn.discordapp.com/attachments/ … n_logs.zip

Trying to add this cue file gave me an error: "Error parsing cuesheet in row 3."
I had to remove the second and third row of the cue file to be accepted by the system.

PERFORMER "?"
SONGWRITER "?"

It needs to be fixed so i'll stick the topic for now.

Plextor: PX-W4012TU, PX-W5224TA, Premium, PX-716SA, PX-716A || LG GDR-8164B
HP (Toshiba/Samsung): TS-H353A - Kreon FW || Lite-On SOHD-167D
HP (Hitachi/LG): BH40N - crossflashed with LG BH16NS40 FW || Sony Optiarc AD-7280S