http://redump.org/disc/16967/

Common Disc Info:
    Title: D no Shokutaku
    Foreign Title (Non-latin): Dの食卓
    Disc Number / Letter: 1
    Disc Title: (OPTIONAL)
    System: Sega Saturn
    Media Type: CD-ROM
    Category: Games
    Region: Japan
    Languages: Japanese
    Disc Serial: T-8101G

    Ringcode Information:
        Data Side Mastering Code (laser branded/etched): T-8101GP-00407-P1K V
        Data Side Mastering SID Code: IFPI L237
        Data Side Toolstamp or Mastering Code (engraved/stamped): 12
        Data Side Mould SID Code:
        Data Side Additional Mould: (REQUIRED, IF EXISTS)
        Label Side Mould SID Code: (REQUIRED, IF EXISTS)
        Label Side Additional Mould:
    Barcode:
    Error Count: 0
    Comments: (OPTIONAL)
    Contents: (OPTIONAL)

Version and Editions:
    Version: (REQUIRED, IF EXISTS)
    Edition/Release: Original

Extras:
    Primary Volume Descriptor (PVD):

0320 : 20 20 20 20 20 20 20 20  20 20 20 20 20 31 39 39                199
0330 : 35 30 37 30 36 30 30 32  39 33 38 30 30 14 31 39   5070600293800.19
0340 : 39 35 30 37 30 36 30 30  32 39 33 38 30 30 14 30   95070600293800.0
0350 : 30 30 30 30 30 30 30 30  30 30 30 30 30 30 30 00   000000000000000.
0360 : 30 30 30 30 30 30 30 30  30 30 30 30 30 30 30 30   0000000000000000
0370 : 00 01 00 00 00 00 00 00  00 00 00 00 00 00 00 00   ................

    Header:

Tracks and Write Offsets:
    DAT:

<rom name="D (Track 1).bin" size="563064096" crc="dd6522fa" md5="8ebabf2b1cd866eec3b9538b5b748df5" sha1="ac553a14fb16ab6ad173f946c9b92752c751b56e" />
<rom name="D (Track 2).bin" size="1764000" crc="82437320" md5="e03343a8c9f1853d8af2f154b67e2dac" sha1="8fd42dae3a71212cb64eb8eb2c7c4c8b037ebfbe" />

    Cuesheet:

CATALOG 0000000000000
FILE "D (Track 1).bin" BINARY
  TRACK 01 MODE1/2352
    INDEX 01 00:00:00
FILE "D (Track 2).bin" BINARY
  TRACK 02 AUDIO
    INDEX 00 00:00:00
    INDEX 01 00:02:00

    Write Offset: 390

Logs here:

https://1drv.ms/u/s!AjKL64V7BuN9mxqAusCaqCUhYxmM

http://redump.org/disc/16968/

Common Disc Info:
    Title: D no Shokutaku
    Foreign Title (Non-latin): Dの食卓
    Disc Number / Letter: 2
    Disc Title: (OPTIONAL)
    System: Sega Saturn
    Media Type: CD-ROM
    Category: Games
    Region: Japan
    Languages: Japanese
    Disc Serial: T-8101G

    Ringcode Information:
        Data Side Mastering Code (laser branded/etched): T-8101GP-00408-P2K V
        Data Side Mastering SID Code: IFPI L237
        Data Side Toolstamp or Mastering Code (engraved/stamped): 13
        Data Side Mould SID Code: IFPI 4011
        Data Side Additional Mould: (REQUIRED, IF EXISTS)
        Label Side Mould SID Code: (REQUIRED, IF EXISTS)
        Label Side Additional Mould:
    Barcode: (OPTIONAL)
    Error Count: 0
    Comments: (OPTIONAL)
    Contents: (OPTIONAL)

Version and Editions:
    Version: (REQUIRED, IF EXISTS)
    Edition/Release: Original

Extras:
    Primary Volume Descriptor (PVD):

0320 : 20 20 20 20 20 20 20 20  20 20 20 20 20 31 39 39                199
0330 : 35 30 37 30 36 30 31 30  34 34 31 30 30 14 31 39   5070601044100.19
0340 : 39 35 30 37 30 36 30 31  30 34 34 31 30 30 14 30   95070601044100.0
0350 : 30 30 30 30 30 30 30 30  30 30 30 30 30 30 30 00   000000000000000.
0360 : 30 30 30 30 30 30 30 30  30 30 30 30 30 30 30 30   0000000000000000
0370 : 00 01 00 00 00 00 00 00  00 00 00 00 00 00 00 00   ................

    Header:

Tracks and Write Offsets:
    DAT:

<rom name="D (Track 1).bin" size="534200352" crc="27f308e0" md5="cb8a7087dbb9b765f4772d6b02ee9994" sha1="79e928d28038a56785757187a2161e4f48ba270e" />
<rom name="D (Track 2).bin" size="1764000" crc="82437320" md5="e03343a8c9f1853d8af2f154b67e2dac" sha1="8fd42dae3a71212cb64eb8eb2c7c4c8b037ebfbe" />

    Cuesheet:

CATALOG 0000000000000
FILE "D (Track 1).bin" BINARY
  TRACK 01 MODE1/2352
    INDEX 01 00:00:00
FILE "D (Track 2).bin" BINARY
  TRACK 02 AUDIO
    INDEX 00 00:00:00
    INDEX 01 00:02:00

    Write Offset: 390

Logs here:

https://1drv.ms/u/s!AjKL64V7BuN9mxwSOpIN6hRrLiKO