This is a 2-CD version released on the Xplosiv label. Track 1 of Disc 2 matches the same track on the Polish covermount version currently in the database (http://redump.org/disc/47692/) but Track 2 is different, as is Disc 1.

As far as I can tell the game itself is English-language only, but manuals in French and German are included on the install disc so I have included these in the languages section.

There is a toolstamp on disc 1 but I am not confident I can read it accurately. I've included the best picture I could get in the archive in case somebody with more experience wants to give it a go.

Logs & pics (Disc 1): https://mega.nz/file/HgIUjJ5A#xc1O6xUrD … 016Y4cKKlw
Logs & pics (Disc 2): https://mega.nz/file/6l4wXTQA#7qYtDN5_C … E1D7--icL8

Disc 1 - Install Disc

Common Disc Info:
    Title: Wizards & Warriors
    Foreign Title (Non-latin): (OPTIONAL)
    Disc Number / Letter: 1
    Disc Title: Install Disc
    System: IBM PC Compatible
    Media Type: CD-ROM
    Category: Games
    Region: Europe
    Languages: English, French, German
    Disc Serial: EI-1488-1

    Ringcode Information:
        Mastering Code (laser branded/etched): EI-1488-1
        Mastering SID Code: IFPI LR61
        Data-Side Mould SID Code: (REQUIRED, IF EXISTS)
        Label-Side Mould SID Code: (REQUIRED, IF EXISTS)
        Additional Mould: (REQUIRED, IF EXISTS)
        Toolstamp or Mastering Code (engraved/stamped): (REQUIRED, IF EXISTS)
    Barcode: (OPTIONAL)
    Error Count: 0
    Comments: Additional info on mastering ring: 7/31/02; actual game appears to be English only, however German and French manuals also contained on the disc
    Contents: (OPTIONAL)

Version and Editions:
    Version: (REQUIRED, IF EXISTS)
    Edition/Release: Xplosiv

Extras:
    Primary Volume Descriptor (PVD):

0320 : 20 20 20 20 20 20 20 20  20 20 20 20 20 32 30 30                200
0330 : 32 30 37 32 34 31 35 32  36 33 36 30 30 04 32 30   2072415263600.20
0340 : 30 32 30 37 32 34 31 35  32 36 33 36 30 30 04 31   02072415263600.1
0350 : 39 37 38 30 37 32 34 31  35 32 34 30 35 30 30 04   978072415240500.
0360 : 32 30 30 32 30 37 32 34  31 35 32 34 30 35 30 30   2002072415240500
0370 : 04 01 00 00 00 00 00 00  00 00 00 00 00 00 00 00   ................

Copy Protection:
    Copy Protection:

E:\autorun.exe: Wise Installation Wizard Module
E:\autorun.exe\WISE0003: Wise Installation Wizard Module
E:\setup.exe: Wise Installation Wizard Module
E:\setup.exe\WISE0003: Wise Installation Wizard Module

Tracks and Write Offsets:
    DAT:

<rom name="WizardsWarriors1.bin" size="759013920" crc="1a35547a" md5="eb2b471435fe0f54292e692dfe1b39ec" sha1="f5ca642e66b2e03af048fd17325ddfadea8f4892" />

    Cuesheet:

FILE "WizardsWarriors1.bin" BINARY
  TRACK 01 MODE2/2352
    INDEX 01 00:00:00

    Write Offset: -12

Disc 2 - Key Disc

Common Disc Info:
    Title: Wizards & Warriors
    Foreign Title (Non-latin): (OPTIONAL)
    Disc Number / Letter: 2
    Disc Title: Key Disc
    System: IBM PC Compatible
    Media Type: CD-ROM
    Category: Games
    Region: Europe
    Languages: English, French, German
    Disc Serial: EI-1488-2

    Ringcode Information:
        Mastering Code (laser branded/etched): EI-1488-2
        Mastering SID Code: IFPI LR61
        Data-Side Mould SID Code: (REQUIRED, IF EXISTS)
        Label-Side Mould SID Code: (REQUIRED, IF EXISTS)
        Additional Mould: (REQUIRED, IF EXISTS)
        Toolstamp or Mastering Code (engraved/stamped): (REQUIRED, IF EXISTS)
    Barcode: 5 017783 556421
    Error Count: 0
    Comments: Additional info on mastering ring: 7/31/02; actual game appears to be English only, however German and French manuals also contained on the disc
    Contents: (OPTIONAL)

Version and Editions:
    Version: (REQUIRED, IF EXISTS)
    Edition/Release: Xplosiv

Extras:
    Primary Volume Descriptor (PVD):

0320 : 20 20 20 20 20 20 20 20  20 20 20 20 20 32 30 30                200
0330 : 30 30 39 30 38 32 31 33  38 35 36 30 30 00 32 30   0090821385600.20
0340 : 30 30 30 39 30 38 32 31  33 38 35 36 30 30 00 30   00090821385600.0
0350 : 30 30 30 30 30 30 30 30  30 30 30 30 30 30 30 00   000000000000000.
0360 : 30 30 30 30 30 30 30 30  30 30 30 30 30 30 30 30   0000000000000000
0370 : 00 01 00 00 00 00 00 00  00 00 00 00 00 00 00 00   ................

Copy Protection:
    Copy Protection:

E:\autorun.exe: Wise Installation Wizard Module
E:\autorun.exe\WISE0003: Wise Installation Wizard Module

Tracks and Write Offsets:
    DAT:

<rom name="WWKEY0C (Track 1).bin" size="712058592" crc="eeb3a7ad" md5="d4eddabeee7fe1c8952ffd33aeaaa777" sha1="80f0a870403f2cf050a42aa292ce9ac8f9abd32a" />
<rom name="WWKEY0C (Track 2).bin" size="86708832" crc="eeb8b14e" md5="bf59a35b5a6b1fa56880776119aaab2b" sha1="80bfd2e602da91b326a8f6686d88cae3cc761c3d" />

    Cuesheet:

FILE "WWKEY0C (Track 1).bin" BINARY
  TRACK 01 MODE1/2352
    INDEX 01 00:00:00
FILE "WWKEY0C (Track 2).bin" BINARY
  TRACK 02 AUDIO
    INDEX 00 00:00:00
    INDEX 01 00:02:00

    Write Offset: -12