This my first NEW redump submission.
Please provide feedback where applicable.

It is supposedly a missing CD-i from the MIA list.

Unfortunately the current DIC (DICUI_1.17.1-net48) throws a small bug at this CD-i Ready disk and finishes but does not show the pop-up for the submissioninfo form. I have filled out the form manually instead with whatever information I could gather myself, e.g. except for the PVD.

All files of the redump excl. .bins .img etc.
Scans of the disc

Below submissioninfo form was manually filled out:

Common Disc Info:
    Title: Free Gold Club Disk
    Foreign Title (Non-latin): 
    Disc Number / Letter: 
    Disc Title: 
    System: Philips CD-i Digital Video
    Media Type: CD-ROM
    Category: Multimedia
    Matching IDs: 
    Region: Netherlands
    Languages: Dutch
    Disc Serial: 

    Ringcode Information:
        Mastering Code (laser branded/etched): EOD FRS CDI 1094  02
        Mastering SID Code: IFPI L202
        Data-Side Mould SID Code: 
        Label-Side Mould SID Code: 
        Additional Mould: 
        Toolstamp or Mastering Code (engraved/stamped): 
    Barcode: 
    Error Count: 0
    Comments: 
    Contents: Deze CD-i wordt u aangeboden door de Free Record Shop

Version and Editions:
    Version: 1994
    Edition/Release: Original

Extras:
    Primary Volume Descriptor (PVD):

Tracks and Write Offsets:
    DAT:

<rom name="FreeGoldClubCD-i.img" size="395488800" crc="00bce5bd" md5="d79794d76beed5ea2dcbfb6f535d7012" sha1="06bd20ff06c572464b73534b5b4194f28ef5f3c6"/>

    Cuesheet:

FILE "FreeGoldClubCD-i (Track 1).bin" BINARY
  TRACK 01 AUDIO
    INDEX 00 00:00:00
    INDEX 01 08:37:00
FILE "FreeGoldClubCD-i (Track 2).bin" BINARY
  TRACK 02 AUDIO
    INDEX 00 00:00:00
    INDEX 01 00:02:00
FILE "FreeGoldClubCD-i (Track 3).bin" BINARY
  TRACK 03 AUDIO
    INDEX 00 00:00:00
    INDEX 01 00:02:00
FILE "FreeGoldClubCD-i (Track 4).bin" BINARY
  TRACK 04 AUDIO
    INDEX 00 00:00:00
    INDEX 01 00:02:00
FILE "FreeGoldClubCD-i (Track 5).bin" BINARY
  TRACK 05 AUDIO
    INDEX 00 00:00:00
    INDEX 01 00:02:00
FILE "FreeGoldClubCD-i (Track 6).bin" BINARY
  TRACK 06 AUDIO
    INDEX 00 00:00:00
    INDEX 01 00:02:00
FILE "FreeGoldClubCD-i (Track 7).bin" BINARY
  TRACK 07 AUDIO
    INDEX 00 00:00:00
    INDEX 01 00:02:00
FILE "FreeGoldClubCD-i (Track 8).bin" BINARY
  TRACK 08 AUDIO
    INDEX 00 00:00:00
    INDEX 01 00:02:00
FILE "FreeGoldClubCD-i (Track 9).bin" BINARY
  TRACK 09 AUDIO
    INDEX 00 00:00:00
    INDEX 01 00:02:00


    Write Offset: -22
Dump HW: Plextor PX-755A ATA (+30), Plextor PX-W4012A USB (+98)
Burn HW: HL-DT-ST BD-RE BP40NS20 USB (+0), HL-DT-ST BD-RE BP GGW-H20L SATA (+0)
All Win 10

Hello,
can you redump this disc with a newer version of DIC?

Salviamo la cultura videoludica italiana.

3 (edited by rosewood 2021-01-14 22:08:36)

Same here, I'm also trying to dump the Free Gold Club Disc (aka The Vision Factory Bundle Disc 1.04).
Both MPF and DICUI don't reach the submission popup because they try to dump all tracks as audio tracks (and combine the data "Track 00" with audio "Track 01").
The last log entries are:

Gathering submission information... please wait!
The following files were missing: ISO\gold\gold.img_EdcEcc.txt;ISO\gold\gold.scm

For comparison, here are the cuesheets that DICUI/MPF and IsoBuster generate. Attached is the directory tree of Track 00.

FILE "gold (Track 1).bin" BINARY
  TRACK 01 AUDIO
    INDEX 00 00:00:00
    INDEX 01 08:37:00
FILE "gold (Track 2).bin" BINARY
  TRACK 02 AUDIO
    INDEX 00 00:00:00
    INDEX 01 00:02:00
FILE "gold (Track 3).bin" BINARY
  TRACK 03 AUDIO
    INDEX 00 00:00:00
    INDEX 01 00:02:00
FILE "gold (Track 4).bin" BINARY
  TRACK 04 AUDIO
    INDEX 00 00:00:00
    INDEX 01 00:02:00
FILE "gold (Track 5).bin" BINARY
  TRACK 05 AUDIO
    INDEX 00 00:00:00
    INDEX 01 00:02:00
FILE "gold (Track 6).bin" BINARY
  TRACK 06 AUDIO
    INDEX 00 00:00:00
    INDEX 01 00:02:00
FILE "gold (Track 7).bin" BINARY
  TRACK 07 AUDIO
    INDEX 00 00:00:00
    INDEX 01 00:02:00
FILE "gold (Track 8).bin" BINARY
  TRACK 08 AUDIO
    INDEX 00 00:00:00
    INDEX 01 00:02:00
FILE "gold (Track 9).bin" BINARY
  TRACK 09 AUDIO
    INDEX 00 00:00:00
    INDEX 01 00:02:00
FILE "tvf.iso" BINARY

REM ORIGINAL MEDIA-TYPE: CD

  REM SESSION 01        ; Not supported by other applications (*)
    TRACK 00 MODE2/2352
      INDEX 01 00:00:00
      REM MSF: 00:00:00 = LBA: 0
    TRACK 01 AUDIO
      INDEX 01 08:37:00
      REM MSF: 08:37:00 = LBA: 38775
    TRACK 02 AUDIO
      INDEX 01 12:34:00
      REM MSF: 12:34:00 = LBA: 56550
    TRACK 03 AUDIO
      INDEX 01 16:07:00
      REM MSF: 16:07:00 = LBA: 72525
    TRACK 04 AUDIO
      INDEX 01 16:31:00
      REM MSF: 16:31:00 = LBA: 74325
    TRACK 05 AUDIO
      INDEX 01 20:42:00
      REM MSF: 20:42:00 = LBA: 93150
    TRACK 06 AUDIO
      INDEX 01 24:17:00
      REM MSF: 24:17:00 = LBA: 109275
    TRACK 07 AUDIO
      INDEX 01 25:49:00
      REM MSF: 25:49:00 = LBA: 116175
    TRACK 08 AUDIO
      INDEX 01 31:21:00
      REM MSF: 31:21:00 = LBA: 141075
    TRACK 09 AUDIO
      INDEX 01 34:26:00
      REM MSF: 34:26:00 = LBA: 154950

REM (*) SESSION directives are unfortunately not properly supported
REM     'out there'.  IsoBuster however supports them !

REM Generated by IsoBuster 3.9.0.00 (http://www.isobuster.com)

Logs (dumped twice - 1 MPF 2 DICUI): gold.7z

Post's attachments

tvf.PNG 54.45 kb, file has never been downloaded. 

You don't have the permssions to download the attachments of this post.

I don't know if it could be a bug in DIC or DICUI/MPF, try to ask sarami here in General discussion > DiscImageCreator.

Salviamo la cultura videoludica italiana.