Hi,

Here's my redump info for PS1 game Rayman. This is the European and EDC version.
http://dl.free.fr/getfile.pl?file=/1FOy9iF8

Common Disc Info:
    Title: Rayman
    Foreign Title (Non-latin): (OPTIONAL)
    Disc Number / Letter: (OPTIONAL)
    Disc Title: (OPTIONAL)
    System: Sony PlayStation
    Media Type: CD-ROM
    Category: Games
    Region: Europe
    Languages: English, French, German
    Disc Serial: SLES-00049

    Ringcode Information:
        Mastering Code (laser branded/etched): (REQUIRED, IF EXISTS)
        Mastering SID Code: (REQUIRED, IF EXISTS)
        Data-Side Mould SID Code: IFPI 942R
        Label-Side Mould SID Code: (REQUIRED, IF EXISTS)
        Additional Mould: (REQUIRED, IF EXISTS)
        Toolstamp or Mastering Code (engraved/stamped): (REQUIRED, IF EXISTS)
    Barcode: 3 307212 805230
    EXE/Build Date: 1995-07-13
    Error Count: 0
    Comments: Internal Disc Serial: SLES-00049
    Contents: (OPTIONAL)

Version and Editions:
    Version: (REQUIRED, IF EXISTS)
    Edition/Release: Original

EDC:
    EDC: Yes

Extras:
    Primary Volume Descriptor (PVD):

0320 : 20 20 20 20 20 20 20 20  20 20 20 20 20 31 39 39                199
0330 : 35 30 37 31 39 31 35 35  37 31 33 30 30 24 30 30   5071915571300$00
0340 : 30 30 30 30 30 30 30 30  30 30 30 30 30 30 00 30   00000000000000.0
0350 : 30 30 30 30 30 30 30 30  30 30 30 30 30 30 30 00   000000000000000.
0360 : 30 30 30 30 30 30 30 30  30 30 30 30 30 30 30 30   0000000000000000
0370 : 00 01 00 00 00 00 00 00  00 00 00 00 00 00 00 00   ................

Copy Protection:
    Anti-modchip: No
    LibCrypt: No

Tracks and Write Offsets:
    DAT:

<rom name="RAYEU145F (Track 01).bin" size="182715120" crc="19dcdf6e" md5="245ebb2d739683d0b70118be0d991169" sha1="abe056bf7d31f9cb4de735b4b75fbc087c8e06cb" />
<rom name="RAYEU145F (Track 02).bin" size="1999200" crc="3fd4b6a2" md5="d6b34670be2175dfceee301f2a09fc33" sha1="01de2217ff02ac29dee54faa72e4b15ade7105ab" />
<rom name="RAYEU145F (Track 03).bin" size="12249216" crc="aa222a1a" md5="cf919f0602fa399a5f5e2e30ea3f3f9b" sha1="b4979548652b5f6d7138c2be4f5225dbb9262bfa" />
<rom name="RAYEU145F (Track 04).bin" size="11884656" crc="bc9d3119" md5="1e9403f41265cd15fe28fb348ea3f42a" sha1="dd01049ec9b83858a963446bd02218eec6624560" />
<rom name="RAYEU145F (Track 05).bin" size="11522448" crc="385c1b0d" md5="0f677055f63932ce1356ac6ccddc7ffd" sha1="244848521d4bb17a078a7e18488f02bb7d07cf5c" />
<rom name="RAYEU145F (Track 06).bin" size="4990944" crc="840a9330" md5="7b410d87482fd4e73bb88068ffb5d4e6" sha1="1ee259a146df0b43a738ea721df4113aae503b8c" />
<rom name="RAYEU145F (Track 07).bin" size="12656112" crc="e417a48b" md5="3dccc4a9a97fe0614964bcac2f3a650c" sha1="f54a9c4c708c92fd37789b9fd9c261ba3bba82e9" />
<rom name="RAYEU145F (Track 08).bin" size="10833312" crc="48a31c24" md5="cfda9cb170695f184d6f1c79232fd86f" sha1="45f85b700490cd7eb7cd642ad37805e793b5fe37" />
<rom name="RAYEU145F (Track 09).bin" size="9996000" crc="d53618a9" md5="b43161f758a6f13e58b0ed1e77c05e74" sha1="18d8d767b8b4af3773186d60946940638a986825" />
<rom name="RAYEU145F (Track 10).bin" size="11458944" crc="0a7034da" md5="a1e04c9d73a40a36cc6785d5a0d9283b" sha1="f4eb3a33e9d089f5a6e9dfbeb31a9fcc398fca39" />
<rom name="RAYEU145F (Track 11).bin" size="15330336" crc="be8bc5b5" md5="21d65f65169a2e74ca243c328b15d924" sha1="d628adc9b34b852d75e9f2e645254c18cb8c6cb1" />
<rom name="RAYEU145F (Track 12).bin" size="10990896" crc="cea37bc7" md5="6c64cddbcb25da523bd47d9cd1948f61" sha1="8415b8422f2bad3d7cb40882e26d8c7f51dad9c1" />
<rom name="RAYEU145F (Track 13).bin" size="12225696" crc="7378a080" md5="ce8c21eaccdb2b2cafb995bf9334fe16" sha1="0fdf0ae226d9782a9314383e61d15a6a7e0f682a" />
<rom name="RAYEU145F (Track 14).bin" size="11367216" crc="4e6d9c13" md5="d0e327872b24efa23a87484448f5f7c4" sha1="db21ae6543b09ba378543c59bc95427a4f7a3fe9" />
<rom name="RAYEU145F (Track 15).bin" size="11602416" crc="f0d66a52" md5="32d662749f13f812176ca7582670ab47" sha1="75b211bbc28a7546975f4d9d92327853af68921a" />
<rom name="RAYEU145F (Track 16).bin" size="12077520" crc="0131483a" md5="b5c10302d470c86b6b91570eaaa43367" sha1="1ef045048f17a18d4e0f06a22f6e5b1a5baf3644" />
<rom name="RAYEU145F (Track 17).bin" size="8316672" crc="0761352c" md5="7a96f752819b724734c9ca7dbb2e5d24" sha1="2d48cf812c32b6d40f061f148b98f36e9f21e06a" />
<rom name="RAYEU145F (Track 18).bin" size="10202976" crc="fdd2847e" md5="6f57b55218387ff53e6987c1ae28c77e" sha1="68a846fdb6c7ca734cce665fca0460bafd6c461e" />
<rom name="RAYEU145F (Track 19).bin" size="10033632" crc="43c95cb9" md5="91729e1f5526fc6baca2d0d1d6bb49e9" sha1="3fdf026b8307a9cf56cce03a41da001cce2ab8a8" />
<rom name="RAYEU145F (Track 20).bin" size="11621232" crc="3defa619" md5="4ac42f087abf8a638a8262ee49936086" sha1="894ab52889ed284d94a1215fa7bc34cb7bff8fb5" />
<rom name="RAYEU145F (Track 21).bin" size="11614176" crc="63f8315a" md5="7151bd35307dd2ecb528f8c96074e9c3" sha1="4a771dd83334bf1239c549dc058b97dd31494505" />
<rom name="RAYEU145F (Track 22).bin" size="13587504" crc="1b0b9537" md5="c3720c3ba0171dae193ff9f83e63bdd3" sha1="d101f02959c1ae4cab4ee05688275e5da8182684" />
<rom name="RAYEU145F (Track 23).bin" size="6388032" crc="eca41093" md5="5f3f832b5ca8df1015e94f8857c0472c" sha1="e5b1b2c6f4a64acb9ebc7f3de458712d502ee234" />
<rom name="RAYEU145F (Track 24).bin" size="6420960" crc="bcafd8f4" md5="b5084ca660aef63e4e6b5d6f1e24c4db" sha1="eeaaa870aa4c5c3e6f9daf864205945c5dd4c47e" />
<rom name="RAYEU145F (Track 25).bin" size="11919936" crc="4badc7fd" md5="8cba6dd7f268362b6e00c8176ddc1e71" sha1="4beb706bdffa281aa02da997890866b7ea356aac" />
<rom name="RAYEU145F (Track 26).bin" size="11955216" crc="2f7e6a44" md5="dbf225d7ab3c8c53ea6d93f4282175ca" sha1="bca9b8a1b18ed18003caa96f6b111796665eb4ee" />
<rom name="RAYEU145F (Track 27).bin" size="11783520" crc="3b2414a9" md5="8fb53827e74996cc00de813032948175" sha1="ca7bc65227bb481130d53500d8008e82103f7946" />
<rom name="RAYEU145F (Track 28).bin" size="12531456" crc="c7d1e63f" md5="c08f0164d434d891efa92c6bc1ca8dab" sha1="a65d7ed8d20c1e4dc0a22fe07e8163686d39a1b5" />
<rom name="RAYEU145F (Track 29).bin" size="1495872" crc="7eb1196d" md5="9070f56fa8840758798a53865d16a191" sha1="0c4243cb06c5782ee13f7d5e83f050b03fb1a730" />
<rom name="RAYEU145F (Track 30).bin" size="1281840" crc="46ca7ab7" md5="955fd507fbc8d0f08fda008d057fdd27" sha1="2e1be42a17358e8d2b5c1e49b5ec55e6db6d93f0" />
<rom name="RAYEU145F (Track 31).bin" size="14601216" crc="6cdd1207" md5="90af4e3cc3d5bedf0463de546577bbd7" sha1="89abe0fbc93ebbe00fa64cc073a7630852f329fd" />
<rom name="RAYEU145F (Track 32).bin" size="11814096" crc="5a299db3" md5="071c778c2e61f8f2a647bd3546fc5c56" sha1="1129d49857a2fa7e9d93b300d3c6ddaeba5357e5" />
<rom name="RAYEU145F (Track 33).bin" size="10574592" crc="88264ea4" md5="9b1a4f9b4c597803137206fa5e556332" sha1="029bc13323954a7f36699e83c96b823fa8c15ca6" />
<rom name="RAYEU145F (Track 34).bin" size="12592608" crc="6592e05d" md5="4d2398aa99bcf97ee5cf818b36a56046" sha1="2d8d677c1dac9a55404cf2e71460ae4d30d3d89b" />
<rom name="RAYEU145F (Track 35).bin" size="12333888" crc="f9663630" md5="30e5351b81a83d8b1dc5543ae95a6b4d" sha1="6d9b761171d6defd95a698158c7d68df07efc5d4" />
<rom name="RAYEU145F (Track 36).bin" size="11409552" crc="e4e88d99" md5="70538447dcd32dcb1eca61bd1fd7bf51" sha1="947ffc5cf0cae54bc752381a07424ba6b418d572" />
<rom name="RAYEU145F (Track 37).bin" size="12098688" crc="53388a10" md5="728446dcbe98d88f03290c29f1fda0bd" sha1="658beda4be6f77b12ac041ad42bc77e97d91eb43" />
<rom name="RAYEU145F (Track 38).bin" size="11618880" crc="a12a856e" md5="272e24a8a3e69fe77ef4ba2c2804a74c" sha1="39a71b2c0a9e047384fb6daac9feba43d7b0b48c" />
<rom name="RAYEU145F (Track 39).bin" size="10440528" crc="efd8f62d" md5="645499d01fc3efc02a9761621091a5a5" sha1="efab1d8b0af756e2f15e5028e6569e77f77e6113" />
<rom name="RAYEU145F (Track 40).bin" size="8293152" crc="63c1bcee" md5="dcebbd891e218ed8db2662fe3d9dc58c" sha1="c368d95cfd6a19b1a2aa26a66a2277fef0ea9d0c" />
<rom name="RAYEU145F (Track 41).bin" size="12851328" crc="940cc5bc" md5="0233ac499151349cce2bc166328113e9" sha1="15e572ed6a1f5568a4f52099b7e6a0ef54412609" />
<rom name="RAYEU145F (Track 42).bin" size="11129664" crc="ada768bc" md5="fe24624cd5a6fc98f82bdad23f750e17" sha1="eac6aec45bf4f12fc24b757a63fbba58710748c2" />
<rom name="RAYEU145F (Track 43).bin" size="11705904" crc="9733600e" md5="201295f5ae602938ad4c6027e02b7e8d" sha1="620fe18a14313fa540e7a9b6c61fb7f262a70dec" />
<rom name="RAYEU145F (Track 44).bin" size="12141024" crc="0e3bb0d8" md5="e26cde377103de51c516338a0a0a9124" sha1="4197ff71443fbd13c1c843b2e56a2afe925055b5" />
<rom name="RAYEU145F (Track 45).bin" size="11741184" crc="dd7b484c" md5="f7e0f720ae5a44641267db67d6bf718f" sha1="1e8959b00918a4bd5cc3a9934e86ed175439efb0" />
<rom name="RAYEU145F (Track 46).bin" size="10299408" crc="0620d301" md5="3d0786d5cab823b24b476d8a344b53a8" sha1="59a635a1028f6b9cf724da2c8f96d6f11978a41c" />
<rom name="RAYEU145F (Track 47).bin" size="11284896" crc="f7a3bb0e" md5="97852180bfccc5843928a41129a46294" sha1="4ec84951b6af3e3e3c5cb49b289ada3691211ae6" />
<rom name="RAYEU145F (Track 48).bin" size="10950912" crc="66253e4b" md5="986a16fc37cec4736c7ff49a5dd30f97" sha1="b9202d12f074949336fedc13f97d4de11a4395f9" />
<rom name="RAYEU145F (Track 49).bin" size="7074816" crc="73f40061" md5="aba22042b3446e41f15276784c3bef76" sha1="25c175386d779f399bdb2f0d086d9ab96cff9432" />
<rom name="RAYEU145F (Track 50).bin" size="7646352" crc="2984e56d" md5="ca5eb7a089e179c13bdd6ea6b2690e78" sha1="5a263129079727ebbf1b0ba6584d3163c47218e6" />
<rom name="RAYEU145F (Track 51).bin" size="6225744" crc="abf21e16" md5="7c37807eb59da6d6edf502651eb7d019" sha1="3a9eec42a7ef35d56827d65c2067fdca558e7dba" />

    Cuesheet:

FILE "RAYEU145F (Track 01).bin" BINARY
  TRACK 01 MODE2/2352
    INDEX 01 00:00:00
FILE "RAYEU145F (Track 02).bin" BINARY
  TRACK 02 AUDIO
    INDEX 00 00:00:00
    INDEX 01 00:02:00
FILE "RAYEU145F (Track 03).bin" BINARY
  TRACK 03 AUDIO
    INDEX 00 00:00:00
    INDEX 01 00:02:00
FILE "RAYEU145F (Track 04).bin" BINARY
  TRACK 04 AUDIO
    INDEX 00 00:00:00
    INDEX 01 00:02:00
FILE "RAYEU145F (Track 05).bin" BINARY
  TRACK 05 AUDIO
    INDEX 00 00:00:00
    INDEX 01 00:02:00
FILE "RAYEU145F (Track 06).bin" BINARY
  TRACK 06 AUDIO
    INDEX 00 00:00:00
    INDEX 01 00:02:00
FILE "RAYEU145F (Track 07).bin" BINARY
  TRACK 07 AUDIO
    INDEX 00 00:00:00
    INDEX 01 00:02:00
FILE "RAYEU145F (Track 08).bin" BINARY
  TRACK 08 AUDIO
    INDEX 00 00:00:00
    INDEX 01 00:02:00
FILE "RAYEU145F (Track 09).bin" BINARY
  TRACK 09 AUDIO
    INDEX 00 00:00:00
    INDEX 01 00:02:00
FILE "RAYEU145F (Track 10).bin" BINARY
  TRACK 10 AUDIO
    INDEX 00 00:00:00
    INDEX 01 00:02:00
FILE "RAYEU145F (Track 11).bin" BINARY
  TRACK 11 AUDIO
    INDEX 00 00:00:00
    INDEX 01 00:02:00
FILE "RAYEU145F (Track 12).bin" BINARY
  TRACK 12 AUDIO
    INDEX 00 00:00:00
    INDEX 01 00:02:00
FILE "RAYEU145F (Track 13).bin" BINARY
  TRACK 13 AUDIO
    INDEX 00 00:00:00
    INDEX 01 00:02:00
FILE "RAYEU145F (Track 14).bin" BINARY
  TRACK 14 AUDIO
    INDEX 00 00:00:00
    INDEX 01 00:02:00
FILE "RAYEU145F (Track 15).bin" BINARY
  TRACK 15 AUDIO
    INDEX 00 00:00:00
    INDEX 01 00:02:00
FILE "RAYEU145F (Track 16).bin" BINARY
  TRACK 16 AUDIO
    INDEX 00 00:00:00
    INDEX 01 00:02:00
FILE "RAYEU145F (Track 17).bin" BINARY
  TRACK 17 AUDIO
    INDEX 00 00:00:00
    INDEX 01 00:02:00
FILE "RAYEU145F (Track 18).bin" BINARY
  TRACK 18 AUDIO
    INDEX 00 00:00:00
    INDEX 01 00:02:00
FILE "RAYEU145F (Track 19).bin" BINARY
  TRACK 19 AUDIO
    INDEX 00 00:00:00
    INDEX 01 00:02:00
FILE "RAYEU145F (Track 20).bin" BINARY
  TRACK 20 AUDIO
    INDEX 00 00:00:00
    INDEX 01 00:02:00
FILE "RAYEU145F (Track 21).bin" BINARY
  TRACK 21 AUDIO
    INDEX 00 00:00:00
    INDEX 01 00:02:00
FILE "RAYEU145F (Track 22).bin" BINARY
  TRACK 22 AUDIO
    INDEX 00 00:00:00
    INDEX 01 00:02:00
FILE "RAYEU145F (Track 23).bin" BINARY
  TRACK 23 AUDIO
    INDEX 00 00:00:00
    INDEX 01 00:02:00
FILE "RAYEU145F (Track 24).bin" BINARY
  TRACK 24 AUDIO
    INDEX 00 00:00:00
    INDEX 01 00:02:00
FILE "RAYEU145F (Track 25).bin" BINARY
  TRACK 25 AUDIO
    INDEX 00 00:00:00
    INDEX 01 00:02:00
FILE "RAYEU145F (Track 26).bin" BINARY
  TRACK 26 AUDIO
    INDEX 00 00:00:00
    INDEX 01 00:02:00
FILE "RAYEU145F (Track 27).bin" BINARY
  TRACK 27 AUDIO
    INDEX 00 00:00:00
    INDEX 01 00:02:00
FILE "RAYEU145F (Track 28).bin" BINARY
  TRACK 28 AUDIO
    INDEX 00 00:00:00
    INDEX 01 00:02:00
FILE "RAYEU145F (Track 29).bin" BINARY
  TRACK 29 AUDIO
    INDEX 00 00:00:00
    INDEX 01 00:02:00
FILE "RAYEU145F (Track 30).bin" BINARY
  TRACK 30 AUDIO
    INDEX 00 00:00:00
    INDEX 01 00:02:00
FILE "RAYEU145F (Track 31).bin" BINARY
  TRACK 31 AUDIO
    INDEX 00 00:00:00
    INDEX 01 00:02:00
FILE "RAYEU145F (Track 32).bin" BINARY
  TRACK 32 AUDIO
    INDEX 00 00:00:00
    INDEX 01 00:02:00
FILE "RAYEU145F (Track 33).bin" BINARY
  TRACK 33 AUDIO
    INDEX 00 00:00:00
    INDEX 01 00:02:00
FILE "RAYEU145F (Track 34).bin" BINARY
  TRACK 34 AUDIO
    INDEX 00 00:00:00
    INDEX 01 00:02:00
FILE "RAYEU145F (Track 35).bin" BINARY
  TRACK 35 AUDIO
    INDEX 00 00:00:00
    INDEX 01 00:02:00
FILE "RAYEU145F (Track 36).bin" BINARY
  TRACK 36 AUDIO
    INDEX 00 00:00:00
    INDEX 01 00:02:00
FILE "RAYEU145F (Track 37).bin" BINARY
  TRACK 37 AUDIO
    INDEX 00 00:00:00
    INDEX 01 00:02:00
FILE "RAYEU145F (Track 38).bin" BINARY
  TRACK 38 AUDIO
    INDEX 00 00:00:00
    INDEX 01 00:02:00
FILE "RAYEU145F (Track 39).bin" BINARY
  TRACK 39 AUDIO
    INDEX 00 00:00:00
    INDEX 01 00:02:00
FILE "RAYEU145F (Track 40).bin" BINARY
  TRACK 40 AUDIO
    INDEX 00 00:00:00
    INDEX 01 00:02:00
FILE "RAYEU145F (Track 41).bin" BINARY
  TRACK 41 AUDIO
    INDEX 00 00:00:00
    INDEX 01 00:02:00
FILE "RAYEU145F (Track 42).bin" BINARY
  TRACK 42 AUDIO
    INDEX 00 00:00:00
    INDEX 01 00:02:00
FILE "RAYEU145F (Track 43).bin" BINARY
  TRACK 43 AUDIO
    INDEX 00 00:00:00
    INDEX 01 00:02:00
FILE "RAYEU145F (Track 44).bin" BINARY
  TRACK 44 AUDIO
    INDEX 00 00:00:00
    INDEX 01 00:02:00
FILE "RAYEU145F (Track 45).bin" BINARY
  TRACK 45 AUDIO
    INDEX 00 00:00:00
    INDEX 01 00:02:00
FILE "RAYEU145F (Track 46).bin" BINARY
  TRACK 46 AUDIO
    INDEX 00 00:00:00
    INDEX 01 00:02:00
FILE "RAYEU145F (Track 47).bin" BINARY
  TRACK 47 AUDIO
    INDEX 00 00:00:00
    INDEX 01 00:02:00
FILE "RAYEU145F (Track 48).bin" BINARY
  TRACK 48 AUDIO
    INDEX 00 00:00:00
    INDEX 01 00:02:00
FILE "RAYEU145F (Track 49).bin" BINARY
  TRACK 49 AUDIO
    INDEX 00 00:00:00
    INDEX 01 00:02:00
FILE "RAYEU145F (Track 50).bin" BINARY
  TRACK 50 AUDIO
    INDEX 00 00:00:00
    INDEX 01 00:02:00
FILE "RAYEU145F (Track 51).bin" BINARY
  TRACK 51 AUDIO
    INDEX 00 00:00:00
    INDEX 01 00:02:00

    Write Offset: -647

CS