Common Disc Info:
    Title: Vatlva
    Foreign Title (Non-latin): バトルバ
    Disc Number / Letter: (OPTIONAL)
    Disc Title: (OPTIONAL)
    System: Sega Saturn
    Media Type: CD-ROM
    Category: Games
    Matching IDs: 26490
    Region: Japan
    Languages: Japanese
    Disc Serial: T-31501G

    Ringcode Information:
        Mastering Code (laser branded/etched): T-31501GA-P1K   V
        Mastering SID Code: IFPI L237
        Data-Side Mould SID Code: IFPI 4021
        Label-Side Mould SID Code:
        Additional Mould:
        Toolstamp or Mastering Code (engraved/stamped): 11
    Barcode: (OPTIONAL)
    EXE/Build Date: 19961111
    Error Count: 0
    Comments: (OPTIONAL)
    Contents: (OPTIONAL)

Version and Editions:
    Version: V1.003
    Edition/Release: Original

Extras:
    Primary Volume Descriptor (PVD):

0320 : 20 20 20 20 20 20 20 20  20 20 20 20 20 31 39 39                199
0330 : 36 31 31 31 31 30 31 30  31 30 31 30 31 01 31 39   6111101010101.19
0340 : 39 36 31 31 31 31 30 31  30 31 30 31 30 31 01 30   96111101010101.0
0350 : 30 30 30 30 30 30 30 30  30 30 30 30 30 30 30 00   000000000000000.
0360 : 30 30 30 30 30 30 30 30  30 30 30 30 30 30 30 30   0000000000000000
0370 : 00 01 00 00 00 00 00 00  00 00 00 00 00 00 00 00   ................

    Header:

0000 : 53 45 47 41 20 53 45 47  41 53 41 54 55 52 4E 20   SEGA SEGASATURN 
0010 : 53 45 47 41 20 54 50 20  54 2D 33 31 35 20 20 20   SEGA TP T-315   
0020 : 54 2D 33 31 35 30 31 47  20 20 56 31 2E 30 30 33   T-31501G  V1.003
0030 : 31 39 39 36 31 31 31 31  43 44 2D 31 2F 31 20 20   19961111CD-1/1  
0040 : 4A 20 20 20 20 20 20 20  20 20 20 20 20 20 20 20   J               
0050 : 4A 41 53 54 20 20 20 20  20 20 20 20 20 20 20 20   JAST            
0060 : 56 41 54 4C 56 41 20 20  20 20 20 20 20 20 20 20   VATLVA          
0070 : 20 20 20 20 20 20 20 20  20 20 20 20 20 20 20 20                   
0080 : 20 20 20 20 20 20 20 20  20 20 20 20 20 20 20 20                   
0090 : 20 20 20 20 20 20 20 20  20 20 20 20 20 20 20 20                   
00A0 : 20 20 20 20 20 20 20 20  20 20 20 20 20 20 20 20                   
00B0 : 20 20 20 20 20 20 20 20  20 20 20 20 20 20 20 20                   
00C0 : 20 20 20 20 20 20 20 20  20 20 20 20 20 20 20 20                   
00D0 : 00 00 00 00 00 00 00 00  00 00 00 00 00 00 00 00   ................
00E0 : 00 00 18 00 00 00 00 00  00 00 00 00 00 00 00 00   ................
00F0 : 06 01 00 00 00 00 00 00  00 00 00 00 00 00 00 00   ................

Tracks and Write Offsets:
    DAT:

<rom name="Vatlva (Japan) (Track 01).bin" size="12731376" crc="ef06e0f0" md5="e2be1cfecc7e4780f2dcaff07abeca76" sha1="c30b0d25b140e23281750652c92870c83d15a3e3" />
<rom name="Vatlva (Japan) (Track 02).bin" size="101472336" crc="45ce4958" md5="09883bc356a2a88da37f82e7a4b9da69" sha1="927b8ffd3ce2717590500c6fb98176e570cf1a92" />
<rom name="Vatlva (Japan) (Track 03).bin" size="33480720" crc="b7b05a34" md5="154968be3892fa29465af89a54858db6" sha1="4422d88d8d863e04ce95c607afa8218f67e0b03e" />
<rom name="Vatlva (Japan) (Track 04).bin" size="36992256" crc="aa5f5829" md5="7b754366f07efbdacdbcdbdd16d3d2b5" sha1="1619267463f53d31b2bdcec520d082016c3403ff" />
<rom name="Vatlva (Japan) (Track 05).bin" size="20457696" crc="e2514237" md5="6145032c72019638e043c75c80746bfe" sha1="5367a8185c4da932a415b28439eb470ab1ea7398" />
<rom name="Vatlva (Japan) (Track 06).bin" size="23618784" crc="53236f21" md5="3744f7380124fd2aed95cce55c470085" sha1="78ca777830979ca159a4b76cd9071e105d6596a5" />
<rom name="Vatlva (Japan) (Track 07).bin" size="23548224" crc="3448066d" md5="8f9013d8d7bdd61d644758706585583f" sha1="5352416a276bfbfc1ebd7fce29989bcccd3eb412" />
<rom name="Vatlva (Japan) (Track 08).bin" size="21095088" crc="bfd295ab" md5="1b9c0b9643be8782cd0962fb67b7f513" sha1="2788f14c59e050898e20e61a89ad0a69c4cbf456" />
<rom name="Vatlva (Japan) (Track 09).bin" size="31213392" crc="1459f5d9" md5="d0f13de47b2eeb9dc13003b7b2efba17" sha1="c358aed359e31d975ef4e8d081e22efe54b91460" />
<rom name="Vatlva (Japan) (Track 10).bin" size="29479968" crc="7b4b64f3" md5="ce643edaecdd3434eb6a2d03c2f75e00" sha1="47f2fee7ffe3237ee96240ccdecaf184725d51ac" />
<rom name="Vatlva (Japan) (Track 11).bin" size="24738336" crc="37658533" md5="c8801345b4e59fc4108352443bac2351" sha1="e1f7746b98aa9b05e1ae484e9b6f8b89ae1e2c55" />
<rom name="Vatlva (Japan) (Track 12).bin" size="20596464" crc="5744c8cf" md5="8704ed964a7e8ac1f741d55f8870dbf0" sha1="86a2138878cbed9272e9c28d76d2bf89d4abdedb" />
<rom name="Vatlva (Japan) (Track 13).bin" size="36070272" crc="96dbd200" md5="7eaea330c78bcb51ddac46f68631583b" sha1="b117be98796d6997141bb2a804f0a9263958b889" />
<rom name="Vatlva (Japan) (Track 14).bin" size="28953120" crc="c981a912" md5="cf49d5a217ea1bf01cac7894e29a1b5d" sha1="fcb117f96eb009871bc2aac25b757f5a502fbb7e" />
<rom name="Vatlva (Japan) (Track 15).bin" size="24220896" crc="45f5bd59" md5="09bee3492a4495d5c0ccfcf281abfeae" sha1="fbeab55972b2b716dad484685842d0fe72c11f7f" />
<rom name="Vatlva (Japan) (Track 16).bin" size="12230400" crc="2a9122e5" md5="38be37b9ba002754d3a8063a6f66f7f1" sha1="647dce7969f01dc899da9ffe99ba91a263ff80be" />
<rom name="Vatlva (Japan) (Track 17).bin" size="16464000" crc="9eda87fb" md5="f15dfe58c410dedc398d14782182e9ad" sha1="0edaaa52a9012f0e2f31d0f30f7f681ec1d310ec" />
<rom name="Vatlva (Japan) (Track 18).bin" size="1314768" crc="17a932c8" md5="817f442704bd9635811aa8774ea82de3" sha1="50b3b5ec2f9da4c1d38ed083454d227dc6e4fd94" />
<rom name="Vatlva (Japan) (Track 19).bin" size="1058400" crc="3798b338" md5="7f9caac5a62843c9fe4ce75fae7b2077" sha1="7e01342ec1bf4bf1bb33a115f7b00a579844b25c" />
<rom name="Vatlva (Japan) (Track 20).bin" size="1079568" crc="112e761d" md5="bc3b08abecae4cab1f5e4ffd2bd6bc4e" sha1="2f22ef53567f06c949b009665471c54902ff4e2c" />
<rom name="Vatlva (Japan) (Track 21).bin" size="3339840" crc="d93ae897" md5="bbe7d3e3dbcd7f84178911c8fb8483c4" sha1="a553b35c3aae73f6ba7e44096441d54b876d506a" />

    Cuesheet:

CATALOG 0000000000000
FILE "Vatlva (Japan) (Track 01).bin" BINARY
  TRACK 01 MODE1/2352
    INDEX 01 00:00:00
FILE "Vatlva (Japan) (Track 02).bin" BINARY
  TRACK 02 MODE2/2352
    INDEX 00 00:00:00
    INDEX 01 00:04:00
FILE "Vatlva (Japan) (Track 03).bin" BINARY
  TRACK 03 AUDIO
    INDEX 00 00:00:00
    INDEX 01 00:02:00
FILE "Vatlva (Japan) (Track 04).bin" BINARY
  TRACK 04 AUDIO
    INDEX 00 00:00:00
    INDEX 01 00:01:74
FILE "Vatlva (Japan) (Track 05).bin" BINARY
  TRACK 05 AUDIO
    INDEX 00 00:00:00
    INDEX 01 00:01:74
FILE "Vatlva (Japan) (Track 06).bin" BINARY
  TRACK 06 AUDIO
    INDEX 00 00:00:00
    INDEX 01 00:01:74
FILE "Vatlva (Japan) (Track 07).bin" BINARY
  TRACK 07 AUDIO
    INDEX 00 00:00:00
    INDEX 01 00:01:74
FILE "Vatlva (Japan) (Track 08).bin" BINARY
  TRACK 08 AUDIO
    INDEX 00 00:00:00
    INDEX 01 00:01:74
FILE "Vatlva (Japan) (Track 09).bin" BINARY
  TRACK 09 AUDIO
    INDEX 00 00:00:00
    INDEX 01 00:01:74
FILE "Vatlva (Japan) (Track 10).bin" BINARY
  TRACK 10 AUDIO
    INDEX 00 00:00:00
    INDEX 01 00:01:74
FILE "Vatlva (Japan) (Track 11).bin" BINARY
  TRACK 11 AUDIO
    INDEX 00 00:00:00
    INDEX 01 00:01:74
FILE "Vatlva (Japan) (Track 12).bin" BINARY
  TRACK 12 AUDIO
    INDEX 00 00:00:00
    INDEX 01 00:01:74
FILE "Vatlva (Japan) (Track 13).bin" BINARY
  TRACK 13 AUDIO
    INDEX 00 00:00:00
    INDEX 01 00:01:74
FILE "Vatlva (Japan) (Track 14).bin" BINARY
  TRACK 14 AUDIO
    INDEX 00 00:00:00
    INDEX 01 00:01:74
FILE "Vatlva (Japan) (Track 15).bin" BINARY
  TRACK 15 AUDIO
    INDEX 00 00:00:00
    INDEX 01 00:01:74
FILE "Vatlva (Japan) (Track 16).bin" BINARY
  TRACK 16 AUDIO
    INDEX 00 00:00:00
    INDEX 01 00:01:74
FILE "Vatlva (Japan) (Track 17).bin" BINARY
  TRACK 17 AUDIO
    INDEX 00 00:00:00
    INDEX 01 00:01:74
FILE "Vatlva (Japan) (Track 18).bin" BINARY
  TRACK 18 AUDIO
    INDEX 00 00:00:00
    INDEX 01 00:01:74
FILE "Vatlva (Japan) (Track 19).bin" BINARY
  TRACK 19 AUDIO
    INDEX 00 00:00:00
    INDEX 01 00:01:74
FILE "Vatlva (Japan) (Track 20).bin" BINARY
  TRACK 20 AUDIO
    INDEX 00 00:00:00
    INDEX 01 00:01:74
FILE "Vatlva (Japan) (Track 21).bin" BINARY
  TRACK 21 AUDIO
    INDEX 00 00:00:00
    INDEX 01 00:01:74

    Write Offset: 390

https://cdn.discordapp.com/attachments/ … a_Japan.7z

"IFPI 4021" or "IFPI4021" ?