Common Disc Info:
    Title: Willy Wombat
    Foreign Title (Non-latin): ウィリー・ウォンバット
    Disc Number / Letter:
    Disc Title:
    System: Sega Saturn
    Media Type: CD-ROM
    Category: Games
    Matching IDs: 4905
    Region: Japan
    Languages: Japanese
    Disc Serial: T-14306G

    Ringcode Information:
        Mastering Code (laser branded/etched): T-14306GP-01614-P1K   V
        Mastering SID Code: IFPI L237
        Data-Side Mould SID Code: IFPI 4011
        Label-Side Mould SID Code:
        Additional Mould:
        Toolstamp or Mastering Code (engraved/stamped): 11
    Barcode:
    EXE/Build Date: 19970430
    Error Count: 0
    Comments:
    Contents:

Version and Editions:
    Version: V1.000
    Edition/Release: Original

Extras:
    Primary Volume Descriptor (PVD):

0320 : 20 20 20 20 20 20 20 20  20 20 20 20 20 31 39 39                199
0330 : 36 30 34 33 30 30 30 30  30 30 30 30 30 24 31 39   6043000000000$19
0340 : 39 36 30 34 33 30 30 30  30 30 30 30 30 30 24 30   96043000000000$0
0350 : 30 30 30 30 30 30 30 30  30 30 30 30 30 30 30 00   000000000000000.
0360 : 30 30 30 30 30 30 30 30  30 30 30 30 30 30 30 30   0000000000000000
0370 : 00 01 00 00 00 00 00 00  00 00 00 00 00 00 00 00   ................

    Header:

0000 : 53 45 47 41 20 53 45 47  41 53 41 54 55 52 4E 20   SEGA SEGASATURN 
0010 : 53 45 47 41 20 54 50 20  54 2D 31 34 33 20 20 20   SEGA TP T-143   
0020 : 54 2D 31 34 33 30 36 47  20 20 56 31 2E 30 30 30   T-14306G  V1.000
0030 : 31 39 39 37 30 34 33 30  43 44 2D 31 2F 31 20 20   19970430CD-1/1  
0040 : 4A 20 20 20 20 20 20 20  20 20 20 20 20 20 20 20   J               
0050 : 4A 20 20 20 20 20 20 20  20 20 20 20 20 20 20 20   J               
0060 : 57 69 6C 6C 79 20 57 6F  6D 62 61 74 20 20 20 20   Willy Wombat    
0070 : 20 20 20 20 20 20 20 20  20 20 20 20 20 20 20 20                   
0080 : 20 20 20 20 20 20 20 20  20 20 20 20 20 20 20 20                   
0090 : 20 20 20 20 20 20 20 20  20 20 20 20 20 20 20 20                   
00A0 : 20 20 20 20 20 20 20 20  20 20 20 20 20 20 20 20                   
00B0 : 20 20 20 20 20 20 20 20  20 20 20 20 20 20 20 20                   
00C0 : 20 20 20 20 20 20 20 20  20 20 20 20 20 20 20 20                   
00D0 : 00 00 00 00 00 00 00 00  00 00 00 00 00 00 00 00   ................
00E0 : 00 00 18 00 00 00 00 00  00 00 00 00 00 00 00 00   ................
00F0 : 06 00 80 00 00 00 00 00  00 00 00 00 00 00 00 00   ................

Tracks and Write Offsets:
    DAT:

<rom name="Willy Wombat (Japan) (Track 01).bin" size="171018624" crc="a62e1002" md5="447cdadfe4bc8a5ff3f80445a6754e8d" sha1="7648c8e65df732415365e9bc5a0fdc450aabc852" />
<rom name="Willy Wombat (Japan) (Track 02).bin" size="20194272" crc="cc17328b" md5="cd955b7acbeb9a530ef5d05fca37bf1d" sha1="fafa4843b3b4ca1252ad2fbc5ef6831252b1fe28" />
<rom name="Willy Wombat (Japan) (Track 03).bin" size="32107152" crc="a68eb375" md5="6fc1e9c971f04391424cac7249dd84f3" sha1="9f0089e8468253340ecd5d416a708bab506c9d5e" />
<rom name="Willy Wombat (Japan) (Track 04).bin" size="32111856" crc="988b277c" md5="37c4d1525b96c034e3393ee0c869617b" sha1="21fd124add5b6d3f166312c90d13a4b150c9cb52" />
<rom name="Willy Wombat (Japan) (Track 05).bin" size="32107152" crc="43e00968" md5="8deef03962fef4afe4c840c10a4c7074" sha1="28ba5038456876438d9f4b9f95fbeeba5d9a0ade" />
<rom name="Willy Wombat (Japan) (Track 06).bin" size="32107152" crc="72e2ad1b" md5="a202119b9198f9e2985ea5409584c4f3" sha1="ffcf2faaf724927af9cc3db528fecb295b784fa8" />
<rom name="Willy Wombat (Japan) (Track 07).bin" size="32109504" crc="50e7aa1d" md5="c7da24e0b43925a8bbbf2483f95dc20e" sha1="6760441841516e1a3409c26519f12d97a79ac582" />
<rom name="Willy Wombat (Japan) (Track 08).bin" size="32104800" crc="6d50a899" md5="dd5f778dad6306468ac80c5a752e768e" sha1="e1e1a15f0674f342eb387156c51f68f45414ee40" />
<rom name="Willy Wombat (Japan) (Track 09).bin" size="32107152" crc="51e0775f" md5="398a78b5e9e1ec896643cd00a8006cd4" sha1="2f0d510229008f77140fa23d8a851440cbf6d6e2" />
<rom name="Willy Wombat (Japan) (Track 10).bin" size="32107152" crc="5f2010e8" md5="89c64d08724b01b81f028c4d0cfa2d5d" sha1="093f975039c9d3b34dced414eb0b7826a6a94825" />
<rom name="Willy Wombat (Japan) (Track 11).bin" size="32107152" crc="4f32c5f5" md5="b5abe6d101be0720407edd7495e02a31" sha1="f90f39fe32d26ffe95e15b921616f987f1ed3ca7" />
<rom name="Willy Wombat (Japan) (Track 12).bin" size="20989248" crc="5ff99e7c" md5="f8edbd8746080698f7c1cd62681fa38e" sha1="fca1433c4d51aa258fd117789db7ff9fdb86a0f3" />

    Cuesheet:

CATALOG 0000000000000
FILE "Willy Wombat (Japan) (Track 01).bin" BINARY
  TRACK 01 MODE1/2352
    INDEX 01 00:00:00
FILE "Willy Wombat (Japan) (Track 02).bin" BINARY
  TRACK 02 AUDIO
    INDEX 00 00:00:00
    INDEX 01 00:02:00
FILE "Willy Wombat (Japan) (Track 03).bin" BINARY
  TRACK 03 AUDIO
    INDEX 00 00:00:00
    INDEX 01 00:01:74
FILE "Willy Wombat (Japan) (Track 04).bin" BINARY
  TRACK 04 AUDIO
    INDEX 00 00:00:00
    INDEX 01 00:01:74
FILE "Willy Wombat (Japan) (Track 05).bin" BINARY
  TRACK 05 AUDIO
    INDEX 00 00:00:00
    INDEX 01 00:01:74
FILE "Willy Wombat (Japan) (Track 06).bin" BINARY
  TRACK 06 AUDIO
    INDEX 00 00:00:00
    INDEX 01 00:01:74
FILE "Willy Wombat (Japan) (Track 07).bin" BINARY
  TRACK 07 AUDIO
    INDEX 00 00:00:00
    INDEX 01 00:01:74
FILE "Willy Wombat (Japan) (Track 08).bin" BINARY
  TRACK 08 AUDIO
    INDEX 00 00:00:00
    INDEX 01 00:01:74
FILE "Willy Wombat (Japan) (Track 09).bin" BINARY
  TRACK 09 AUDIO
    INDEX 00 00:00:00
    INDEX 01 00:01:74
FILE "Willy Wombat (Japan) (Track 10).bin" BINARY
  TRACK 10 AUDIO
    INDEX 00 00:00:00
    INDEX 01 00:01:74
FILE "Willy Wombat (Japan) (Track 11).bin" BINARY
  TRACK 11 AUDIO
    INDEX 00 00:00:00
    INDEX 01 00:01:74
FILE "Willy Wombat (Japan) (Track 12).bin" BINARY
  TRACK 12 AUDIO
    INDEX 00 00:00:00
    INDEX 01 00:01:74

    Write Offset: 390

https://cdn.discordapp.com/attachments/ … t_Japan.7z

"IFPI 4011" or "IFPI4011"?