Common Disc Info:
    Title: Layer Section
    Foreign Title (Non-latin): レイヤー・セクション
    Disc Number / Letter:
    Disc Title:
    System: Sega Saturn
    Media Type: CD-ROM
    Category: Games
    Matching IDs: 34268
    Region: Japan
    Languages: Japanese
    Disc Serial: T-1101G

    Ringcode Information:
        Mastering Code (laser branded/etched): T-1101GP-00431A   11MM1   C   65   7   9   74
        Mastering SID Code: IFPI L223
        Data-Side Mould SID Code: IFPI 3905
        Label-Side Mould SID Code:
        Additional Mould:
        Toolstamp or Mastering Code (engraved/stamped):
    Barcode:
    EXE/Build Date: 19950808
    Error Count: 0
    Comments:
    Contents:

Version and Editions:
    Version: V1.002
    Edition/Release: Satakore

Extras:
    Primary Volume Descriptor (PVD):

0320 : 20 20 20 20 20 20 20 20  20 20 20 20 20 31 39 39                199
0330 : 35 30 32 30 31 30 30 30  30 30 30 30 30 24 31 39   5020100000000$19
0340 : 39 35 31 31 30 34 30 30  30 30 30 30 30 30 24 30   95110400000000$0
0350 : 30 30 30 30 30 30 30 30  30 30 30 30 30 30 30 00   000000000000000.
0360 : 30 30 30 30 30 30 30 30  30 30 30 30 30 30 30 30   0000000000000000
0370 : 00 01 00 00 00 00 00 00  00 00 00 00 00 00 00 00   ................

    Header:

0000 : 53 45 47 41 20 53 45 47  41 53 41 54 55 52 4E 20   SEGA SEGASATURN 
0010 : 53 45 47 41 20 54 50 20  54 2D 31 31 20 20 20 20   SEGA TP T-11    
0020 : 54 2D 31 31 30 31 47 20  20 20 56 31 2E 30 30 32   T-1101G   V1.002
0030 : 31 39 39 35 30 38 30 38  43 44 2D 31 2F 31 20 20   19950808CD-1/1  
0040 : 4A 54 20 20 20 20 20 20  20 20 20 20 20 20 20 20   JT              
0050 : 4A 20 20 20 20 20 20 20  20 20 20 20 20 20 20 20   J               
0060 : 4C 41 59 45 52 20 53 45  43 54 49 4F 4E 20 20 20   LAYER SECTION   
0070 : 20 20 20 20 20 20 20 20  20 20 20 20 20 20 20 20                   
0080 : 20 20 20 20 20 20 20 20  20 20 20 20 20 20 20 20                   
0090 : 20 20 20 20 20 20 20 20  20 20 20 20 20 20 20 20                   
00A0 : 20 20 20 20 20 20 20 20  20 20 20 20 20 20 20 20                   
00B0 : 20 20 20 20 20 20 20 20  20 20 20 20 20 20 20 20                   
00C0 : 20 20 20 20 20 20 20 20  20 20 20 20 20 20 20 20                   
00D0 : 00 00 00 00 00 00 00 00  00 00 00 00 00 00 00 00   ................
00E0 : 00 00 18 00 00 00 00 00  00 00 00 00 00 00 00 00   ................
00F0 : 06 00 40 00 00 00 00 00  00 00 00 00 00 00 00 00   ..@.............

Tracks and Write Offsets:
    DAT:

<rom name="Layer Section (Satakore) (Japan) (Track 01).bin" size="16776816" crc="c93873c3" md5="5ded6df721cdc81372a856c7fb3b5e5a" sha1="4a4c321d615b4cd033796433582a2ee4380e9bb8" />
<rom name="Layer Section (Satakore) (Japan) (Track 02).bin" size="5647152" crc="a83d9a62" md5="80519e061207e87e017ad5170fb19a38" sha1="0df2fa3f23958c0225341b106ad0b26d5c1d3da9" />
<rom name="Layer Section (Satakore) (Japan) (Track 03).bin" size="21523152" crc="a8565303" md5="95c16ea9c879af6ff1f11ee32ed4e1d9" sha1="e67b40dcafe59c5cb081830e4eb869cc0012dc22" />
<rom name="Layer Section (Satakore) (Japan) (Track 04).bin" size="32107152" crc="0d65b75e" md5="2e520164f97c5e5e03387275a574b8f3" sha1="2727791b1ac6df7949c9ee8799ff7b93fa57418a" />
<rom name="Layer Section (Satakore) (Japan) (Track 05).bin" size="42691152" crc="ca10ecf4" md5="726a186d6c4c66c124b61006da0cbc3c" sha1="d1998e68c83e1e3f85dc5f01a75ac6b4ea2801be" />
<rom name="Layer Section (Satakore) (Japan) (Track 06).bin" size="37399152" crc="0af06269" md5="a7a057fa5d5174285eb207da75f735df" sha1="e5bcaa9e5f76e743042fc160fc8da581f5013d71" />
<rom name="Layer Section (Satakore) (Japan) (Track 07).bin" size="37399152" crc="38924db9" md5="2634fa4249578bb5ff99d6a58e463634" sha1="4f41c172ffab84deef8af67e570105394acb4f83" />
<rom name="Layer Section (Satakore) (Japan) (Track 08).bin" size="32107152" crc="1789fd41" md5="246e15f8dbb9da3fb64ef03ac0dd4c9b" sha1="1aad359ed66a380bf6fd77b4f3f56b7e5fb7c592" />
<rom name="Layer Section (Satakore) (Japan) (Track 09).bin" size="47983152" crc="bb30494a" md5="167d7baa68a65cde1fa09eb441586770" sha1="76aa6a44f8c7214a6a2666e98b4a63200137158b" />
<rom name="Layer Section (Satakore) (Japan) (Track 10).bin" size="21523152" crc="8906468a" md5="4d29dadbc29186249ea5eaf9700cea4e" sha1="9b08ea9edd47ece6b62fcb13efb302a5b25ee528" />
<rom name="Layer Section (Satakore) (Japan) (Track 11).bin" size="32107152" crc="4ccd67fd" md5="21878f50bdfe0ccf8a2f0822e407d249" sha1="42adb6372ee66ea70c904d4e7d7fd60bb4a4ed87" />
<rom name="Layer Section (Satakore) (Japan) (Track 12).bin" size="32107152" crc="79f57ec9" md5="f24cf48037e7e7ec977baa32b144c3b1" sha1="41ec09cc85fd2e0a00921f441ef1efc38cb9d28b" />
<rom name="Layer Section (Satakore) (Japan) (Track 13).bin" size="37399152" crc="c3e0c5a2" md5="692c46c54e0d95035261500d8233dcd5" sha1="39f49c8429bc026f2db18a1d5423363e13a5539e" />
<rom name="Layer Section (Satakore) (Japan) (Track 14).bin" size="25051152" crc="cfcc64d0" md5="b8243cbdebabd177732f68d3e7990bf3" sha1="5254ed7513f7526251af84b6009e61cfba97782f" />
<rom name="Layer Section (Satakore) (Japan) (Track 15).bin" size="85027152" crc="ac5b3813" md5="c0db15f3d3a1fbe1373ebb187e697bca" sha1="58a17b81f20e73fac9ef5dc69b972a18dc7b2c28" />
<rom name="Layer Section (Satakore) (Japan) (Track 16).bin" size="17995152" crc="58b1dba1" md5="eea4fa13dce2fab54c78ef7cdb70e7d2" sha1="02987ba89894574d59bf10977810e0b12cf0bc8a" />
<rom name="Layer Section (Satakore) (Japan) (Track 17).bin" size="9175152" crc="b7ddf18b" md5="1028f47e9dbb5824208341c5ee49e79a" sha1="91e1355883517a13e92579c2b777bc4e1b014560" />
<rom name="Layer Section (Satakore) (Japan) (Track 18).bin" size="5647152" crc="efb32b1f" md5="885247d3c4ec183fcad6d43175b4bec5" sha1="786718429e0663f7d49d68e2336fc1cd0fc74f2d" />

    Cuesheet:

CATALOG 0000000000000
FILE "Layer Section (Satakore) (Japan) (Track 01).bin" BINARY
  TRACK 01 MODE1/2352
    INDEX 01 00:00:00
FILE "Layer Section (Satakore) (Japan) (Track 02).bin" BINARY
  TRACK 02 AUDIO
    INDEX 00 00:00:00
    INDEX 01 00:02:00
FILE "Layer Section (Satakore) (Japan) (Track 03).bin" BINARY
  TRACK 03 AUDIO
    INDEX 00 00:00:00
    INDEX 01 00:02:00
FILE "Layer Section (Satakore) (Japan) (Track 04).bin" BINARY
  TRACK 04 AUDIO
    INDEX 00 00:00:00
    INDEX 01 00:02:00
FILE "Layer Section (Satakore) (Japan) (Track 05).bin" BINARY
  TRACK 05 AUDIO
    INDEX 00 00:00:00
    INDEX 01 00:02:00
FILE "Layer Section (Satakore) (Japan) (Track 06).bin" BINARY
  TRACK 06 AUDIO
    INDEX 00 00:00:00
    INDEX 01 00:02:00
FILE "Layer Section (Satakore) (Japan) (Track 07).bin" BINARY
  TRACK 07 AUDIO
    INDEX 00 00:00:00
    INDEX 01 00:02:00
FILE "Layer Section (Satakore) (Japan) (Track 08).bin" BINARY
  TRACK 08 AUDIO
    INDEX 00 00:00:00
    INDEX 01 00:02:00
FILE "Layer Section (Satakore) (Japan) (Track 09).bin" BINARY
  TRACK 09 AUDIO
    INDEX 00 00:00:00
    INDEX 01 00:02:00
FILE "Layer Section (Satakore) (Japan) (Track 10).bin" BINARY
  TRACK 10 AUDIO
    INDEX 00 00:00:00
    INDEX 01 00:02:00
FILE "Layer Section (Satakore) (Japan) (Track 11).bin" BINARY
  TRACK 11 AUDIO
    INDEX 00 00:00:00
    INDEX 01 00:02:00
FILE "Layer Section (Satakore) (Japan) (Track 12).bin" BINARY
  TRACK 12 AUDIO
    INDEX 00 00:00:00
    INDEX 01 00:02:00
FILE "Layer Section (Satakore) (Japan) (Track 13).bin" BINARY
  TRACK 13 AUDIO
    INDEX 00 00:00:00
    INDEX 01 00:02:00
FILE "Layer Section (Satakore) (Japan) (Track 14).bin" BINARY
  TRACK 14 AUDIO
    INDEX 00 00:00:00
    INDEX 01 00:02:00
FILE "Layer Section (Satakore) (Japan) (Track 15).bin" BINARY
  TRACK 15 AUDIO
    INDEX 00 00:00:00
    INDEX 01 00:02:00
FILE "Layer Section (Satakore) (Japan) (Track 16).bin" BINARY
  TRACK 16 AUDIO
    INDEX 00 00:00:00
    INDEX 01 00:02:00
FILE "Layer Section (Satakore) (Japan) (Track 17).bin" BINARY
  TRACK 17 AUDIO
    INDEX 00 00:00:00
    INDEX 01 00:02:00
FILE "Layer Section (Satakore) (Japan) (Track 18).bin" BINARY
  TRACK 18 AUDIO
    INDEX 00 00:00:00
    INDEX 01 00:02:00

    Write Offset: 0


https://cdn.discordapp.com/attachments/ … e_Japan.7z

Is your disc serial T-1101G, or T-1112G ?  Since you've said Satakore.