1 (edited by wiggy2k 2020-09-15 23:43:06)

Verification of  http://redump.org/disc/42917/

Common Disc Info:
    Title: Free Software Collection 5
    System: Fujitsu FM Towns Marty
    Media Type: CD-ROM
    Category: Applications
    Region: Japan
    Languages: not checked
    Disc Serial: HMD-117

    Ringcode Information:
        Mastering Code (laser branded/etched): HMD-117<tab>2A2<tab>C<tab>24

    Barcode: T4988618040495
    Error Count: 0
    Comments: Fujitsu ID: A2760240
    Contents:

Version and Editions:
    Version:
    Edition/Release: Original (VERIFY THIS)

Extras:
    Primary Volume Descriptor (PVD):

0320 : 20 20 20 20 20 20 20 20  20 20 20 20 20 31 39 39                199
0330 : 32 30 34 31 37 30 39 31  35 30 30 30 30 00 31 39   2041709150000.19
0340 : 39 32 30 34 31 37 30 39  31 35 30 30 30 30 00 30   92041709150000.0
0350 : 30 30 30 30 30 30 30 30  30 30 30 30 30 30 30 00   000000000000000.
0360 : 30 30 30 30 30 30 30 30  30 30 30 30 30 30 30 30   0000000000000000
0370 : 00 01 00 00 00 00 00 00  00 00 00 00 00 00 00 00   ................

Tracks and Write Offsets:
    DAT:

<rom name="FREESOFT (Track 1).bin" size="211327200" crc="abe55aaf" md5="613b8e9831d84d0341c3afaee021d592" sha1="1c9820c3330a3f784ae5abfb35b2f5b45cc843b6" />
<rom name="FREESOFT (Track 2).bin" size="49039200" crc="06f1729c" md5="43f6b8bc382115d6af7703ec59892b15" sha1="b802e594131bf7a4f99cbe17c5a44ac26c0794b8" />
<rom name="FREESOFT (Track 3).bin" size="45158400" crc="68cc2738" md5="375854a5e6780f86a06d5a423451c6b0" sha1="a1968e4aee2ab916cd0bde651f9700a1bed02096" />
<rom name="FREESOFT (Track 4).bin" size="41806800" crc="6bdb6924" md5="161a4c1ee59c8bad223433c985f21679" sha1="e6f13e3835bfb55e411c79ad60b70755ba9e6f2d" />
<rom name="FREESOFT (Track 5).bin" size="132829200" crc="6fa01db5" md5="f7b7a663219c6231cafd9b7c6d4f07b7" sha1="814d78ce301479bee0a758552e5431cc7226b73a" />
<rom name="FREESOFT (Track 6).bin" size="47628000" crc="6c3f6d56" md5="e989cbfa4f4c0b338df9d7edc50133a3" sha1="21561760dc0ac338ff3396ff5ce7b0126da217fc" />
<rom name="FREESOFT (Track 7).bin" size="22050000" crc="22b46638" md5="d9f68e2059e5051e6abb1621a08b6609" sha1="33caf7aab33c4ce8820a7542c4b201ba5ae645b5" />
<rom name="FREESOFT (Track 8).bin" size="94903200" crc="b102922c" md5="f8638477f6d8db5265187c85e95ec192" sha1="b0224f0ed9ac09308a43098542987a5ff756f952" />

    Cuesheet:

FILE "FREESOFT (Track 1).bin" BINARY
  TRACK 01 MODE1/2352
    INDEX 01 00:00:00
FILE "FREESOFT (Track 2).bin" BINARY
  TRACK 02 AUDIO
    INDEX 00 00:00:00
    INDEX 01 00:02:00
FILE "FREESOFT (Track 3).bin" BINARY
  TRACK 03 AUDIO
    INDEX 00 00:00:00
    INDEX 01 00:02:00
FILE "FREESOFT (Track 4).bin" BINARY
  TRACK 04 AUDIO
    INDEX 00 00:00:00
    INDEX 01 00:02:00
FILE "FREESOFT (Track 5).bin" BINARY
  TRACK 05 AUDIO
    INDEX 00 00:00:00
    INDEX 01 00:02:00
FILE "FREESOFT (Track 6).bin" BINARY
  TRACK 06 AUDIO
    INDEX 00 00:00:00
    INDEX 01 00:02:00
FILE "FREESOFT (Track 7).bin" BINARY
  TRACK 07 AUDIO
    INDEX 00 00:00:00
    INDEX 01 00:02:00
FILE "FREESOFT (Track 8).bin" BINARY
  TRACK 08 AUDIO
    INDEX 00 00:00:00
    INDEX 01 00:02:00

    Write Offset: 1174