1 (edited by wiggy2k Today 02:47:12)

Common Disc Info:
    Title: Free Software Collection 5
    System: Fujitsu FM Towns Marty
    Media Type: CD-ROM
    Category: Applications
    Region: Japan
    Languages: not checked
    Disc Serial: HMD-117B

    Ringcode Information:
        Mastering Code (laser branded/etched): HMD-117B<tab>2A1<tab>C<tab>38

    Barcode: T4988618040495
    Error Count: 0
    Comments:
    Contents: Fujitsu ID: A2760240

Version and Editions:
    Version:
    Edition/Release: Original (VERIFY THIS)

Extras:
    Primary Volume Descriptor (PVD):

0320 : 20 20 20 20 20 20 20 20  20 20 20 20 20 31 39 39                199
0330 : 33 30 37 31 33 31 39 32  38 31 34 30 30 00 31 39   3071319281400.19
0340 : 39 33 30 37 31 33 32 32  32 30 34 33 30 30 00 30   93071322204300.0
0350 : 30 30 30 30 30 30 30 30  30 30 30 30 30 30 30 00   000000000000000.
0360 : 30 30 30 30 30 30 30 30  30 30 30 30 30 30 30 30   0000000000000000
0370 : 00 01 00 00 00 00 00 00  00 00 00 00 00 00 00 00   ................

Tracks and Write Offsets:
    DAT:

<rom name="FREESOFT5 (Track 1).bin" size="211327200" crc="69b8bada" md5="ba16a7a7cb96af70cedfd076ba0797ac" sha1="d5bce55044418c7d232cb2ed76695ed38b01c12c" />
<rom name="FREESOFT5 (Track 2).bin" size="49039200" crc="6055be83" md5="f5940dfe970a5d0d088df65c7108a153" sha1="33c44728f0376c6b0102185037a8bb91ed091563" />
<rom name="FREESOFT5 (Track 3).bin" size="45158400" crc="c6b6b65b" md5="db57d13683a2fa0d9a8dc77d6e01f449" sha1="8927a40464f9fbbd3fea9ab9000a772da5c14107" />
<rom name="FREESOFT5 (Track 4).bin" size="41806800" crc="77f8c6d4" md5="6c952371a38f8aa8ccda286428430a16" sha1="55e152460edb6f8285b07dc1c9c46a91e6a6b1cb" />
<rom name="FREESOFT5 (Track 5).bin" size="132829200" crc="67c64d24" md5="85f681972e38aa981fce8f6bf4b793c9" sha1="cbee5b3a1e8f91985c86e287a784e1b03a4afe95" />
<rom name="FREESOFT5 (Track 6).bin" size="47628000" crc="f38e6a6c" md5="d975c1fabcbf9bdc7453287c1d8c1786" sha1="bfd163d5e0ab7fe962b8b0bb4b1e4cb5137332cf" />
<rom name="FREESOFT5 (Track 7).bin" size="22050000" crc="99072b27" md5="cdfc7e220548a30b70103c7a926a6c03" sha1="13977ef6ccb10beb17fb8d61c30d5327906051cc" />
<rom name="FREESOFT5 (Track 8).bin" size="94903200" crc="846678f0" md5="62137d83362a1469ca78939e62704bd2" sha1="1fa02152b2ec00c83d456e52f86bfa6f0428f914" />

    Cuesheet:

FILE "FREESOFT5 (Track 1).bin" BINARY
  TRACK 01 MODE1/2352
    INDEX 01 00:00:00
FILE "FREESOFT5 (Track 2).bin" BINARY
  TRACK 02 AUDIO
    INDEX 00 00:00:00
    INDEX 01 00:02:00
FILE "FREESOFT5 (Track 3).bin" BINARY
  TRACK 03 AUDIO
    INDEX 00 00:00:00
    INDEX 01 00:02:00
FILE "FREESOFT5 (Track 4).bin" BINARY
  TRACK 04 AUDIO
    INDEX 00 00:00:00
    INDEX 01 00:02:00
FILE "FREESOFT5 (Track 5).bin" BINARY
  TRACK 05 AUDIO
    INDEX 00 00:00:00
    INDEX 01 00:02:00
FILE "FREESOFT5 (Track 6).bin" BINARY
  TRACK 06 AUDIO
    INDEX 00 00:00:00
    INDEX 01 00:02:00
FILE "FREESOFT5 (Track 7).bin" BINARY
  TRACK 07 AUDIO
    INDEX 00 00:00:00
    INDEX 01 00:02:00
FILE "FREESOFT5 (Track 8).bin" BINARY
  TRACK 08 AUDIO
    INDEX 00 00:00:00
    INDEX 01 00:02:00

    Write Offset: 2105

Logs:
https://cdn.discordapp.com/attachments/ … 5-revB.rar