1 (edited by duyc37 2020-09-15 01:22:35)

I didn't see any information about this disc on the database or online, so i'm not sure whether it is counted as missing or not for the Neo Geo CD library missing list. Here is its dump, this is my first time dumping soundtrack disc for a Neo Geo CD game. Let me know on here if i made i mistake or not, thank you first guys smile

Common Disc Info:
    Title: Super Iron Brikinger/SAURUS
    Foreign Title (Non-latin): 超鉄ブリキンガー/SAURUS
    System: Audio CD
    Media Type: CD-ROM
    Category: Audio
    Region: Japan
    Disc Serial: PCCB-00211

    Ringcode Information:
        "SAMPLE" imprinted on the front surface of the disc
        Mastering Code (laser branded/etched): PCCB-00211[TAB]JOD[TAB]A
        Mastering SID Code: IFPI L541
        Mould SID Code: IFPI 9307
    Barcode: NA
   

Version and Editions:
    Version: Original
    Edition/Release: Original

Extras:
    Primary Volume Descriptor (PVD): Disc has no PVD

Tracks and Write Offsets:
    DAT:

<rom name="IronClad (Track 01).bin" size="5515440" crc="56656cd3" md5="dec49ef721a665717bc012384dca6543" sha1="6169e34e37a8d59ff611d721aca86a25fc507fde" />
<rom name="IronClad (Track 02).bin" size="9055200" crc="f29a4964" md5="66a316bc4b946403ac88b880b54eb04b" sha1="4c4d1c4d3173f7760097e16f0d6d8cb314af75e2" />
<rom name="IronClad (Track 03).bin" size="29423520" crc="9fc82b48" md5="be2548695cc0ddf2131ad65b6f8243bd" sha1="fc7bc918cdfd0f3411ffa8e8f9d0094cbe4bb405" />
<rom name="IronClad (Track 04).bin" size="27118560" crc="96b85673" md5="dd9e0e0c0316bb069ffad50ffa63eb77" sha1="852622925d3ab97290a19f7e67ad0b2954f3bfad" />
<rom name="IronClad (Track 05).bin" size="32598720" crc="86e4d334" md5="e661962143412d4f89171365418e9b4a" sha1="e1e310540866baf0310f57218316a0f2f7247c9f" />
<rom name="IronClad (Track 06).bin" size="45668784" crc="5c558e7f" md5="c9e5604360553dd5366588803f7546aa" sha1="516e619a805bcd7f659ba3ddd92b6b08b93da5ed" />
<rom name="IronClad (Track 07).bin" size="22409856" crc="d18bad0b" md5="c4ebe3c12d2b5819ff754670df60da47" sha1="0d7700f7f5a5c271376091bb280f7eaf96bd3c2f" />
<rom name="IronClad (Track 08).bin" size="31434480" crc="2161039a" md5="0fb3c55a21d7f5de97afa7077d1c0505" sha1="197c71c445ef6932ef791ecfca1011e0d43964ea" />
<rom name="IronClad (Track 09).bin" size="24877104" crc="cba9b30a" md5="e09e2705fd899e92c53241a4b1981471" sha1="40e4c71666fb332a138473f86dbd95aa1e57f552" />
<rom name="IronClad (Track 10).bin" size="19815600" crc="a2a7ab97" md5="34f0a0288bf02260554a7e0bd86f80ae" sha1="9d1947e97a102c68da8886cb162b63a83d37a8bb" />
<rom name="IronClad (Track 11).bin" size="34640256" crc="6c19de70" md5="f0966b91814440a79a6b736d3614ce7b" sha1="b6f7e0c8b722b01994b1cc571eff5368e6568b96" />
<rom name="IronClad (Track 12).bin" size="6844320" crc="7b7094cd" md5="319a6836292f0c5558a0a09def53b20e" sha1="5d2baeac6036e0ba7b95f9aeabea041637fd5ba8" />
<rom name="IronClad (Track 13).bin" size="24806544" crc="d9f7d94f" md5="a4a19056db13b7baf7789f5cffe15e6d" sha1="7552536048aed8eadd71bfd5b6f202545d805b7e" />
<rom name="IronClad (Track 14).bin" size="35315280" crc="2cf2e328" md5="e4e5cc6e1e07d7dc4e317b3325d7544d" sha1="85ea1ac17daf078a7be9859e544483507c405585" />
<rom name="IronClad (Track 15).bin" size="43060416" crc="6903a512" md5="1a013ba721733837401ca111b631424c" sha1="9a72b0695141c9db44aa6e9581bafe89c0537120" />
<rom name="IronClad (Track 16).bin" size="25883760" crc="fde4753c" md5="44ab735b7a86f40302dac184218ce667" sha1="bdfd879afdb8f8154c18e517455070c2b93d24b5" />
<rom name="IronClad (Track 17).bin" size="1086624" crc="67d54fcb" md5="4ee441f7af769c0491d916269201c3e7" sha1="c09c30842fff8cef4fb42494bfd9fef31fe31d67" />
<rom name="IronClad (Track 18).bin" size="42354816" crc="9836579d" md5="8d9a7efea5c7a6e0ef25fbf2a539e6c6" sha1="c30a83555424664cb930562890684201a412e1c2" />

    Cuesheet:

FILE "IronClad (Track 01).bin" BINARY
  TRACK 01 AUDIO
    ISRC JPPC09608340
    INDEX 01 00:00:00
FILE "IronClad (Track 02).bin" BINARY
  TRACK 02 AUDIO
    ISRC JPPC09608350
    INDEX 01 00:00:00
FILE "IronClad (Track 03).bin" BINARY
  TRACK 03 AUDIO
    ISRC JPPC09608360
    INDEX 01 00:00:00
FILE "IronClad (Track 04).bin" BINARY
  TRACK 04 AUDIO
    ISRC JPPC09608370
    INDEX 01 00:00:00
FILE "IronClad (Track 05).bin" BINARY
  TRACK 05 AUDIO
    ISRC JPPC09608380
    INDEX 01 00:00:00
FILE "IronClad (Track 06).bin" BINARY
  TRACK 06 AUDIO
    ISRC JPPC09608390
    INDEX 01 00:00:00
FILE "IronClad (Track 07).bin" BINARY
  TRACK 07 AUDIO
    ISRC JPPC09608400
    INDEX 01 00:00:00
FILE "IronClad (Track 08).bin" BINARY
  TRACK 08 AUDIO
    ISRC JPPC09608410
    INDEX 01 00:00:00
FILE "IronClad (Track 09).bin" BINARY
  TRACK 09 AUDIO
    ISRC JPPC09608420
    INDEX 01 00:00:00
FILE "IronClad (Track 10).bin" BINARY
  TRACK 10 AUDIO
    ISRC JPPC09608430
    INDEX 01 00:00:00
FILE "IronClad (Track 11).bin" BINARY
  TRACK 11 AUDIO
    ISRC JPPC09608440
    INDEX 01 00:00:00
FILE "IronClad (Track 12).bin" BINARY
  TRACK 12 AUDIO
    ISRC JPPC09608450
    INDEX 01 00:00:00
FILE "IronClad (Track 13).bin" BINARY
  TRACK 13 AUDIO
    ISRC JPPC09608460
    INDEX 01 00:00:00
FILE "IronClad (Track 14).bin" BINARY
  TRACK 14 AUDIO
    ISRC JPPC09608470
    INDEX 01 00:00:00
FILE "IronClad (Track 15).bin" BINARY
  TRACK 15 AUDIO
    ISRC JPPC09608480
    INDEX 01 00:00:00
FILE "IronClad (Track 16).bin" BINARY
  TRACK 16 AUDIO
    ISRC JPPC09608490
    INDEX 01 00:00:00
FILE "IronClad (Track 17).bin" BINARY
  TRACK 17 AUDIO
    ISRC JPPC09608500
    INDEX 01 00:00:00
FILE "IronClad (Track 18).bin" BINARY
  TRACK 18 AUDIO
    ISRC JPPC09608510
    INDEX 00 00:00:00
    INDEX 01 00:04:43

    Write Offset: 0

Post's attachments

IronClad.rar 18.43 kb, file has never been downloaded. 

You don't have the permssions to download the attachments of this post.