1 (edited by LastCat 2020-08-13 16:20:42)

Common Disc Info:
    Title: Keiou Yuugekitai
    Foreign Title (Non-latin): 慶応遊撃隊
    System: Sega CD / Mega CD
    Media Type: CD-ROM
    Category: Games
    Matching IDs: 3136
    Region: Japan
    Languages: Japanese
    Disc Serial: T-60114

    Ringcode Information:
        Mastering Code (laser branded/etched): T-60114-00082-R1M V
        Mastering SID Code:
        Data-Side Mould SID Code:
        Label-Side Mould SID Code:
        Additional Mould:
        Toolstamp or Mastering Code (engraved/stamped): 11
    Barcode:4 988002 274499
    EXE/Build Date: 1993-08
    Error Count: 0
    Comments:
    Contents:

Version and Editions:
    Version:
    Edition/Release: Glitter Lucky Treasure Chest

Extras:
    Primary Volume Descriptor (PVD):

0320 : 20 20 20 20 20 20 20 20  20 20 20 20 20 31 39 39                199
0330 : 32 30 31 30 31 30 30 30  30 30 30 30 30 00 31 39   2010100000000.19
0340 : 39 33 30 36 32 31 32 32  34 38 31 30 30 30 00 30   93062122481000.0
0350 : 30 30 30 30 30 30 30 30  30 30 30 30 30 30 30 00   000000000000000.
0360 : 31 39 39 32 30 31 30 31  30 30 30 30 30 30 30 30   1992010100000000
0370 : 00 01 00 00 00 00 00 00  00 00 00 00 00 00 00 00   ................

    Header:

0100 : 53 45 47 41 20 4D 45 47  41 20 44 52 49 56 45 20   SEGA MEGA DRIVE 
0110 : 28 43 29 54 2D 36 30 20  31 39 39 33 2E 41 55 47   (C)T-60 1993.AUG
0120 : 4B 45 49 4F 20 59 55 55  47 45 4B 49 54 41 49 20   KEIO YUUGEKITAI 
0130 : 20 20 20 20 20 20 20 20  20 20 20 20 20 20 20 20                   
0140 : 20 20 20 20 20 20 20 20  20 20 20 20 20 20 20 20                   
0150 : 4B 45 49 4F 20 59 55 55  47 45 4B 49 54 41 49 20   KEIO YUUGEKITAI 
0160 : 20 20 20 20 20 20 20 20  20 20 20 20 20 20 20 20                   
0170 : 20 20 20 20 20 20 20 20  20 20 20 20 20 20 20 20                   
0180 : 47 4D 20 54 2D 36 30 31  31 34 20 2D 30 30 20 20   GM T-60114 -00  
0190 : 4A 20 20 20 20 20 20 20  20 20 20 20 20 20 20 20   J               
01A0 : 20 20 20 20 20 20 20 20  20 20 20 20 20 20 20 20                   
01B0 : 20 20 20 20 20 20 20 20  20 20 20 20 20 20 20 20                   
01C0 : 20 20 20 20 20 20 20 20  20 20 20 20 20 20 20 20                   
01D0 : 20 20 20 20 20 20 20 20  20 20 20 20 20 20 20 20                   
01E0 : 20 20 20 20 20 20 20 20  20 20 20 20 20 20 20 20                   
01F0 : 4A 20 20 20 20 20 20 20  20 20 20 20 20 20 20 20   J       

       

Tracks and Write Offsets:
    DAT:

<rom name="Keiou Yuugekitai (Japan) (Track 01).bin" size="77853552" crc="8586c1e7" md5="ff783f66afe6f480976aaa2dd3390bdc" sha1="843ec18f57d20c87f3ab58f164413502eafb2453" />
<rom name="Keiou Yuugekitai (Japan) (Track 02).bin" size="1117200" crc="6cdfd209" md5="e0d85798d30a72666baca352675c3a89" sha1="6714ee152fb1b508107fc14138b5628dd68ca385" />
<rom name="Keiou Yuugekitai (Japan) (Track 03).bin" size="40720176" crc="1bcab310" md5="fe747b0c5d465860c5cf803990d37eab" sha1="d911e5ad63dfb7a8b9d03b16462ba05f9ed01a27" />
<rom name="Keiou Yuugekitai (Japan) (Track 04).bin" size="45922800" crc="ad73e1e6" md5="82bf5e6bf056a3e10ac340d6db09d804" sha1="d268f5e3ea8fd37928802da2d4e19f1bce61cc4d" />
<rom name="Keiou Yuugekitai (Japan) (Track 05).bin" size="49062720" crc="ddb213e4" md5="8404332eabab014e7c9a3d0d446be55a" sha1="6dd59f2622c7dd4fc992708996540ac571e91b9e" />
<rom name="Keiou Yuugekitai (Japan) (Track 06).bin" size="41087088" crc="b69a3b55" md5="7091d44ffe877473843c1003104a6048" sha1="c38eae9892e5a6b70b70c53023a3db3658f7d26e" />
<rom name="Keiou Yuugekitai (Japan) (Track 07).bin" size="44499840" crc="22f09035" md5="ff3ae757af825a4a60b887a485904883" sha1="ace9497392ea2d729b118921c413103709f861e1" />
<rom name="Keiou Yuugekitai (Japan) (Track 08).bin" size="38690400" crc="227cd2c6" md5="4a296331cc40f0305ab84d3ce7e9f01a" sha1="e6826601cf26665ccf6dfa4c1d34c4a7099cfb73" />
<rom name="Keiou Yuugekitai (Japan) (Track 09).bin" size="37201584" crc="edd11321" md5="c7698008a297b9e603bbe81de385ad31" sha1="44ef027858e12038bc7f0a1da7091d788589a923" />
<rom name="Keiou Yuugekitai (Japan) (Track 10).bin" size="25944912" crc="da153759" md5="e54a5fbad39b124173108ff617cf9ff4" sha1="6e8915409b7b58be43601c800b3fa9a671901883" />
<rom name="Keiou Yuugekitai (Japan) (Track 11).bin" size="19977888" crc="e1c594c9" md5="c879b780d1d289801392a9e33c492d04" sha1="d56bb5d13d0c4fdda4ab6471530a9243685ddb3e" />
<rom name="Keiou Yuugekitai (Japan) (Track 12).bin" size="1756944" crc="0d1c28ad" md5="c2140405cfa5a9f9c69c2cb8bf66cbb0" sha1="3d01e486fc11c2f04271ec3c36dca9f8d416d3d0" />
<rom name="Keiou Yuugekitai (Japan) (Track 13).bin" size="6851376" crc="9dbc18b5" md5="b7c72af5bb096fff5512c315909b3eef" sha1="680b8d6327af372dbf19e94fb82abc8e0f3293db" />
<rom name="Keiou Yuugekitai (Japan) (Track 14).bin" size="19714464" crc="cc90cc4f" md5="2faf5f75eb20b6237284cd9f94d4417b" sha1="38b18e242f82025a02eb936cc21d2ca3f140aaa7" />
<rom name="Keiou Yuugekitai (Japan) (Track 15).bin" size="26808096" crc="0387f9a3" md5="759340a9241b33e7552ea6b1dbe307f7" sha1="dbe10f1bff87dfbed327ee6aff0991f2c5eb1837" />
<rom name="Keiou Yuugekitai (Japan) (Track 16).bin" size="25305168" crc="6adfebc1" md5="53f68449f53cdee4c6f6c4a80d44ebf9" sha1="812e6ac8e1f382fe6d3e51800c533ffe8673a96c" />
<rom name="Keiou Yuugekitai (Japan) (Track 17).bin" size="6794928" crc="3cc05521" md5="73e0ecf7fb05544c7a2883cebd09dc62" sha1="54609e75736bba5a8e349e6703f72542a8d69c87" />
<rom name="Keiou Yuugekitai (Japan) (Track 18).bin" size="7484064" crc="f755eab1" md5="2d4e2c61027200321a3e01c34666bb12" sha1="369afa437b6f139d92341d412b840c40f2d5e922" />
<rom name="Keiou Yuugekitai (Japan) (Track 19).bin" size="7437024" crc="78aed185" md5="1927e1b7938fe6c77a64bcfce92864e4" sha1="53673d0baceb7b7a60d46fbbd3186b1cb4d54bef" />
<rom name="Keiou Yuugekitai (Japan) (Track 20).bin" size="7368816" crc="20cbadfd" md5="e51b5800bb01a8f234dfac51eee59d70" sha1="434d9db5ad0e76d341cfcda1c62ab90534014b4d" />
<rom name="Keiou Yuugekitai (Japan) (Track 21).bin" size="7265328" crc="f7178b92" md5="2520238c017a44a31d19c413de5a915b" sha1="90f1b1d7ccb9869e4f3e3b55c1db6fea4d4b4508" />
<rom name="Keiou Yuugekitai (Japan) (Track 22).bin" size="7270032" crc="1047ba39" md5="00461803d272acdfa054ab57e38164cf" sha1="1726ff0947a8ebeafb52ee7e9dd599bfe78575c0" />
<rom name="Keiou Yuugekitai (Japan) (Track 23).bin" size="11924640" crc="83b489ef" md5="39557e83b4b130fb1a14a9fe7fe7f543" sha1="cef2296bf3568b1773ad9f6568c5cfe25091f062" />
<rom name="Keiou Yuugekitai (Japan) (Track 24).bin" size="26556432" crc="5f24b29f" md5="f567e30557e0220e71ba569a43e8e6ff" sha1="b113a9bf524e11463d18da868d123a0b2eb63eca" />
<rom name="Keiou Yuugekitai (Japan) (Track 25).bin" size="9972480" crc="b8ee9bfd" md5="c780897624708ddb533d3183736f1759" sha1="314481a041978d0cd92d6f061aa6edc1221ccbc0" />

    Cuesheet:

CATALOG 0000000000000
FILE "Keiou Yuugekitai (Japan) (Track 01).bin" BINARY
  TRACK 01 MODE1/2352
    INDEX 01 00:00:00
FILE "Keiou Yuugekitai (Japan) (Track 02).bin" BINARY
  TRACK 02 AUDIO
    INDEX 00 00:00:00
    INDEX 01 00:02:00
FILE "Keiou Yuugekitai (Japan) (Track 03).bin" BINARY
  TRACK 03 AUDIO
    INDEX 00 00:00:00
    INDEX 01 00:01:74
FILE "Keiou Yuugekitai (Japan) (Track 04).bin" BINARY
  TRACK 04 AUDIO
    INDEX 00 00:00:00
    INDEX 01 00:01:74
FILE "Keiou Yuugekitai (Japan) (Track 05).bin" BINARY
  TRACK 05 AUDIO
    INDEX 00 00:00:00
    INDEX 01 00:01:74
FILE "Keiou Yuugekitai (Japan) (Track 06).bin" BINARY
  TRACK 06 AUDIO
    INDEX 00 00:00:00
    INDEX 01 00:01:74
FILE "Keiou Yuugekitai (Japan) (Track 07).bin" BINARY
  TRACK 07 AUDIO
    INDEX 00 00:00:00
    INDEX 01 00:01:74
FILE "Keiou Yuugekitai (Japan) (Track 08).bin" BINARY
  TRACK 08 AUDIO
    INDEX 00 00:00:00
    INDEX 01 00:01:74
FILE "Keiou Yuugekitai (Japan) (Track 09).bin" BINARY
  TRACK 09 AUDIO
    INDEX 00 00:00:00
    INDEX 01 00:01:74
FILE "Keiou Yuugekitai (Japan) (Track 10).bin" BINARY
  TRACK 10 AUDIO
    INDEX 00 00:00:00
    INDEX 01 00:01:74
FILE "Keiou Yuugekitai (Japan) (Track 11).bin" BINARY
  TRACK 11 AUDIO
    INDEX 00 00:00:00
    INDEX 01 00:01:74
FILE "Keiou Yuugekitai (Japan) (Track 12).bin" BINARY
  TRACK 12 AUDIO
    INDEX 00 00:00:00
    INDEX 01 00:01:74
FILE "Keiou Yuugekitai (Japan) (Track 13).bin" BINARY
  TRACK 13 AUDIO
    INDEX 00 00:00:00
    INDEX 01 00:01:74
FILE "Keiou Yuugekitai (Japan) (Track 14).bin" BINARY
  TRACK 14 AUDIO
    INDEX 00 00:00:00
    INDEX 01 00:01:74
FILE "Keiou Yuugekitai (Japan) (Track 15).bin" BINARY
  TRACK 15 AUDIO
    INDEX 00 00:00:00
    INDEX 01 00:01:74
FILE "Keiou Yuugekitai (Japan) (Track 16).bin" BINARY
  TRACK 16 AUDIO
    INDEX 00 00:00:00
    INDEX 01 00:01:74
FILE "Keiou Yuugekitai (Japan) (Track 17).bin" BINARY
  TRACK 17 AUDIO
    INDEX 00 00:00:00
    INDEX 01 00:01:74
FILE "Keiou Yuugekitai (Japan) (Track 18).bin" BINARY
  TRACK 18 AUDIO
    INDEX 00 00:00:00
    INDEX 01 00:01:74
FILE "Keiou Yuugekitai (Japan) (Track 19).bin" BINARY
  TRACK 19 AUDIO
    INDEX 00 00:00:00
    INDEX 01 00:01:74
FILE "Keiou Yuugekitai (Japan) (Track 20).bin" BINARY
  TRACK 20 AUDIO
    INDEX 00 00:00:00
    INDEX 01 00:01:74
FILE "Keiou Yuugekitai (Japan) (Track 21).bin" BINARY
  TRACK 21 AUDIO
    INDEX 00 00:00:00
    INDEX 01 00:01:74
FILE "Keiou Yuugekitai (Japan) (Track 22).bin" BINARY
  TRACK 22 AUDIO
    INDEX 00 00:00:00
    INDEX 01 00:01:74
FILE "Keiou Yuugekitai (Japan) (Track 23).bin" BINARY
  TRACK 23 AUDIO
    INDEX 00 00:00:00
    INDEX 01 00:01:74
FILE "Keiou Yuugekitai (Japan) (Track 24).bin" BINARY
  TRACK 24 AUDIO
    INDEX 00 00:00:00
    INDEX 01 00:01:74
FILE "Keiou Yuugekitai (Japan) (Track 25).bin" BINARY
  TRACK 25 AUDIO
    INDEX 00 00:00:00
    INDEX 01 00:01:74

    Write Offset: 1474

https://cdn.discordapp.com/attachments/ … i_Japan.7z