Common Disc Info:
    Title: Tengai Makyou: Dennou Karakuri Kakutouden
    Foreign Title (Non-latin): 天外魔境電脳絡繰格闘伝
    Disc Number / Letter: (OPTIONAL)
    Disc Title: (OPTIONAL)
    System: NEC PC-FX / PC-FXGA
    Media Type: CD-ROM
    Category: Games
    Matching IDs: 57885
    Region: Japan
    Languages: Japanese
    Disc Serial: FXHUD503

    Ringcode Information:
        Mastering Code (laser branded/etched): FXHUD503   HHUD0306232SAAS
        Mastering SID Code:
        Data-Side Mould SID Code: IFPI 9901
        Label-Side Mould SID Code:
        Additional Mould:
        Toolstamp or Mastering Code (engraved/stamped):
    Barcode: (OPTIONAL)
    Error Count: 0
    Comments: (OPTIONAL)
    Contents: (OPTIONAL)

Version and Editions:
    Version:
    Edition/Release: Original

Extras:
    Primary Volume Descriptor (PVD): Disc has no PVD

Tracks and Write Offsets:
    DAT:

<rom name="Tengai Makyou Dennou Karakuri Kakutouden (Japan) (Track 01).bin" size="9807840" crc="83a41b9e" md5="5399ffa1a8b1f9d6a273dac04c80a48a" sha1="bf8c92c5f578e74fc27e1ed808f6a0069669415e" />
<rom name="Tengai Makyou Dennou Karakuri Kakutouden (Japan) (Track 02).bin" size="12571440" crc="7cb391c8" md5="449bc9327f7f1a86e46daaf98aab1686" sha1="4d82f15292cbdacb2a11c57774fb448c5ca1e28b" />
<rom name="Tengai Makyou Dennou Karakuri Kakutouden (Japan) (Track 03).bin" size="41418720" crc="7f65d3c7" md5="e26f86e355487ec0ed77f28cf9bf4973" sha1="44fa7157843531706f9c6e99733bd1c21144742e" />
<rom name="Tengai Makyou Dennou Karakuri Kakutouden (Japan) (Track 04).bin" size="52059168" crc="06964c78" md5="ccd9b674cf73ebeb6662dbf38ae156c9" sha1="0a8ca79512747fba5ceb4e0c707e9bd50e9bdd36" />
<rom name="Tengai Makyou Dennou Karakuri Kakutouden (Japan) (Track 05).bin" size="59865456" crc="7f319492" md5="b66f1131403c8799512755489b6674a5" sha1="acef1fc977ffb477e56a473cb6752a87c2cc6e86" />
<rom name="Tengai Makyou Dennou Karakuri Kakutouden (Japan) (Track 06).bin" size="62123376" crc="6de26017" md5="8a5c1300e77fbe7667d9cc79fc41d152" sha1="c791b7c06d66a7cd2e156afe3dbc825f7f74f7a6" />
<rom name="Tengai Makyou Dennou Karakuri Kakutouden (Japan) (Track 07).bin" size="65747808" crc="711d512d" md5="f7458521e5e69ba3d33ff969fff72856" sha1="06c074183308d447f83c595eeb3aa0107c777509" />
<rom name="Tengai Makyou Dennou Karakuri Kakutouden (Japan) (Track 08).bin" size="65065728" crc="124fc802" md5="1ad0440dff5176b3b6803454133a0c42" sha1="3c4e21d1b172e2499e10f8c374fa8be1ea504aef" />
<rom name="Tengai Makyou Dennou Karakuri Kakutouden (Japan) (Track 09).bin" size="84667296" crc="1c8ade6f" md5="962346ccaf61a74ea4996527f2ac0200" sha1="63e82c218ee5c23c8ab1e2c48b9cf37493eecb77" />
<rom name="Tengai Makyou Dennou Karakuri Kakutouden (Japan) (Track 10).bin" size="52917648" crc="b20c9637" md5="b2b228887c7bcdf23d168dc953e7a17d" sha1="8f15bc3e3cbf52d5e3d331b8c6d2ac6feac3e1f8" />
<rom name="Tengai Makyou Dennou Karakuri Kakutouden (Japan) (Track 11).bin" size="58745904" crc="d6d015a0" md5="31351ece59b91582f0107ffb4b84f349" sha1="7b0628ad6d5ddcac1d147af9477e621eaa2a912a" />
<rom name="Tengai Makyou Dennou Karakuri Kakutouden (Japan) (Track 12).bin" size="48641712" crc="104fbc7b" md5="a391bc7108b6896a62201cb8e268c07c" sha1="3c9ca7d7a2039ae624b0e91a036339ed26e5c620" />
<rom name="Tengai Makyou Dennou Karakuri Kakutouden (Japan) (Track 13).bin" size="44135280" crc="51a51b3a" md5="6d015e52dd0e03274bf620a896028c56" sha1="3d3b41911326268ce4a5293617471e19f9442b28" />

    Cuesheet:

CATALOG 0000000000000
FILE "Tengai Makyou Dennou Karakuri Kakutouden (Japan) (Track 01).bin" BINARY
  TRACK 01 AUDIO
    INDEX 01 00:00:00
FILE "Tengai Makyou Dennou Karakuri Kakutouden (Japan) (Track 02).bin" BINARY
  TRACK 02 MODE1/2352
    INDEX 00 00:00:00
    INDEX 01 00:03:00
FILE "Tengai Makyou Dennou Karakuri Kakutouden (Japan) (Track 03).bin" BINARY
  TRACK 03 MODE1/2352
    INDEX 01 00:00:00
FILE "Tengai Makyou Dennou Karakuri Kakutouden (Japan) (Track 04).bin" BINARY
  TRACK 04 MODE1/2352
    INDEX 01 00:00:00
FILE "Tengai Makyou Dennou Karakuri Kakutouden (Japan) (Track 05).bin" BINARY
  TRACK 05 MODE1/2352
    INDEX 01 00:00:00
FILE "Tengai Makyou Dennou Karakuri Kakutouden (Japan) (Track 06).bin" BINARY
  TRACK 06 MODE1/2352
    INDEX 01 00:00:00
FILE "Tengai Makyou Dennou Karakuri Kakutouden (Japan) (Track 07).bin" BINARY
  TRACK 07 MODE1/2352
    INDEX 01 00:00:00
FILE "Tengai Makyou Dennou Karakuri Kakutouden (Japan) (Track 08).bin" BINARY
  TRACK 08 MODE1/2352
    INDEX 01 00:00:00
FILE "Tengai Makyou Dennou Karakuri Kakutouden (Japan) (Track 09).bin" BINARY
  TRACK 09 MODE1/2352
    INDEX 01 00:00:00
FILE "Tengai Makyou Dennou Karakuri Kakutouden (Japan) (Track 10).bin" BINARY
  TRACK 10 MODE1/2352
    INDEX 01 00:00:00
FILE "Tengai Makyou Dennou Karakuri Kakutouden (Japan) (Track 11).bin" BINARY
  TRACK 11 MODE1/2352
    INDEX 01 00:00:00
FILE "Tengai Makyou Dennou Karakuri Kakutouden (Japan) (Track 12).bin" BINARY
  TRACK 12 MODE1/2352
    INDEX 01 00:00:00
FILE "Tengai Makyou Dennou Karakuri Kakutouden (Japan) (Track 13).bin" BINARY
  TRACK 13 MODE1/2352
    INDEX 01 00:00:00

    Write Offset: 222

https://cdn.discordapp.com/attachments/ … n_Japan.7z