Common Disc Info:
    Title: Battle Heat
    Foreign Title (Non-latin): バトル・ヒート
    Disc Number / Letter: (OPTIONAL)
    Disc Title: (OPTIONAL)
    System: NEC PC-FX / PC-FXGA
    Media Type: CD-ROM
    Category: Games
    Matching IDs: 35926
    Region: Japan
    Languages: Japanese
    Disc Serial: FXHUD401

    Ringcode Information:
        Mastering Code (laser branded/etched): FXHUD401   HHUD0110312SABS
        Mastering SID Code:
        Data-Side Mould SID Code:
        Label-Side Mould SID Code:
        Additional Mould:
        Toolstamp or Mastering Code (engraved/stamped):
    Barcode: (OPTIONAL)
    Error Count: 1
    Comments: (OPTIONAL)
    Contents: (OPTIONAL)

Version and Editions:
    Version:
    Edition/Release: Original

Extras:
    Primary Volume Descriptor (PVD): Disc has no PVD

Tracks and Write Offsets:
    DAT:

<rom name="Battle Heat (Japan) (Track 01).bin" size="9984240" crc="ffbd46cf" md5="fd4de25e8dc4adfdca7d23487eb18616" sha1="6f2693dbcf9cbec5ee4799539a73e69ecb633974" />
<rom name="Battle Heat (Japan) (Track 02).bin" size="4370016" crc="a11d738c" md5="75dd6cb5b5cfa2f46e910af29faa09c8" sha1="c1bbbf6812349214029ef4689aa21092c3540d65" />
<rom name="Battle Heat (Japan) (Track 03).bin" size="23472960" crc="5279aedb" md5="9cdd6f43d2ee73d7427c4274218ce58f" sha1="8ad1b974b9a7853dcbda84198c40371d043eca14" />
<rom name="Battle Heat (Japan) (Track 04).bin" size="45431232" crc="9c399232" md5="1c93c048d9fb89cc0098c1c6fd6ac294" sha1="f7f57fc408d609af7afbca6e3b99c03507c97472" />
<rom name="Battle Heat (Japan) (Track 05).bin" size="9749040" crc="94950e78" md5="583dc57fed216ca0e4ec2e0c299127bc" sha1="cdaf5d8c1ee798630a34c397f4cd5a6841103e7c" />
<rom name="Battle Heat (Japan) (Track 06).bin" size="3034080" crc="46b2541c" md5="40faa5abf5a41442de63a9b1846c869d" sha1="84d97233057c691f7adc56d58d16df581c7a0118" />
<rom name="Battle Heat (Japan) (Track 07).bin" size="142968672" crc="102113da" md5="0a613f11e99661885051ec5c9c956909" sha1="402a6f116621ea644136649c0893622d1671f6a4" />
<rom name="Battle Heat (Japan) (Track 08).bin" size="43596672" crc="c69d5399" md5="51b80e8585244282575e2ca93124fa2a" sha1="06629ab4bcc35dbfb5f63024f0dbbbb5385159ad" />
<rom name="Battle Heat (Japan) (Track 09).bin" size="53002320" crc="5a77fcc7" md5="57e49bd19967e82cae56009768cdf87b" sha1="7c6812d9a6de52e1ffbd4bc56d2b45beb75d1189" />
<rom name="Battle Heat (Japan) (Track 10).bin" size="28221648" crc="6a20958b" md5="39a3fdb864e2e829affebdfd31b80e1c" sha1="998fca2989e0ae4db5a0690ddde4fe61481ac7c3" />
<rom name="Battle Heat (Japan) (Track 11).bin" size="23155440" crc="829673a0" md5="6821012e015226a750e81f7b419bdde5" sha1="490b429b4228cd53a444c45783ae9fd97bab8d0c" />
<rom name="Battle Heat (Japan) (Track 12).bin" size="31820208" crc="c48b1bef" md5="3db528f7134c2651248703d5a551846e" sha1="f39cf0e623113dadaea1102a53f1327783c9c673" />
<rom name="Battle Heat (Japan) (Track 13).bin" size="39577104" crc="e04d852c" md5="27aea0670274e59f0353deee0a327b65" sha1="465dc80df3ec149abd82a3104df9c5b812547cf1" />
<rom name="Battle Heat (Japan) (Track 14).bin" size="25674432" crc="4b962a82" md5="ac89437d47c64812b56f5d0255570364" sha1="e29d60647ff2ddd6580856e29cece850bcb1f6d0" />
<rom name="Battle Heat (Japan) (Track 15).bin" size="24947664" crc="1815a27e" md5="94f6fd81ff0e9d5452d492d333f3ff88" sha1="40f4e499300f2f0bda07cc6fb94c248c71c2898e" />
<rom name="Battle Heat (Japan) (Track 16).bin" size="43596672" crc="3e25b7d3" md5="a7bc44c7f848bd2279528eedf302d0f8" sha1="44ec488bedc50e487ac7b505ffe12bcad8b160f3" />
<rom name="Battle Heat (Japan) (Track 17).bin" size="53002320" crc="7f6f6ce9" md5="742349a3e971d04c0e5bdceb6f7c636e" sha1="2dc4086a428903bd382760246376c961c8cc6d58" />
<rom name="Battle Heat (Japan) (Track 18).bin" size="28593264" crc="97720aac" md5="e9faab3b944a2515c7c6e3bc2212d9f5" sha1="ccf567c04b82e23646ba655444340ea3668fe64e" />
<rom name="Battle Heat (Japan) (Track 19).bin" size="24773616" crc="9a2bd8bb" md5="b2a55ed688b32ac7020f9c4c33bfa420" sha1="ff0d18c0ac95fef94740165e3a757b3831b40d65" />
<rom name="Battle Heat (Japan) (Track 20).bin" size="31820208" crc="733cd8d1" md5="a3f683fdf028e976ea177524ba2a28cf" sha1="84d7036c5e34e12872ad6c9bb548bd894be1dadd" />
<rom name="Battle Heat (Japan) (Track 21).bin" size="39577104" crc="d1003684" md5="81bfb65011069a2bb4254bfa991005d1" sha1="fb08dbdef1587ed742ecec29735eabf6080f480c" />
<rom name="Battle Heat (Japan) (Track 22).bin" size="3036432" crc="f05ef9d1" md5="879b50f013dcb3b8f1978c2686e160b7" sha1="6196c344fa902b27e977e1aadb804d7a31585752" />

    Cuesheet:

FILE "Battle Heat (Japan) (Track 01).bin" BINARY
  TRACK 01 AUDIO
    INDEX 01 00:00:00
FILE "Battle Heat (Japan) (Track 02).bin" BINARY
  TRACK 02 MODE1/2352
    INDEX 00 00:00:00
    INDEX 01 00:02:00
FILE "Battle Heat (Japan) (Track 03).bin" BINARY
  TRACK 03 AUDIO
    INDEX 00 00:00:00
    INDEX 01 00:02:00
FILE "Battle Heat (Japan) (Track 04).bin" BINARY
  TRACK 04 AUDIO
    INDEX 01 00:00:00
FILE "Battle Heat (Japan) (Track 05).bin" BINARY
  TRACK 05 MODE1/2352
    INDEX 00 00:00:00
    INDEX 01 00:02:00
FILE "Battle Heat (Japan) (Track 06).bin" BINARY
  TRACK 06 MODE1/2352
    INDEX 01 00:00:00
FILE "Battle Heat (Japan) (Track 07).bin" BINARY
  TRACK 07 MODE1/2352
    INDEX 01 00:00:00
FILE "Battle Heat (Japan) (Track 08).bin" BINARY
  TRACK 08 MODE1/2352
    INDEX 01 00:00:00
FILE "Battle Heat (Japan) (Track 09).bin" BINARY
  TRACK 09 MODE1/2352
    INDEX 01 00:00:00
FILE "Battle Heat (Japan) (Track 10).bin" BINARY
  TRACK 10 MODE1/2352
    INDEX 01 00:00:00
FILE "Battle Heat (Japan) (Track 11).bin" BINARY
  TRACK 11 MODE1/2352
    INDEX 01 00:00:00
FILE "Battle Heat (Japan) (Track 12).bin" BINARY
  TRACK 12 MODE1/2352
    INDEX 01 00:00:00
FILE "Battle Heat (Japan) (Track 13).bin" BINARY
  TRACK 13 MODE1/2352
    INDEX 01 00:00:00
FILE "Battle Heat (Japan) (Track 14).bin" BINARY
  TRACK 14 MODE1/2352
    INDEX 01 00:00:00
FILE "Battle Heat (Japan) (Track 15).bin" BINARY
  TRACK 15 MODE1/2352
    INDEX 01 00:00:00
FILE "Battle Heat (Japan) (Track 16).bin" BINARY
  TRACK 16 MODE1/2352
    INDEX 01 00:00:00
FILE "Battle Heat (Japan) (Track 17).bin" BINARY
  TRACK 17 MODE1/2352
    INDEX 01 00:00:00
FILE "Battle Heat (Japan) (Track 18).bin" BINARY
  TRACK 18 MODE1/2352
    INDEX 01 00:00:00
FILE "Battle Heat (Japan) (Track 19).bin" BINARY
  TRACK 19 MODE1/2352
    INDEX 01 00:00:00
FILE "Battle Heat (Japan) (Track 20).bin" BINARY
  TRACK 20 MODE1/2352
    INDEX 01 00:00:00
FILE "Battle Heat (Japan) (Track 21).bin" BINARY
  TRACK 21 MODE1/2352
    INDEX 01 00:00:00
FILE "Battle Heat (Japan) (Track 22).bin" BINARY
  TRACK 22 MODE1/2352
    INDEX 01 00:00:00

    Write Offset: 392

https://cdn.discordapp.com/attachments/ … t_Japan.7z