Common Disc Info:
    Title: Segata Sanshirou: Shinken Yuugi
    Foreign Title (Non-latin): せがた三四郎~真剣遊戯~
    Disc Number / Letter: (OPTIONAL)
    Disc Title: (OPTIONAL)
    System: Sega Saturn
    Media Type: CD-ROM
    Category: Games
    Matching IDs: 29104
    Region: Japan
    Languages: Japanese
    Disc Serial: GS-9204

    Ringcode Information:
        Mastering Code (laser branded/etched): GS-9204P-02439   A
        Mastering SID Code:
        Data-Side Mould SID Code: IFPI 3Q05
        Label-Side Mould SID Code:
        Additional Mould:
        Toolstamp or Mastering Code (engraved/stamped):
    Barcode: (OPTIONAL)
    EXE/Build Date: 19981001
    Error Count: 0
    Comments: (OPTIONAL)
    Contents: (OPTIONAL)

Version and Editions:
    Version: V1.001
    Edition/Release: Original

Extras:
    Primary Volume Descriptor (PVD):

0320 : 20 20 20 20 20 20 20 20  20 20 20 20 20 31 39 39                199
0330 : 38 31 30 30 31 32 31 32  35 35 30 30 30 14 31 39   8100121255000.19
0340 : 39 38 31 30 30 31 32 31  32 35 35 30 30 30 14 30   98100121255000.0
0350 : 30 30 30 30 30 30 30 30  30 30 30 30 30 30 30 00   000000000000000.
0360 : 30 30 30 30 30 30 30 30  30 30 30 30 30 30 30 30   0000000000000000
0370 : 00 01 00 00 00 00 00 00  00 00 00 00 00 00 00 00   ................

    Header:

0000 : 53 45 47 41 20 53 45 47  41 53 41 54 55 52 4E 20   SEGA SEGASATURN 
0010 : 53 45 47 41 20 45 4E 54  45 52 50 52 49 53 45 53   SEGA ENTERPRISES
0020 : 47 53 2D 39 32 30 34 20  20 20 56 31 2E 30 30 31   GS-9204   V1.001
0030 : 31 39 39 38 31 30 30 31  43 44 2D 31 2F 31 20 20   19981001CD-1/1  
0040 : 4A 20 20 20 20 20 20 20  20 20 20 20 20 20 20 20   J               
0050 : 4A 20 20 20 20 20 20 20  20 20 20 20 20 20 20 20   J               
0060 : 53 45 47 41 54 41 20 53  41 4E 53 48 49 52 4F 55   SEGATA SANSHIROU
0070 : 20 53 49 4E 4B 45 4E 59  55 55 47 49 20 20 20 20    SINKENYUUGI    
0080 : 20 20 20 20 20 20 20 20  20 20 20 20 20 20 20 20                   
0090 : 20 20 20 20 20 20 20 20  20 20 20 20 20 20 20 20                   
00A0 : 20 20 20 20 20 20 20 20  20 20 20 20 20 20 20 20                   
00B0 : 20 20 20 20 20 20 20 20  20 20 20 20 20 20 20 20                   
00C0 : 20 20 20 20 20 20 20 20  20 20 20 20 20 20 20 20                   
00D0 : 00 00 00 00 00 00 00 00  00 00 00 00 00 00 00 00   ................
00E0 : 00 00 18 00 00 00 00 00  00 00 00 00 00 00 00 00   ................
00F0 : 06 00 40 00 00 00 00 00  00 00 00 00 00 00 00 00   ..@.............

Tracks and Write Offsets:
    DAT:

<rom name="Segata Sanshirou Shinken Yuugi (Japan) (Track 1).bin" size="311785824" crc="08ef7f55" md5="3da904c5fef3a39ddbfe74856f5bc5dc" sha1="e714c363930db1c33225aa044735e65d3a80999b" />
<rom name="Segata Sanshirou Shinken Yuugi (Japan) (Track 2).bin" size="18811296" crc="4371589e" md5="7d00dd7853d2e8a65dd2f9e2f360300f" sha1="407d3a06f49549914a8a9d46b814098d5a29486c" />
<rom name="Segata Sanshirou Shinken Yuugi (Japan) (Track 3).bin" size="3880800" crc="c79754ad" md5="febdd82f4bbdbcad4ed9cb7dcdb450e1" sha1="1eb43bf5c648aad7f5b7b8a9c36424b23a471dd3" />

    Cuesheet:

FILE "Segata Sanshirou Shinken Yuugi (Japan) (Track 1).bin" BINARY
  TRACK 01 MODE1/2352
    INDEX 01 00:00:00
FILE "Segata Sanshirou Shinken Yuugi (Japan) (Track 2).bin" BINARY
  TRACK 02 MODE2/2352
    INDEX 00 00:00:00
    INDEX 01 00:02:00
FILE "Segata Sanshirou Shinken Yuugi (Japan) (Track 3).bin" BINARY
  TRACK 03 AUDIO
    INDEX 00 00:00:00
    INDEX 01 00:02:00

    Write Offset: 18

https://cdn.discordapp.com/attachments/ … i_Japan.7z