Common Disc Info:
    Title: Spot Goes to Hollywood
    Foreign Title (Non-latin): スポット・ゴーズ・トゥー・ハリウッド
    Disc Number / Letter: (OPTIONAL)
    Disc Title: (OPTIONAL)
    System: Sega Saturn
    Media Type: CD-ROM
    Category: Games
    Matching IDs: 25363
    Region: Japan
    Languages: Japanese
    Disc Serial: T-7014G

    Ringcode Information:
        Mastering Code (laser branded/etched): T-7014GP-01256   1MM1   C   6Z
        Mastering SID Code: IFPI L223
        Data-Side Mould SID Code: IFPI 3913
        Label-Side Mould SID Code:
        Additional Mould:
        Toolstamp or Mastering Code (engraved/stamped):
    Barcode: (OPTIONAL)
    EXE/Build Date: 19961107
    Error Count: 0
    Comments: English ingame text, videos are dubbed in Japanese.
    Contents: (OPTIONAL)

Version and Editions:
    Version: V1.000
    Edition/Release: Original

Extras:
    Primary Volume Descriptor (PVD):

0320 : 20 20 20 20 20 20 20 20  20 20 20 20 20 31 39 39                199
0330 : 36 31 31 32 31 32 30 30  30 30 30 30 30 24 31 39   6112120000000$19
0340 : 39 36 31 31 32 31 32 30  30 30 30 30 30 30 24 30   96112120000000$0
0350 : 30 30 30 30 30 30 30 30  30 30 30 30 30 30 30 00   000000000000000.
0360 : 30 30 30 30 30 30 30 30  30 30 30 30 30 30 30 30   0000000000000000
0370 : 00 01 00 00 00 00 00 00  00 00 00 00 00 00 00 00   ................

    Header:

0000 : 53 45 47 41 20 53 45 47  41 53 41 54 55 52 4E 20   SEGA SEGASATURN 
0010 : 53 45 47 41 20 54 50 20  54 2D 37 30 20 20 20 20   SEGA TP T-70    
0020 : 54 2D 37 30 31 34 47 20  20 20 56 31 2E 30 30 30   T-7014G   V1.000
0030 : 31 39 39 36 31 31 30 37  43 44 2D 31 2F 31 20 20   19961107CD-1/1  
0040 : 4A 54 20 20 20 20 20 20  20 20 20 20 20 20 20 20   JT              
0050 : 4A 20 20 20 20 20 20 20  20 20 20 20 20 20 20 20   J               
0060 : 53 50 4F 54 20 47 4F 45  53 20 54 4F 20 48 4F 4C   SPOT GOES TO HOL
0070 : 4C 59 57 4F 4F 44 20 20  20 20 20 20 20 20 20 20   LYWOOD          
0080 : 20 20 20 20 20 20 20 20  20 20 20 20 20 20 20 20                   
0090 : 20 20 20 20 20 20 20 20  20 20 20 20 20 20 20 20                   
00A0 : 20 20 20 20 20 20 20 20  20 20 20 20 20 20 20 20                   
00B0 : 20 20 20 20 20 20 20 20  20 20 20 20 20 20 20 20                   
00C0 : 20 20 20 20 20 20 20 20  20 20 20 20 20 20 20 20                   
00D0 : 00 00 00 00 00 00 00 00  00 00 00 00 00 00 00 00   ................
00E0 : 00 00 0F 0C 00 00 00 00  00 00 00 00 00 00 00 00   ................
00F0 : 06 00 40 00 00 00 00 00  00 00 00 00 00 00 00 00   ..@.............

Tracks and Write Offsets:
    DAT:

<rom name="Spot Goes To Hollywood (Japan) (Track 01).bin" size="188872656" crc="4ed9f08d" md5="59096b8bcc7e0565ed3ba5351b159074" sha1="46eec324706b00cd58de3ac737908b26bd5b6b89" />
<rom name="Spot Goes To Hollywood (Japan) (Track 02).bin" size="18914784" crc="4e8acc95" md5="b02c86ec966567094107e6714896800e" sha1="2970fec65c30e225d019dc5495cc56af55b00f40" />
<rom name="Spot Goes To Hollywood (Japan) (Track 03).bin" size="20163696" crc="ff2fee08" md5="860e905a9e1175b3929780824b2e410a" sha1="f3034b00d409ddc234daa97f21254e572c4f9b42" />
<rom name="Spot Goes To Hollywood (Japan) (Track 04).bin" size="21817152" crc="ac4612df" md5="2f4711fe9be6437e755cd7476d6a4e38" sha1="049f99132f2c90843f90e1f226005e3d0851169c" />
<rom name="Spot Goes To Hollywood (Japan) (Track 05).bin" size="11447184" crc="5643b7fd" md5="713218b9f7633c595dcb188db7b81d6a" sha1="9ee106252170aabcac2be4c736fdbf0005fa5a56" />
<rom name="Spot Goes To Hollywood (Japan) (Track 06).bin" size="23127216" crc="b7e6d065" md5="4606817a4b6cda656324c01d53117c11" sha1="dc51e50b5b04ea365359703423068346b66026c7" />
<rom name="Spot Goes To Hollywood (Japan) (Track 07).bin" size="30785328" crc="cb30e83d" md5="5d760bb6cdd6bbd64335c3024d653004" sha1="ee73106a1b454a676decf3476ebca326ab01b78d" />
<rom name="Spot Goes To Hollywood (Japan) (Track 08).bin" size="19937904" crc="01ecd084" md5="a32b701e6b6ab5a9ac70e970aabefd9f" sha1="c0f8f1eac4fcd1cbb2fab2e6e3cb20953d2d5572" />
<rom name="Spot Goes To Hollywood (Japan) (Track 09).bin" size="22240512" crc="bf585f5d" md5="83a1eed8f802181e445056bcbd894126" sha1="005dd0d9c9fe7ada0785a258908e6af3acd4ed15" />
<rom name="Spot Goes To Hollywood (Japan) (Track 10).bin" size="19573344" crc="417d4ac6" md5="9f6f3a0602258111d8a2afdf58c699ec" sha1="d0da97f1d3c2282f2c14fd6f462167563d4cd2ea" />
<rom name="Spot Goes To Hollywood (Japan) (Track 11).bin" size="18905376" crc="d8792780" md5="130f94c84842446dfc04bf241382331b" sha1="00960a803599539c58d8775684cae72fb4e52781" />
<rom name="Spot Goes To Hollywood (Japan) (Track 12).bin" size="6790224" crc="dad15282" md5="eb40ae3b44ebcba130a96211da704784" sha1="30ae39fbb9098425e54ede55aa7f9328c5771ac1" />
<rom name="Spot Goes To Hollywood (Japan) (Track 13).bin" size="21850080" crc="0dbb3a6f" md5="2d4d22e71dd2940ddb99aabdc84ff192" sha1="167774a9f02f7f3eda158cd2d946a0061e058118" />
<rom name="Spot Goes To Hollywood (Japan) (Track 14).bin" size="21259728" crc="d9ea1dea" md5="54ef145fe93f487b86ee37cbcb77f1b6" sha1="d6812701d561c7d64dd01f5176ce0bfc18e8783e" />
<rom name="Spot Goes To Hollywood (Japan) (Track 15).bin" size="22193472" crc="f1d9a25d" md5="36f8ee351b0060ca4460ec043c8bf562" sha1="ffa10021ae8d8648fa9101e62591dc7595156ce9" />
<rom name="Spot Goes To Hollywood (Japan) (Track 16).bin" size="27109152" crc="f1c8bc7b" md5="71405386e9972f183b14f542736defeb" sha1="055d95658420e67f1b08c98863298150cdf9cc33" />
<rom name="Spot Goes To Hollywood (Japan) (Track 17).bin" size="20222496" crc="2fdf5508" md5="2449aeeeabe96fb5109944bb07ff6c9c" sha1="b8059477dbb613c16485883ec2438afccb430aba" />
<rom name="Spot Goes To Hollywood (Japan) (Track 18).bin" size="23853984" crc="3adca1c6" md5="5e2906c36d2a4d3749394fd944d4835c" sha1="015f019d7b5a336450b09827172732ebeecc7dbd" />
<rom name="Spot Goes To Hollywood (Japan) (Track 19).bin" size="17193120" crc="45e5ba3a" md5="8ddbd05430a17a17ba38d04e6df07885" sha1="13145d931f767d9f305490b3f7ffa9fbfcd6b6d6" />
<rom name="Spot Goes To Hollywood (Japan) (Track 20).bin" size="20594112" crc="d2e8ea66" md5="ea8695803bd06102fec77fe7b865c1ae" sha1="c0d329b553bae650255d78fe5b72b178a64d162c" />
<rom name="Spot Goes To Hollywood (Japan) (Track 21).bin" size="23009616" crc="51699618" md5="18ca02a6753a1280a7bd79b86b063195" sha1="31f4975d377a4a6cc0a58ebf8fed2c3cb0bffd75" />
<rom name="Spot Goes To Hollywood (Japan) (Track 22).bin" size="32238864" crc="072dea47" md5="3395287d706f316318cec522595bedb1" sha1="f24de6636fd7f4427a7ae02e589914e6871cb135" />
<rom name="Spot Goes To Hollywood (Japan) (Track 23).bin" size="5644800" crc="b2f0068b" md5="7c89115f9fded473566c01f790d16e84" sha1="413d80b81091810ffcb6118add73800567b2fe38" />

    Cuesheet:

CATALOG 0000000000000
FILE "Spot Goes To Hollywood (Japan) (Track 01).bin" BINARY
  TRACK 01 MODE1/2352
    INDEX 01 00:00:00
FILE "Spot Goes To Hollywood (Japan) (Track 02).bin" BINARY
  TRACK 02 AUDIO
    INDEX 00 00:00:00
    INDEX 01 00:02:00
FILE "Spot Goes To Hollywood (Japan) (Track 03).bin" BINARY
  TRACK 03 AUDIO
    INDEX 00 00:00:00
    INDEX 01 00:02:00
FILE "Spot Goes To Hollywood (Japan) (Track 04).bin" BINARY
  TRACK 04 AUDIO
    INDEX 00 00:00:00
    INDEX 01 00:02:00
FILE "Spot Goes To Hollywood (Japan) (Track 05).bin" BINARY
  TRACK 05 AUDIO
    INDEX 00 00:00:00
    INDEX 01 00:02:00
FILE "Spot Goes To Hollywood (Japan) (Track 06).bin" BINARY
  TRACK 06 AUDIO
    INDEX 00 00:00:00
    INDEX 01 00:02:00
FILE "Spot Goes To Hollywood (Japan) (Track 07).bin" BINARY
  TRACK 07 AUDIO
    INDEX 00 00:00:00
    INDEX 01 00:02:00
FILE "Spot Goes To Hollywood (Japan) (Track 08).bin" BINARY
  TRACK 08 AUDIO
    INDEX 00 00:00:00
    INDEX 01 00:02:00
FILE "Spot Goes To Hollywood (Japan) (Track 09).bin" BINARY
  TRACK 09 AUDIO
    INDEX 00 00:00:00
    INDEX 01 00:02:00
FILE "Spot Goes To Hollywood (Japan) (Track 10).bin" BINARY
  TRACK 10 AUDIO
    INDEX 00 00:00:00
    INDEX 01 00:02:00
FILE "Spot Goes To Hollywood (Japan) (Track 11).bin" BINARY
  TRACK 11 AUDIO
    INDEX 00 00:00:00
    INDEX 01 00:02:00
FILE "Spot Goes To Hollywood (Japan) (Track 12).bin" BINARY
  TRACK 12 AUDIO
    INDEX 00 00:00:00
    INDEX 01 00:02:00
FILE "Spot Goes To Hollywood (Japan) (Track 13).bin" BINARY
  TRACK 13 AUDIO
    INDEX 00 00:00:00
    INDEX 01 00:02:00
FILE "Spot Goes To Hollywood (Japan) (Track 14).bin" BINARY
  TRACK 14 AUDIO
    INDEX 00 00:00:00
    INDEX 01 00:02:00
FILE "Spot Goes To Hollywood (Japan) (Track 15).bin" BINARY
  TRACK 15 AUDIO
    INDEX 00 00:00:00
    INDEX 01 00:02:00
FILE "Spot Goes To Hollywood (Japan) (Track 16).bin" BINARY
  TRACK 16 AUDIO
    INDEX 00 00:00:00
    INDEX 01 00:02:00
FILE "Spot Goes To Hollywood (Japan) (Track 17).bin" BINARY
  TRACK 17 AUDIO
    INDEX 00 00:00:00
    INDEX 01 00:02:00
FILE "Spot Goes To Hollywood (Japan) (Track 18).bin" BINARY
  TRACK 18 AUDIO
    INDEX 00 00:00:00
    INDEX 01 00:02:00
FILE "Spot Goes To Hollywood (Japan) (Track 19).bin" BINARY
  TRACK 19 AUDIO
    INDEX 00 00:00:00
    INDEX 01 00:02:00
FILE "Spot Goes To Hollywood (Japan) (Track 20).bin" BINARY
  TRACK 20 AUDIO
    INDEX 00 00:00:00
    INDEX 01 00:02:00
FILE "Spot Goes To Hollywood (Japan) (Track 21).bin" BINARY
  TRACK 21 AUDIO
    INDEX 00 00:00:00
    INDEX 01 00:02:00
FILE "Spot Goes To Hollywood (Japan) (Track 22).bin" BINARY
  TRACK 22 AUDIO
    INDEX 00 00:00:00
    INDEX 01 00:02:00
FILE "Spot Goes To Hollywood (Japan) (Track 23).bin" BINARY
  TRACK 23 AUDIO
    INDEX 00 00:00:00
    INDEX 01 00:02:00

    Write Offset: 0

https://cdn.discordapp.com/attachments/ … d_Japan.7z