Common Disc Info:
    Title: Saturn Bomberman
    Foreign Title (Non-latin): サターン・ボンバーマン
    Disc Number / Letter: (OPTIONAL)
    Disc Title: (OPTIONAL)
    System: Sega Saturn
    Media Type: CD-ROM
    Category: Games
    Matching IDs: 35656
    Region: Japan
    Languages: Japanese
    Disc Serial: T-14305G

    Ringcode Information:
        Mastering Code (laser branded/etched): T-14305GP-01069   1M1   C   69
        Mastering SID Code: IFPI L223
        Data-Side Mould SID Code: IFPI 3925
        Label-Side Mould SID Code:
        Additional Mould:
        Toolstamp or Mastering Code (engraved/stamped):
    Barcode: (OPTIONAL)
    EXE/Build Date: 19960809
    Error Count: 0
    Comments: Niko Bomb Pic '96 (にこボンビック’96) a.k.a. "Master Game" starts, when no XBand modem is detected.
    Contents: (OPTIONAL)

Version and Editions:
    Version: V1.001
    Edition/Release: SegaNet Sen'you

Extras:
    Primary Volume Descriptor (PVD):

0320 : 20 20 20 20 20 20 20 20  20 20 20 20 20 31 39 39                199
0330 : 36 30 38 30 39 30 30 30  30 30 30 30 30 24 31 39   6080900000000$19
0340 : 39 36 30 38 30 39 30 30  30 30 30 30 30 30 24 30   96080900000000$0
0350 : 30 30 30 30 30 30 30 30  30 30 30 30 30 30 30 00   000000000000000.
0360 : 30 30 30 30 30 30 30 30  30 30 30 30 30 30 30 30   0000000000000000
0370 : 00 01 00 00 00 00 00 00  00 00 00 00 00 00 00 00   ................

    Header:

0000 : 53 45 47 41 20 53 45 47  41 53 41 54 55 52 4E 20   SEGA SEGASATURN 
0010 : 53 45 47 41 20 54 50 20  54 2D 31 34 33 20 20 20   SEGA TP T-143   
0020 : 54 2D 31 34 33 30 35 47  20 20 56 31 2E 30 30 31   T-14305G  V1.001
0030 : 31 39 39 36 30 38 30 39  43 44 2D 31 2F 31 20 20   19960809CD-1/1  
0040 : 4A 20 20 20 20 20 20 20  20 20 20 20 20 20 20 20   J               
0050 : 4A 58 20 20 20 20 20 20  20 20 20 20 20 20 20 20   JX              
0060 : 42 4F 4D 42 45 52 4D 41  4E 20 53 53 20 58 42 41   BOMBERMAN SS XBA
0070 : 4E 44 20 20 20 20 20 20  20 20 20 20 20 20 20 20   ND              
0080 : 20 20 20 20 20 20 20 20  20 20 20 20 20 20 20 20                   
0090 : 20 20 20 20 20 20 20 20  20 20 20 20 20 20 20 20                   
00A0 : 20 20 20 20 20 20 20 20  20 20 20 20 20 20 20 20                   
00B0 : 20 20 20 20 20 20 20 20  20 20 20 20 20 20 20 20                   
00C0 : 20 20 20 20 20 20 20 20  20 20 20 20 20 20 20 20                   
00D0 : 00 00 00 00 00 00 00 00  00 00 00 00 00 00 00 00   ................
00E0 : 00 00 10 00 00 00 00 00  00 00 00 00 00 00 00 00   ................
00F0 : 00 28 00 00 00 01 00 00  00 00 00 00 00 00 00 00   .(..............

Tracks and Write Offsets:
    DAT:

<rom name="Saturn Bomberman (SegaNet Sen'you) (Japan) (Track 01).bin" size="134179248" crc="dfe0943c" md5="c0b0757ca7b071fd07d95c8b0e066e85" sha1="cec813af9b08e473de3caeb0bf55d400508d6fd0" />
<rom name="Saturn Bomberman (SegaNet Sen'you) (Japan) (Track 02).bin" size="4330032" crc="78474846" md5="6531defb984015acdcf37f7f21ae924d" sha1="4021810cf777e9cba86b4514e73bee0d2fc88a9a" />
<rom name="Saturn Bomberman (SegaNet Sen'you) (Japan) (Track 03).bin" size="28529760" crc="45b06b77" md5="45f319e6ce6241b92638aadd8aa2958a" sha1="d575618568fc4cb8c5578c95c77293e10f4099d9" />
<rom name="Saturn Bomberman (SegaNet Sen'you) (Japan) (Track 04).bin" size="27269088" crc="bbc1be81" md5="f285b239b3c1093774f076f78e4d468c" sha1="c951308f8753e4f677e2fddabf499be7324e11bf" />
<rom name="Saturn Bomberman (SegaNet Sen'you) (Japan) (Track 05).bin" size="31688496" crc="778bd26a" md5="ef509620586ebc1108a3c5ce02bc0828" sha1="b54a4e486a391d034da0900ef2333a2622334b69" />
<rom name="Saturn Bomberman (SegaNet Sen'you) (Japan) (Track 06).bin" size="32570496" crc="b47bba2d" md5="aa51b345fc95dd0797eb32b220d68d9b" sha1="9e1d7a0320b08dcddb704c9a1fc1c4afc71c7c9f" />
<rom name="Saturn Bomberman (SegaNet Sen'you) (Japan) (Track 07).bin" size="27012720" crc="d11095e1" md5="4228d1352bb020fdd612e7ec04894864" sha1="8c5a2fc9183db5fe4f868d962670f8b8a86c943c" />
<rom name="Saturn Bomberman (SegaNet Sen'you) (Japan) (Track 08).bin" size="21995904" crc="c0a0dd73" md5="e18d2770344b630cee60c5ed20aa9bc6" sha1="99e480c5fcdb295ab3bb4d880319bf4cea7aa85e" />
<rom name="Saturn Bomberman (SegaNet Sen'you) (Japan) (Track 09).bin" size="20086080" crc="b84a9a3b" md5="315386683f6e68bbcd8d46b9241c5f14" sha1="e71e2f1d43e44b0b635a75ccf4611957b171249d" />
<rom name="Saturn Bomberman (SegaNet Sen'you) (Japan) (Track 10).bin" size="2721264" crc="6264df84" md5="565a6fd81df821936a2dceae666fac76" sha1="82d589cfbe01e3b92d880d4679d24c7bd6b5c7c4" />
<rom name="Saturn Bomberman (SegaNet Sen'you) (Japan) (Track 11).bin" size="31410960" crc="3a6eaa36" md5="70d67122214678fd4300d39ab10bd278" sha1="4b8de45b17e3fe829ba4f498ae48d32ef6f19baa" />
<rom name="Saturn Bomberman (SegaNet Sen'you) (Japan) (Track 12).bin" size="14984592" crc="633a2f9f" md5="22993881a7ef572e3f8054ac4bc14612" sha1="a3db3b28926222cb43f000dca4934246e2c26c1b" />
<rom name="Saturn Bomberman (SegaNet Sen'you) (Japan) (Track 13).bin" size="29270640" crc="211cc3a2" md5="7ef8f159a6983f6b8e375304ad6ba43d" sha1="46cbe0c742c169d8c5d3280dc830b8fc63d2387f" />
<rom name="Saturn Bomberman (SegaNet Sen'you) (Japan) (Track 14).bin" size="21878304" crc="8b703bf1" md5="e257e945a36b9d095eeeee447652960a" sha1="ba24f8b46e9bf68b1b5d22e6ba6ad3f8f941b902" />
<rom name="Saturn Bomberman (SegaNet Sen'you) (Japan) (Track 15).bin" size="7552272" crc="63bbf838" md5="0d12cd4fa6a5950bda1cbc115e2ca9f5" sha1="e9377e47b11c7b7c7e3c27fdf3fe67971c13e8f6" />
<rom name="Saturn Bomberman (SegaNet Sen'you) (Japan) (Track 16).bin" size="30726528" crc="383da04b" md5="4162c2aab163bce85a41e6e65934fbcc" sha1="b5f272981b7f6773774e1274119fa88eb18e7352" />
<rom name="Saturn Bomberman (SegaNet Sen'you) (Japan) (Track 17).bin" size="27527808" crc="e80be7f1" md5="758c4e59e657f17a26d618b32082f74c" sha1="05bd30d70c2b83348a742a99eff79dbbcf68e014" />
<rom name="Saturn Bomberman (SegaNet Sen'you) (Japan) (Track 18).bin" size="5482512" crc="aaa2bde1" md5="1394ce05cc9d90d5c8ad9cee34da63fa" sha1="37afe5cd2c40d0278ff34654b190f8b1d9474612" />
<rom name="Saturn Bomberman (SegaNet Sen'you) (Japan) (Track 19).bin" size="2389632" crc="bf7733b4" md5="56ecdfdd674f4c7727712896eb28d0c5" sha1="e9bdbfc189b138eace1ae80c7808a808346c5ae3" />
<rom name="Saturn Bomberman (SegaNet Sen'you) (Japan) (Track 20).bin" size="1458240" crc="a26b985b" md5="6872ce9962a3d0d994b34d672d0d0cfd" sha1="faafc92746312020445863c0a06ff530582770b8" />
<rom name="Saturn Bomberman (SegaNet Sen'you) (Japan) (Track 21).bin" size="1587600" crc="dfc77bcc" md5="f14917ea9a8938207cc53d7bdc8a3003" sha1="3f86298325508c823a7a683d1c8a8b9cd8d0dbe3" />
<rom name="Saturn Bomberman (SegaNet Sen'you) (Japan) (Track 22).bin" size="7371168" crc="af9426e0" md5="17c4863889d52508a515589b06776810" sha1="f7681f6eb56f43c6cafe07d32ad26f160aee21e8" />
<rom name="Saturn Bomberman (SegaNet Sen'you) (Japan) (Track 23).bin" size="6616176" crc="35eae470" md5="2f2f3b6968d53a9b896b779e89c21c3b" sha1="77d126b63d3c4cb64b805b129e4314f46093d464" />
<rom name="Saturn Bomberman (SegaNet Sen'you) (Japan) (Track 24).bin" size="7206528" crc="e1a3782d" md5="f067444568f840050467e2444c0e4054" sha1="ea1359a5fe88214ea55ebc9ffdeebee88809d704" />
<rom name="Saturn Bomberman (SegaNet Sen'you) (Japan) (Track 25).bin" size="7989744" crc="5226dff3" md5="b0c11266815ef6ed3dccf4073ce0f008" sha1="88b76c895d0c55c4f838cd1434f95ecabb5c8f82" />
<rom name="Saturn Bomberman (SegaNet Sen'you) (Japan) (Track 26).bin" size="7448784" crc="1d514186" md5="2829d1033dd4cab45c4be7e562781b2f" sha1="696d2835b434a6b84079592e709432ceb5228099" />
<rom name="Saturn Bomberman (SegaNet Sen'you) (Japan) (Track 27).bin" size="1378272" crc="06a10b88" md5="2e91f75467cfafad18c539ef6e821b4f" sha1="5130bd30780575a5fd5948311deccd876e767ab4" />
<rom name="Saturn Bomberman (SegaNet Sen'you) (Japan) (Track 28).bin" size="1427664" crc="e1ac7c99" md5="35b78166d14aba39f735d81b7d7c672c" sha1="aa9697f3eceaea4b7a3dda3e6dc4db669e3fef82" />
<rom name="Saturn Bomberman (SegaNet Sen'you) (Japan) (Track 29).bin" size="26913936" crc="ab3ad262" md5="9d99d8746dbb26cda5fd0a7e6d7b5c2e" sha1="ede9617065017d1ff2377f80bec887571ccfd4ae" />
<rom name="Saturn Bomberman (SegaNet Sen'you) (Japan) (Track 30).bin" size="1237152" crc="0c86f240" md5="3ed1777ab37e5200efbabe41c5982902" sha1="3f881c1991380787dfd5a38f9ae3a128bd86cf4c" />

    Cuesheet:

CATALOG 4988607201081
FILE "Saturn Bomberman (SegaNet Sen'you) (Japan) (Track 01).bin" BINARY
  TRACK 01 MODE1/2352
    INDEX 01 00:00:00
FILE "Saturn Bomberman (SegaNet Sen'you) (Japan) (Track 02).bin" BINARY
  TRACK 02 AUDIO
    INDEX 00 00:00:00
    INDEX 01 00:02:00
FILE "Saturn Bomberman (SegaNet Sen'you) (Japan) (Track 03).bin" BINARY
  TRACK 03 AUDIO
    INDEX 00 00:00:00
    INDEX 01 00:02:00
FILE "Saturn Bomberman (SegaNet Sen'you) (Japan) (Track 04).bin" BINARY
  TRACK 04 AUDIO
    INDEX 00 00:00:00
    INDEX 01 00:02:00
FILE "Saturn Bomberman (SegaNet Sen'you) (Japan) (Track 05).bin" BINARY
  TRACK 05 AUDIO
    INDEX 00 00:00:00
    INDEX 01 00:02:00
FILE "Saturn Bomberman (SegaNet Sen'you) (Japan) (Track 06).bin" BINARY
  TRACK 06 AUDIO
    INDEX 00 00:00:00
    INDEX 01 00:02:00
FILE "Saturn Bomberman (SegaNet Sen'you) (Japan) (Track 07).bin" BINARY
  TRACK 07 AUDIO
    INDEX 00 00:00:00
    INDEX 01 00:02:00
FILE "Saturn Bomberman (SegaNet Sen'you) (Japan) (Track 08).bin" BINARY
  TRACK 08 AUDIO
    INDEX 00 00:00:00
    INDEX 01 00:02:00
FILE "Saturn Bomberman (SegaNet Sen'you) (Japan) (Track 09).bin" BINARY
  TRACK 09 AUDIO
    INDEX 00 00:00:00
    INDEX 01 00:02:00
FILE "Saturn Bomberman (SegaNet Sen'you) (Japan) (Track 10).bin" BINARY
  TRACK 10 AUDIO
    INDEX 00 00:00:00
    INDEX 01 00:02:00
FILE "Saturn Bomberman (SegaNet Sen'you) (Japan) (Track 11).bin" BINARY
  TRACK 11 AUDIO
    INDEX 00 00:00:00
    INDEX 01 00:02:00
FILE "Saturn Bomberman (SegaNet Sen'you) (Japan) (Track 12).bin" BINARY
  TRACK 12 AUDIO
    INDEX 00 00:00:00
    INDEX 01 00:02:00
FILE "Saturn Bomberman (SegaNet Sen'you) (Japan) (Track 13).bin" BINARY
  TRACK 13 AUDIO
    INDEX 00 00:00:00
    INDEX 01 00:02:00
FILE "Saturn Bomberman (SegaNet Sen'you) (Japan) (Track 14).bin" BINARY
  TRACK 14 AUDIO
    INDEX 00 00:00:00
    INDEX 01 00:02:00
FILE "Saturn Bomberman (SegaNet Sen'you) (Japan) (Track 15).bin" BINARY
  TRACK 15 AUDIO
    INDEX 00 00:00:00
    INDEX 01 00:02:00
FILE "Saturn Bomberman (SegaNet Sen'you) (Japan) (Track 16).bin" BINARY
  TRACK 16 AUDIO
    INDEX 00 00:00:00
    INDEX 01 00:02:00
FILE "Saturn Bomberman (SegaNet Sen'you) (Japan) (Track 17).bin" BINARY
  TRACK 17 AUDIO
    INDEX 00 00:00:00
    INDEX 01 00:02:00
FILE "Saturn Bomberman (SegaNet Sen'you) (Japan) (Track 18).bin" BINARY
  TRACK 18 AUDIO
    INDEX 00 00:00:00
    INDEX 01 00:02:00
FILE "Saturn Bomberman (SegaNet Sen'you) (Japan) (Track 19).bin" BINARY
  TRACK 19 AUDIO
    INDEX 00 00:00:00
    INDEX 01 00:02:00
FILE "Saturn Bomberman (SegaNet Sen'you) (Japan) (Track 20).bin" BINARY
  TRACK 20 AUDIO
    INDEX 00 00:00:00
    INDEX 01 00:02:00
FILE "Saturn Bomberman (SegaNet Sen'you) (Japan) (Track 21).bin" BINARY
  TRACK 21 AUDIO
    INDEX 00 00:00:00
    INDEX 01 00:02:00
FILE "Saturn Bomberman (SegaNet Sen'you) (Japan) (Track 22).bin" BINARY
  TRACK 22 AUDIO
    INDEX 00 00:00:00
    INDEX 01 00:02:00
FILE "Saturn Bomberman (SegaNet Sen'you) (Japan) (Track 23).bin" BINARY
  TRACK 23 AUDIO
    INDEX 00 00:00:00
    INDEX 01 00:02:00
FILE "Saturn Bomberman (SegaNet Sen'you) (Japan) (Track 24).bin" BINARY
  TRACK 24 AUDIO
    INDEX 00 00:00:00
    INDEX 01 00:02:00
FILE "Saturn Bomberman (SegaNet Sen'you) (Japan) (Track 25).bin" BINARY
  TRACK 25 AUDIO
    INDEX 00 00:00:00
    INDEX 01 00:02:00
FILE "Saturn Bomberman (SegaNet Sen'you) (Japan) (Track 26).bin" BINARY
  TRACK 26 AUDIO
    INDEX 00 00:00:00
    INDEX 01 00:02:00
FILE "Saturn Bomberman (SegaNet Sen'you) (Japan) (Track 27).bin" BINARY
  TRACK 27 AUDIO
    INDEX 00 00:00:00
    INDEX 01 00:02:00
FILE "Saturn Bomberman (SegaNet Sen'you) (Japan) (Track 28).bin" BINARY
  TRACK 28 AUDIO
    INDEX 00 00:00:00
    INDEX 01 00:02:00
FILE "Saturn Bomberman (SegaNet Sen'you) (Japan) (Track 29).bin" BINARY
  TRACK 29 AUDIO
    INDEX 00 00:00:00
    INDEX 01 00:02:00
FILE "Saturn Bomberman (SegaNet Sen'you) (Japan) (Track 30).bin" BINARY
  TRACK 30 AUDIO
    INDEX 00 00:00:00
    INDEX 01 00:02:00

    Write Offset: 0

https://cdn.discordapp.com/attachments/ … u_Japan.7z