Common Disc Info:
    Title: The Lost World: Jurassic Park
    Foreign Title (Non-latin): ロスト・ワールド~ジュラシック・パーク~
    Disc Number / Letter: (OPTIONAL)
    Disc Title: (OPTIONAL)
    System: Sega Saturn
    Media Type: CD-ROM
    Category: Games
    Matching IDs: 25242
    Region: Japan
    Languages: English
    Disc Serial: GS-9162

    Ringcode Information:
        Mastering Code (laser branded/etched): GS-9162P-01891   1MM1   C   7X
        Mastering SID Code: IFPI L223
        Data-Side Mould SID Code: IFPI 3905
        Label-Side Mould SID Code:
        Additional Mould:
        Toolstamp or Mastering Code (engraved/stamped):
    Barcode: (OPTIONAL)
    EXE/Build Date: 19970918
    Error Count: 0
    Comments: (OPTIONAL)
    Contents: (OPTIONAL)

Version and Editions:
    Version: V1.002
    Edition/Release: Original

Extras:
    Primary Volume Descriptor (PVD):

0320 : 20 20 20 20 20 20 20 20  20 20 20 20 20 31 39 39                199
0330 : 37 30 39 31 38 31 31 31  30 30 36 30 30 14 31 39   7091811100600.19
0340 : 39 37 30 39 31 38 31 31  31 30 30 36 30 30 14 30   97091811100600.0
0350 : 30 30 30 30 30 30 30 30  30 30 30 30 30 30 30 00   000000000000000.
0360 : 30 30 30 30 30 30 30 30  30 30 30 30 30 30 30 30   0000000000000000
0370 : 00 01 00 00 00 00 00 00  00 00 00 00 00 00 00 00   ................

    Header:

0000 : 53 45 47 41 20 53 45 47  41 53 41 54 55 52 4E 20   SEGA SEGASATURN 
0010 : 53 45 47 41 20 45 4E 54  45 52 50 52 49 53 45 53   SEGA ENTERPRISES
0020 : 47 53 2D 39 31 36 32 20  20 20 56 31 2E 30 30 32   GS-9162   V1.002
0030 : 31 39 39 37 30 39 31 38  43 44 2D 31 2F 31 20 20   19970918CD-1/1  
0040 : 4A 54 20 20 20 20 20 20  20 20 20 20 20 20 20 20   JT              
0050 : 4A 41 45 20 20 20 20 20  20 20 20 20 20 20 20 20   JAE             
0060 : 54 68 65 20 4C 6F 73 74  20 57 6F 72 6C 64 20 20   The Lost World  
0070 : 20 20 20 20 20 20 20 20  20 20 20 20 20 20 20 20                   
0080 : 20 20 20 20 20 20 20 20  20 20 20 20 20 20 20 20                   
0090 : 20 20 20 20 20 20 20 20  20 20 20 20 20 20 20 20                   
00A0 : 20 20 20 20 20 20 20 20  20 20 20 20 20 20 20 20                   
00B0 : 20 20 20 20 20 20 20 20  20 20 20 20 20 20 20 20                   
00C0 : 20 20 20 20 20 20 20 20  20 20 20 20 20 20 20 20                   
00D0 : 00 00 00 00 00 00 00 00  00 00 00 00 00 00 00 00   ................
00E0 : 00 00 10 00 00 00 00 00  00 00 00 00 00 00 00 00   ................
00F0 : 06 01 00 00 00 00 00 00  00 00 00 00 00 00 00 00   ................

Tracks and Write Offsets:
    DAT:

<rom name="The Lost World Jurassic Park (Japan) (Track 01).bin" size="161791728" crc="c77ed3f4" md5="114059889dcac6e56491cc889c254724" sha1="8384d75926d5608d116efedf0d2b3751e50ec453" />
<rom name="The Lost World Jurassic Park (Japan) (Track 02).bin" size="23108400" crc="3c90473c" md5="0ef50510a4d62cfbf8da5edfcfe8c949" sha1="2e7035069c3ccfb7b1d09245dd6209f3020fac80" />
<rom name="The Lost World Jurassic Park (Japan) (Track 03).bin" size="21262080" crc="2f88f4d4" md5="1ad3849787c80065cd42991d55ba429f" sha1="4fb327adb5f1b9cfd2305ee12ca0df47590a519a" />
<rom name="The Lost World Jurassic Park (Japan) (Track 04).bin" size="22162896" crc="f7461af3" md5="59b89efd7e9ff125ea7bdae21c441c1f" sha1="47e5af1242be900348871982678c4558be79e807" />
<rom name="The Lost World Jurassic Park (Japan) (Track 05).bin" size="22743840" crc="52941f89" md5="cd0de8a0978cc2261d9cc4704fe100db" sha1="ee762c812d58a650466a578de2b2d01d92f205e3" />
<rom name="The Lost World Jurassic Park (Japan) (Track 06).bin" size="24644256" crc="e5dae351" md5="be96a9193e10a8dccdcf9e8828485847" sha1="654721121cfca630edd6108acd21b05629820f12" />
<rom name="The Lost World Jurassic Park (Japan) (Track 07).bin" size="24383184" crc="f656b906" md5="c188eca20a0300a4851a4a0dc9930aa5" sha1="07306167b601815d313c7be6112f8b2c1fdbcd26" />
<rom name="The Lost World Jurassic Park (Japan) (Track 08).bin" size="23759904" crc="7f0cd3e0" md5="e5111f71871dbff19c4538f3f1d1d747" sha1="d7c85529ffbf518f30baf742621b0efc569c5cf1" />
<rom name="The Lost World Jurassic Park (Japan) (Track 09).bin" size="23541168" crc="0b06037f" md5="9fae802a927f115a0aeaae8b6a5df505" sha1="4e9dfa16e9a2db900fef854ed4c4369318430503" />
<rom name="The Lost World Jurassic Park (Japan) (Track 10).bin" size="22334592" crc="d6a77827" md5="3a8e51621a0d4e96293e0379a9b4602d" sha1="dde3b9168ce3cbcc07b8e8afcbbb31a92c4a40ff" />
<rom name="The Lost World Jurassic Park (Japan) (Track 11).bin" size="23392992" crc="5b8adbdb" md5="5c9ae968efb06e20230b49bc4cda1ef5" sha1="a78e9d2a0081f5e656f048962170d1ad21460637" />
<rom name="The Lost World Jurassic Park (Japan) (Track 12).bin" size="24051552" crc="f15fba3a" md5="8b1fbf6fb218c948fc4f1c221a4e12c2" sha1="9718012dbacd8ee57d4b2f9046e9e44ad486e3ca" />
<rom name="The Lost World Jurassic Park (Japan) (Track 13).bin" size="22358112" crc="adc6d684" md5="b5d1ca43c2baf3e985cc6fab0f27dd92" sha1="30576bfb516ee57edea02cfc1b7a70a9d3a8c32c" />
<rom name="The Lost World Jurassic Park (Japan) (Track 14).bin" size="25077024" crc="1e533860" md5="ed7b5f73a904906a6a819684368a423a" sha1="3f91ed497d68537f28233ec99b9bccac01bb0443" />
<rom name="The Lost World Jurassic Park (Japan) (Track 15).bin" size="22884960" crc="769af37c" md5="5b2c1ec06720b524c44e7225e91714ff" sha1="4fdb71a57d5d0caf3b02514b305ee59dad6cc6d8" />
<rom name="The Lost World Jurassic Park (Japan) (Track 16).bin" size="23534112" crc="54ffcb64" md5="266e41ec5142ba978050c5c6f13966b7" sha1="55112492bed6d1a9b95b1ce9e12cf0f72952d009" />
<rom name="The Lost World Jurassic Park (Japan) (Track 17).bin" size="25041744" crc="9457f53b" md5="ac5b32c3960e8a1e547c05219ca790fa" sha1="de6a8c9cf4148727bb1be70c26e67fa483344c39" />
<rom name="The Lost World Jurassic Park (Japan) (Track 18).bin" size="23374176" crc="f99af035" md5="b7989cd8a7a0dabc91a5065b5b3eb21c" sha1="51e8fa860ef12b7a01f26b0d2a16901facbb7e63" />

    Cuesheet:

CATALOG 0000000000000
FILE "The Lost World Jurassic Park (Japan) (Track 01).bin" BINARY
  TRACK 01 MODE1/2352
    INDEX 01 00:00:00
FILE "The Lost World Jurassic Park (Japan) (Track 02).bin" BINARY
  TRACK 02 AUDIO
    INDEX 00 00:00:00
    INDEX 01 00:02:00
FILE "The Lost World Jurassic Park (Japan) (Track 03).bin" BINARY
  TRACK 03 AUDIO
    INDEX 00 00:00:00
    INDEX 01 00:02:00
FILE "The Lost World Jurassic Park (Japan) (Track 04).bin" BINARY
  TRACK 04 AUDIO
    INDEX 00 00:00:00
    INDEX 01 00:02:00
FILE "The Lost World Jurassic Park (Japan) (Track 05).bin" BINARY
  TRACK 05 AUDIO
    INDEX 00 00:00:00
    INDEX 01 00:02:00
FILE "The Lost World Jurassic Park (Japan) (Track 06).bin" BINARY
  TRACK 06 AUDIO
    INDEX 00 00:00:00
    INDEX 01 00:02:00
FILE "The Lost World Jurassic Park (Japan) (Track 07).bin" BINARY
  TRACK 07 AUDIO
    INDEX 00 00:00:00
    INDEX 01 00:02:00
FILE "The Lost World Jurassic Park (Japan) (Track 08).bin" BINARY
  TRACK 08 AUDIO
    INDEX 00 00:00:00
    INDEX 01 00:02:00
FILE "The Lost World Jurassic Park (Japan) (Track 09).bin" BINARY
  TRACK 09 AUDIO
    INDEX 00 00:00:00
    INDEX 01 00:02:00
FILE "The Lost World Jurassic Park (Japan) (Track 10).bin" BINARY
  TRACK 10 AUDIO
    INDEX 00 00:00:00
    INDEX 01 00:02:00
FILE "The Lost World Jurassic Park (Japan) (Track 11).bin" BINARY
  TRACK 11 AUDIO
    INDEX 00 00:00:00
    INDEX 01 00:02:00
FILE "The Lost World Jurassic Park (Japan) (Track 12).bin" BINARY
  TRACK 12 AUDIO
    INDEX 00 00:00:00
    INDEX 01 00:02:00
FILE "The Lost World Jurassic Park (Japan) (Track 13).bin" BINARY
  TRACK 13 AUDIO
    INDEX 00 00:00:00
    INDEX 01 00:02:00
FILE "The Lost World Jurassic Park (Japan) (Track 14).bin" BINARY
  TRACK 14 AUDIO
    INDEX 00 00:00:00
    INDEX 01 00:02:00
FILE "The Lost World Jurassic Park (Japan) (Track 15).bin" BINARY
  TRACK 15 AUDIO
    INDEX 00 00:00:00
    INDEX 01 00:02:00
FILE "The Lost World Jurassic Park (Japan) (Track 16).bin" BINARY
  TRACK 16 AUDIO
    INDEX 00 00:00:00
    INDEX 01 00:02:00
FILE "The Lost World Jurassic Park (Japan) (Track 17).bin" BINARY
  TRACK 17 AUDIO
    INDEX 00 00:00:00
    INDEX 01 00:02:00
FILE "The Lost World Jurassic Park (Japan) (Track 18).bin" BINARY
  TRACK 18 AUDIO
    INDEX 00 00:00:00
    INDEX 01 00:02:00

    Write Offset: 0

https://cdn.discordapp.com/attachments/ … k_Japan.7z