Common Disc Info:
    Title: Linda³ Kanzenban
    Foreign Title (Non-latin): リンダキューブ完全版
    Disc Number / Letter: (OPTIONAL)
    Disc Title: (OPTIONAL)
    System: Sega Saturn
    Media Type: CD-ROM
    Category: Games
    Matching IDs: 24852
    Region: Japan
    Languages: Japanese
    Disc Serial: T-2112G

    Ringcode Information:
        Mastering Code (laser branded/etched): T-2112GP-02279   1MB2   C   85
        Mastering SID Code: IFPI L223
        Data-Side Mould SID Code: IFPI 3926
        Label-Side Mould SID Code:
        Additional Mould:
        Toolstamp or Mastering Code (engraved/stamped):
    Barcode: (OPTIONAL)
    EXE/Build Date: 19980506
    Error Count: 0
    Comments: Bundled with the <a href=/disc/24857/>Audio CD</a>.
    Contents: (OPTIONAL)

Version and Editions:
    Version: V1.002
    Edition/Release: Original

Extras:
    Primary Volume Descriptor (PVD):

0320 : 20 20 20 20 20 20 20 20  20 20 20 20 20 31 39 39                199
0330 : 38 30 35 30 36 31 34 35  37 33 32 30 30 24 31 39   8050614573200$19
0340 : 39 38 30 35 30 36 31 34  35 37 33 32 30 30 24 30   98050614573200$0
0350 : 30 30 30 30 30 30 30 30  30 30 30 30 30 30 30 00   000000000000000.
0360 : 30 30 30 30 30 30 30 30  30 30 30 30 30 30 30 30   0000000000000000
0370 : 00 01 00 00 00 00 00 00  00 00 00 00 00 00 00 00   ................

    Header:

0000 : 53 45 47 41 20 53 45 47  41 53 41 54 55 52 4E 20   SEGA SEGASATURN 
0010 : 53 45 47 41 20 54 50 20  54 2D 32 31 20 20 20 20   SEGA TP T-21    
0020 : 54 2D 32 31 31 32 47 20  20 20 56 31 2E 30 30 32   T-2112G   V1.002
0030 : 31 39 39 38 30 35 30 36  43 44 2D 31 2F 31 20 20   19980506CD-1/1  
0040 : 4A 20 20 20 20 20 20 20  20 20 20 20 20 20 20 20   J               
0050 : 4A 20 20 20 20 20 20 20  20 20 20 20 20 20 20 20   J               
0060 : 4C 49 4E 44 41 33 20 4B  41 4E 5A 45 4E 42 41 4E   LINDA3 KANZENBAN
0070 : 20 20 20 20 20 20 20 20  20 20 20 20 20 20 20 20                   
0080 : 20 20 20 20 20 20 20 20  20 20 20 20 20 20 20 20                   
0090 : 20 20 20 20 20 20 20 20  20 20 20 20 20 20 20 20                   
00A0 : 20 20 20 20 20 20 20 20  20 20 20 20 20 20 20 20                   
00B0 : 20 20 20 20 20 20 20 20  20 20 20 20 20 20 20 20                   
00C0 : 20 20 20 20 20 20 20 20  20 20 20 20 20 20 20 20                   
00D0 : 00 00 00 00 00 00 00 00  00 00 00 00 00 00 00 00   ................
00E0 : 00 00 12 7C 00 00 00 00  00 00 00 00 00 00 00 00   ...|............
00F0 : 06 00 40 00 00 00 00 00  00 00 00 00 00 00 00 00   ..@.............

Tracks and Write Offsets:
    DAT:

<rom name="Linda³ Kanzenban (Japan) (Track 1).bin" size="385683312" crc="7e6330ca" md5="837ce34e8227f306b599eabfd78fbe27" sha1="b6526c36bc60bdea7c69cfa26077ea7496766ac8" />
<rom name="Linda³ Kanzenban (Japan) (Track 2).bin" size="200813760" crc="5bc8c652" md5="c21a4f062440d43ea56dcce1d28a1e6c" sha1="728eaef20932c76c22178fc3626fe460ccf293d8" />
<rom name="Linda³ Kanzenban (Japan) (Track 3).bin" size="3880800" crc="4546f565" md5="4aa3389e3c9b31d282de9ee6f8c24191" sha1="63b9bf1f9b5f93d0168f706afbc70c6ebbef1883" />

    Cuesheet:

CATALOG 0000000000000
FILE "Linda� Kanzenban (Japan) (Track 1).bin" BINARY
  TRACK 01 MODE1/2352
    INDEX 01 00:00:00
FILE "Linda� Kanzenban (Japan) (Track 2).bin" BINARY
  TRACK 02 MODE2/2352
    INDEX 00 00:00:00
    INDEX 01 00:03:00
FILE "Linda� Kanzenban (Japan) (Track 3).bin" BINARY
  TRACK 03 AUDIO
    INDEX 00 00:00:00
    INDEX 01 00:02:00

    Write Offset: 0

https://cdn.discordapp.com/attachments/ … n_Japan.7z