Common Disc Info:
    Title: Hyper 3D Pinball
    Foreign Title (Non-latin): ハイパー3Dピンボール
    Disc Number / Letter: (OPTIONAL)
    Disc Title: (OPTIONAL)
    System: Sega Saturn
    Media Type: CD-ROM
    Category: Games
    Matching IDs: 35032
    Region: Japan
    Languages: English
    Disc Serial: T-7007G

    Ringcode Information:
        Mastering Code (laser branded/etched): T-7007GP-01295   A
        Mastering SID Code:
        Data-Side Mould SID Code: IFPI 3Q0C
        Label-Side Mould SID Code:
        Additional Mould:
        Toolstamp or Mastering Code (engraved/stamped):
    Barcode: (OPTIONAL)
    EXE/Build Date: 19961022
    Error Count: 0
    Comments: The first 2 sectors of the 2nd track's pregap contain corrupted scrambled data (1st one contains 207 bytes of the scrambled sector, then zeroes, 2nd one contains only sync).
    Contents: (OPTIONAL)

Version and Editions:
    Version: V1.000
    Edition/Release: Original

Extras:
    Primary Volume Descriptor (PVD):

0320 : 20 20 20 20 20 20 20 20  20 20 20 20 20 31 39 39                199
0330 : 36 31 31 32 35 31 33 31  36 30 37 30 30 14 31 39   6112513160700.19
0340 : 39 36 31 31 32 35 31 33  31 36 30 37 30 30 14 30   96112513160700.0
0350 : 30 30 30 30 30 30 30 30  30 30 30 30 30 30 30 00   000000000000000.
0360 : 30 30 30 30 30 30 30 30  30 30 30 30 30 30 30 30   0000000000000000
0370 : 00 01 00 00 00 00 00 00  00 00 00 00 00 00 00 00   ................

    Header:

0000 : 53 45 47 41 20 53 45 47  41 53 41 54 55 52 4E 20   SEGA SEGASATURN 
0010 : 53 45 47 41 20 54 50 20  54 2D 37 30 20 20 20 20   SEGA TP T-70    
0020 : 54 2D 37 30 30 37 47 20  20 20 56 31 2E 30 30 30   T-7007G   V1.000
0030 : 31 39 39 36 31 30 32 32  43 44 2D 31 2F 31 20 20   19961022CD-1/1  
0040 : 4A 54 20 20 20 20 20 20  20 20 20 20 20 20 20 20   JT              
0050 : 4A 41 54 20 20 20 20 20  20 20 20 20 20 20 20 20   JAT             
0060 : 48 59 50 45 52 20 33 44  20 50 49 4E 42 41 4C 4C   HYPER 3D PINBALL
0070 : 20 20 20 20 20 20 20 20  20 20 20 20 20 20 20 20                   
0080 : 20 20 20 20 20 20 20 20  20 20 20 20 20 20 20 20                   
0090 : 20 20 20 20 20 20 20 20  20 20 20 20 20 20 20 20                   
00A0 : 20 20 20 20 20 20 20 20  20 20 20 20 20 20 20 20                   
00B0 : 20 20 20 20 20 20 20 20  20 20 20 20 20 20 20 20                   
00C0 : 20 20 20 20 20 20 20 20  20 20 20 20 20 20 20 20                   
00D0 : 00 00 00 00 00 00 00 00  00 00 00 00 00 00 00 00   ................
00E0 : 00 00 18 00 00 00 00 00  00 00 00 00 00 00 00 00   ................
00F0 : 06 00 40 00 00 00 00 00  00 00 00 00 00 00 00 00   ..@.............

Tracks and Write Offsets:
    DAT:

<rom name="Hyper 3D Pinball (Japan) (Track 1).bin" size="74238528" crc="c850ed62" md5="a2980fe20b748a1a0d33b5a5958a8ecb" sha1="a68557cf43eea4ac5e398ebaeb2ec4c79fbc592b" />
<rom name="Hyper 3D Pinball (Japan) (Track 2).bin" size="24307920" crc="bcf3459c" md5="65c808400ac46bc00c75b90e5ae27bdd" sha1="538288702203cddf34adfec6ce9c2d59a33cc61e" />
<rom name="Hyper 3D Pinball (Japan) (Track 3).bin" size="22527456" crc="7d422caa" md5="bfebbbd1c8adb2af2222ddccefd9abf3" sha1="b063568be90a01ac6a9c1e9e24fe8231d3c1643f" />
<rom name="Hyper 3D Pinball (Japan) (Track 4).bin" size="28903728" crc="2a7d97d3" md5="65a4dc8cadeee72ed77169d1f93b7971" sha1="2ecbc739d0b4e326517b8d6598c028d052996f83" />
<rom name="Hyper 3D Pinball (Japan) (Track 5).bin" size="21970032" crc="f0282cd6" md5="56b8b1bbaa7d7e1065c7ca60693c5da5" sha1="5d7a1ca64f045de96da7531f1ab935318e90e79c" />
<rom name="Hyper 3D Pinball (Japan) (Track 6).bin" size="23978640" crc="187dbe97" md5="688ac2cd023db93a2d84c2f46475d091" sha1="b785513641896092600d1cccf6586ad8197d50b0" />
<rom name="Hyper 3D Pinball (Japan) (Track 7).bin" size="23294208" crc="fda340e5" md5="f4c761209d98b73913c4a6444b29c50a" sha1="ae3dbc37323dd0795cb2acd2635ea8e9155309eb" />

    Cuesheet:

FILE "Hyper 3D Pinball (Japan) (Track 1).bin" BINARY
  TRACK 01 MODE1/2352
    INDEX 01 00:00:00
FILE "Hyper 3D Pinball (Japan) (Track 2).bin" BINARY
  TRACK 02 AUDIO
    INDEX 00 00:00:00
    INDEX 01 00:02:00
FILE "Hyper 3D Pinball (Japan) (Track 3).bin" BINARY
  TRACK 03 AUDIO
    INDEX 00 00:00:00
    INDEX 01 00:02:00
FILE "Hyper 3D Pinball (Japan) (Track 4).bin" BINARY
  TRACK 04 AUDIO
    INDEX 00 00:00:00
    INDEX 01 00:02:00
FILE "Hyper 3D Pinball (Japan) (Track 5).bin" BINARY
  TRACK 05 AUDIO
    INDEX 00 00:00:00
    INDEX 01 00:02:00
FILE "Hyper 3D Pinball (Japan) (Track 6).bin" BINARY
  TRACK 06 AUDIO
    INDEX 00 00:00:00
    INDEX 01 00:02:00
FILE "Hyper 3D Pinball (Japan) (Track 7).bin" BINARY
  TRACK 07 AUDIO
    INDEX 00 00:00:00
    INDEX 01 00:02:00

    Write Offset: 18

https://cdn.discordapp.com/attachments/ … l_Japan.7z