1 (edited by LastCat 2020-04-16 08:04:31)

Common Disc Info:
    Title: TY the Tasmanian Tiger: Original Game Soundtrack
    Foreign Title (Non-latin): 
    Disc Number / Letter: 
    Disc Title: 
    System: Audio CD
    Media Type: CD-ROM
    Category: Bonus
    Region: USA

    Ringcode Information:
        Mastering Code (laser branded/etched):  FA1828   DISC MANUFACTURING SERVICES
        Mastering SID Code:  IFPI LD02
        Data-Side Mould SID Code:  IFPI 5J35
        Label-Side Mould SID Code: 
        Additional Mould: 
        Toolstamp or Mastering Code (engraved/stamped): 
    Barcode:  9 781733 465717
    Error Count: 0
    Comments: 
    Contents: 

Version and Editions:
    Version: 
    Edition/Release: Original

Extras:
    Primary Volume Descriptor (PVD): Disc has no PVD

Tracks and Write Offsets:
    DAT:

<rom name="TY The Tasmanian Tiger Original Game Soundtrack (Track 01).bin" size="7963872" crc="fcb94994" md5="5eee977b962903ac2ddab5fb583d6783" sha1="9894567f2ba0dda4f15bbe872e819cad98408cc1" />
<rom name="TY The Tasmanian Tiger Original Game Soundtrack (Track 02).bin" size="20128416" crc="5586c42b" md5="47c8556e76fcc8f1e53097147886b803" sha1="c2662fb299a693db66940cae2ca8524cfb1f1ee1" />
<rom name="TY The Tasmanian Tiger Original Game Soundtrack (Track 03).bin" size="18783072" crc="f5491511" md5="d1d1da3cfe30c12253cfb55d7a6a7927" sha1="1bd2fe151c166121d55010fb942b3cf03042354e" />
<rom name="TY The Tasmanian Tiger Original Game Soundtrack (Track 04).bin" size="30025632" crc="54991a98" md5="4b320629a5c812440ad25265c0b75a7d" sha1="04d606a1cdb436972777551bd674e4cb302e2057" />
<rom name="TY The Tasmanian Tiger Original Game Soundtrack (Track 05).bin" size="28014672" crc="db11dda2" md5="4c0b8a5b3e18a1097f8815704028570c" sha1="57e9e04ec918166d1ee95d11b0ecb11b9c707308" />
<rom name="TY The Tasmanian Tiger Original Game Soundtrack (Track 06).bin" size="30731232" crc="4493d252" md5="107f61c505a2770be7ff8f46f6e865c6" sha1="918ebfa0db63a2850c3dadaac76d0f25d3a7d681" />
<rom name="TY The Tasmanian Tiger Original Game Soundtrack (Track 07).bin" size="28891968" crc="7cdb0b5a" md5="aa0e2186685b334f5cef450819f93b8e" sha1="2dd327b0a93017d4ff9eaca31a86a58b2f72e22e" />
<rom name="TY The Tasmanian Tiger Original Game Soundtrack (Track 08).bin" size="21057456" crc="51625b52" md5="81c2c9edb77f8acbbe459034abd3271e" sha1="c4e7720720ddf2e6faf898e2bedc8e841f958e52" />
<rom name="TY The Tasmanian Tiger Original Game Soundtrack (Track 09).bin" size="25523904" crc="0e0d70b1" md5="4e5aff681655547d3c4f74f9a029df9e" sha1="b7f83799aaee7cdb6adc8a4acaa77e722a2edb3a" />
<rom name="TY The Tasmanian Tiger Original Game Soundtrack (Track 10).bin" size="27106800" crc="e5e4fef4" md5="f2fdd071c7cc153f4d0dd008b5da0217" sha1="4742e3efda442f8a164b3b9da20074f173749e2e" />
<rom name="TY The Tasmanian Tiger Original Game Soundtrack (Track 11).bin" size="18910080" crc="62018bde" md5="76d64f5e315c47ba6442345a1bb80aeb" sha1="8519ecaaa2b6899fb5e2082036f35791bd13fef3" />
<rom name="TY The Tasmanian Tiger Original Game Soundtrack (Track 12).bin" size="14994000" crc="a805b93a" md5="4b4e7baf5aa0b789fa0ee7e70f3aed42" sha1="8f6d5a976cf7ab027eca2ecccf9d715fd16d27b8" />
<rom name="TY The Tasmanian Tiger Original Game Soundtrack (Track 13).bin" size="18620784" crc="9a2007c2" md5="c7c41578eb1166417005b4bc47892ba5" sha1="7849948e49d00c5a4530907e9047cec69f7f0cb4" />
<rom name="TY The Tasmanian Tiger Original Game Soundtrack (Track 14).bin" size="27527808" crc="2a623c8d" md5="45274f89bdf40ef1308b78974219592b" sha1="f3308d8a168978344d6c8bf6f8eec01ff650cf9f" />
<rom name="TY The Tasmanian Tiger Original Game Soundtrack (Track 15).bin" size="29334144" crc="26d878aa" md5="591d5a71263ae27236b745429c75e422" sha1="68461a19592c9632aaa34fb57ac878df00d469b9" />
<rom name="TY The Tasmanian Tiger Original Game Soundtrack (Track 16).bin" size="20168400" crc="52e1df27" md5="298808254330bdbde0af9829691029f6" sha1="09c7a9e7ea999d4f3f9cbe72635ddbae16324d9c" />
<rom name="TY The Tasmanian Tiger Original Game Soundtrack (Track 17).bin" size="26253024" crc="0944d381" md5="07285d6bba98d1081eed9a18a5361efd" sha1="871ae883b0bbb11782a7d92a5d2236f735e1e66a" />
<rom name="TY The Tasmanian Tiger Original Game Soundtrack (Track 18).bin" size="16473408" crc="1d441fe3" md5="e5db2cb08b482b3b3d035d19151755ac" sha1="f9632dc818b0295fa735aaedd7e1249e8de34824" />
<rom name="TY The Tasmanian Tiger Original Game Soundtrack (Track 19).bin" size="23188368" crc="3147af81" md5="73c7c3859312eee318967e40fb6d6be0" sha1="615a34bd55e72e887f710a58fa86ac89f313798e" />
<rom name="TY The Tasmanian Tiger Original Game Soundtrack (Track 20).bin" size="14737632" crc="be797bab" md5="6fc53e30e5b2e5efbdd921b5b79f38c6" sha1="03d82f55cda4144e7b99444b33c308a1dd7a4ff8" />
<rom name="TY The Tasmanian Tiger Original Game Soundtrack (Track 21).bin" size="10468752" crc="afff8732" md5="c0a3945ab3218e0f46d6d4b4923790e4" sha1="291658590c40132e7401117e7c96c0ef152499b0" />
<rom name="TY The Tasmanian Tiger Original Game Soundtrack (Track 22).bin" size="28158144" crc="0314f492" md5="4ec103135c42c0ff90f88cb00cd4bfe7" sha1="ee1bee13c7ce810317b52cea9580abd97a8e5070" />
<rom name="TY The Tasmanian Tiger Original Game Soundtrack (Track 23).bin" size="22501584" crc="fbf22f13" md5="ff96fa018b1ab72643a4ca46a13a7bd4" sha1="a3dd72f944407d7d3da5e8d60ea633f70c20acc9" />
<rom name="TY The Tasmanian Tiger Original Game Soundtrack (Track 24).bin" size="16807392" crc="e63515c7" md5="b31cd12838b424bc324863d01b384258" sha1="ff0c990f3f09e195b76fc15d5c8a54cc9eaf60fd" />
<rom name="TY The Tasmanian Tiger Original Game Soundtrack (Track 25).bin" size="5877648" crc="986b573e" md5="3bbf93748163064be904fcdaa4bbea9b" sha1="06163f1db1971b2f09ffd0f87a9c7b0b9bed7b9b" />
<rom name="TY The Tasmanian Tiger Original Game Soundtrack (Track 26).bin" size="21974736" crc="b6c1bd06" md5="a54369630b6b59934f6ef95d2f5a7210" sha1="f47c9c7eabf5758687d5903d35230938821cdeeb" />
<rom name="TY The Tasmanian Tiger Original Game Soundtrack (Track 27).bin" size="10170048" crc="b8f85db2" md5="19c10931079f018f0db8ccd18189c773" sha1="e6539f673dee6debdd36e6f8bca5ea48e8c26d5d" />
<rom name="TY The Tasmanian Tiger Original Game Soundtrack (Track 28).bin" size="24202080" crc="66c04e51" md5="91a397e4ad73687988063d1e254c6f5f" sha1="e2875ad8c90fe2a5bec273d46a07022cce89146e" />
<rom name="TY The Tasmanian Tiger Original Game Soundtrack (Track 29).bin" size="24874752" crc="02c902bb" md5="70d9bcd0ce6dd33f69ba56d7da9be1b3" sha1="0e47b9fe92757aa70e387c1ca631bc62c121acd2" />
<rom name="TY The Tasmanian Tiger Original Game Soundtrack (Track 30).bin" size="19084128" crc="b765b814" md5="8ce6dbe9f4fc8656b93f811bdc09c757" sha1="499a2f771c71ca1287f1f38f55f12d63d20e35cf" />
<rom name="TY The Tasmanian Tiger Original Game Soundtrack (Track 31).bin" size="9551472" crc="0899687e" md5="0ce49bfba15f504a942136f668153961" sha1="5a7f195096ee07f6029dae06b6eef69ef951b3d2" />
<rom name="TY The Tasmanian Tiger Original Game Soundtrack (Track 32).bin" size="26071920" crc="5b1a650e" md5="1d3008b2b9856e7a5799ddb99b149f48" sha1="603f314bc17a3145deca56a180e5f5e4d24ac059" />
<rom name="TY The Tasmanian Tiger Original Game Soundtrack (Track 33).bin" size="25582704" crc="c8014a8c" md5="77f246aaa51628bd5883aed441fd4ad7" sha1="a4ba35b3be6001c3b699fd07762db848fa24e382" />
<rom name="TY The Tasmanian Tiger Original Game Soundtrack (Track 34).bin" size="25552128" crc="7626af34" md5="2a3765e2238e806ce7272eca685f6350" sha1="edd492afa77795077da11d2f0b4f5ac734095419" />
<rom name="TY The Tasmanian Tiger Original Game Soundtrack (Track 35).bin" size="10941504" crc="e3b88ebb" md5="7c815ee6b1c9ee84c1c9c67a06f0d2ea" sha1="213a7437c9383676115f9c36b0280fa695dee0bb" />
<rom name="TY The Tasmanian Tiger Original Game Soundtrack (Track 36).bin" size="24049200" crc="575eaac2" md5="324ec1c52de2a463daa81fb5e2f74153" sha1="a33986e46e0420e23785bc033729b8e3a30e21df" />
<rom name="TY The Tasmanian Tiger Original Game Soundtrack (Track 37).bin" size="8944656" crc="72eca7ea" md5="a54ac64b2259d811a620081e467951a9" sha1="97890b7d07b983987f649a564466199aad08e324" />
<rom name="TY The Tasmanian Tiger Original Game Soundtrack (Track 38).bin" size="16569840" crc="2f448881" md5="666e7ff89bbb1a135cbc5ec910796ed2" sha1="f3ee92de6d168994d9799f9b096480c242f40b5a" />
<rom name="TY The Tasmanian Tiger Original Game Soundtrack (Track 39).bin" size="18860688" crc="8a0b073a" md5="1a1d1c60fd8f598bfa456b6dfe9ec49a" sha1="d9764d61725e7ba4d4c994f859bff5bb1c9d594b" />

Cuesheet:

CATALOG 9781733465717
TITLE "TY the Tasmanian Tiger Original Game Soundtrack"
PERFORMER "George Stamatiadis"
FILE "TY The Tasmanian Tiger Original Game Soundtrack (Track 01).bin" BINARY
  TRACK 01 AUDIO
    TITLE "Main Menu from "TY the Tasmanian Tiger"
    PERFORMER "George Stamatiadis"
    INDEX 01 00:00:00
FILE "TY The Tasmanian Tiger Original Game Soundtrack (Track 02).bin" BINARY
  TRACK 02 AUDIO
    TITLE "Rainbow Cliffs"
    PERFORMER "George Stamatiadis"
    INDEX 00 00:00:00
    INDEX 01 00:02:00
FILE "TY The Tasmanian Tiger Original Game Soundtrack (Track 03).bin" BINARY
  TRACK 03 AUDIO
    TITLE "Two Up"
    PERFORMER "George Stamatiadis"
    INDEX 00 00:00:00
    INDEX 01 00:02:00
FILE "TY The Tasmanian Tiger Original Game Soundtrack (Track 04).bin" BINARY
  TRACK 04 AUDIO
    TITLE "A Walk In The Park"
    PERFORMER "George Stamatiadis"
    INDEX 00 00:00:00
    INDEX 01 00:02:00
FILE "TY The Tasmanian Tiger Original Game Soundtrack (Track 05).bin" BINARY
  TRACK 05 AUDIO
    TITLE "Bull's Pen"
    PERFORMER "George Stamatiadis"
    INDEX 00 00:00:00
    INDEX 01 00:02:00
FILE "TY The Tasmanian Tiger Original Game Soundtrack (Track 06).bin" BINARY
  TRACK 06 AUDIO
    TITLE "Bridge On The River TY"
    PERFORMER "George Stamatiadis"
    INDEX 00 00:00:00
    INDEX 01 00:02:00
FILE "TY The Tasmanian Tiger Original Game Soundtrack (Track 07).bin" BINARY
  TRACK 07 AUDIO
    TITLE "Snow Worries"
    PERFORMER "George Stamatiadis"
    INDEX 00 00:00:00
    INDEX 01 00:02:00
FILE "TY The Tasmanian Tiger Original Game Soundtrack (Track 08).bin" BINARY
  TRACK 08 AUDIO
    TITLE "Outback Safari"
    PERFORMER "George Stamatiadis"
    INDEX 00 00:00:00
    INDEX 01 00:02:00
FILE "TY The Tasmanian Tiger Original Game Soundtrack (Track 09).bin" BINARY
  TRACK 09 AUDIO
    TITLE "Bits and Pieces"
    PERFORMER "George Stamatiadis"
    INDEX 00 00:00:00
    INDEX 01 00:02:00
FILE "TY The Tasmanian Tiger Original Game Soundtrack (Track 10).bin" BINARY
  TRACK 10 AUDIO
    TITLE "Ship Rex"
    PERFORMER "George Stamatiadis"
    INDEX 00 00:00:00
    INDEX 01 00:02:00
FILE "TY The Tasmanian Tiger Original Game Soundtrack (Track 11).bin" BINARY
  TRACK 11 AUDIO
    TITLE "Time Attack 1"
    PERFORMER "George Stamatiadis"
    INDEX 00 00:00:00
    INDEX 01 00:02:00
FILE "TY The Tasmanian Tiger Original Game Soundtrack (Track 12).bin" BINARY
  TRACK 12 AUDIO
    TITLE "Boss Cass Cinematics"
    PERFORMER "George Stamatiadis"
    INDEX 00 00:00:00
    INDEX 01 00:02:00
FILE "TY The Tasmanian Tiger Original Game Soundtrack (Track 13).bin" BINARY
  TRACK 13 AUDIO
    TITLE "Trailer"
    PERFORMER "George Stamatiadis"
    INDEX 00 00:00:00
    INDEX 01 00:02:00
FILE "TY The Tasmanian Tiger Original Game Soundtrack (Track 14).bin" BINARY
  TRACK 14 AUDIO
    TITLE "Beyond The Black Stump"
    PERFORMER "George Stamatiadis"
    INDEX 00 00:00:00
    INDEX 01 00:02:00
FILE "TY The Tasmanian Tiger Original Game Soundtrack (Track 15).bin" BINARY
  TRACK 15 AUDIO
    TITLE "Lenny The Lyre Bird"
    PERFORMER "George Stamatiadis"
    INDEX 00 00:00:00
    INDEX 01 00:02:00
FILE "TY The Tasmanian Tiger Original Game Soundtrack (Track 16).bin" BINARY
  TRACK 16 AUDIO
    TITLE "Crikey"
    PERFORMER "George Stamatiadis"
    INDEX 00 00:00:00
    INDEX 01 00:02:00
FILE "TY The Tasmanian Tiger Original Game Soundtrack (Track 17).bin" BINARY
  TRACK 17 AUDIO
    TITLE "Rex Marks The Spot"
    PERFORMER "George Stamatiadis"
    INDEX 00 00:00:00
    INDEX 01 00:02:00
FILE "TY The Tasmanian Tiger Original Game Soundtrack (Track 18).bin" BINARY
  TRACK 18 AUDIO
    TITLE "Shadow The Bat"
    PERFORMER "George Stamatiadis"
    INDEX 00 00:00:00
    INDEX 01 00:02:00
FILE "TY The Tasmanian Tiger Original Game Soundtrack (Track 19).bin" BINARY
  TRACK 19 AUDIO
    TITLE "Time Attack 2"
    PERFORMER "George Stamatiadis"
    INDEX 00 00:00:00
    INDEX 01 00:02:00
FILE "TY The Tasmanian Tiger Original Game Soundtrack (Track 20).bin" BINARY
  TRACK 20 AUDIO
    TITLE "Ollie"
    PERFORMER "George Stamatiadis"
    INDEX 00 00:00:00
    INDEX 01 00:02:00
FILE "TY The Tasmanian Tiger Original Game Soundtrack (Track 21).bin" BINARY
  TRACK 21 AUDIO
    TITLE "Bull Racing"
    PERFORMER "George Stamatiadis"
    INDEX 00 00:00:00
    INDEX 01 00:02:00
FILE "TY The Tasmanian Tiger Original Game Soundtrack (Track 22).bin" BINARY
  TRACK 22 AUDIO
    TITLE "Fluffy"
    PERFORMER "George Stamatiadis"
    INDEX 00 00:00:00
    INDEX 01 00:02:00
FILE "TY The Tasmanian Tiger Original Game Soundtrack (Track 23).bin" BINARY
  TRACK 23 AUDIO
    TITLE "The Gauntlet"
    PERFORMER "George Stamatiadis"
    INDEX 00 00:00:00
    INDEX 01 00:02:00
FILE "TY The Tasmanian Tiger Original Game Soundtrack (Track 24).bin" BINARY
  TRACK 24 AUDIO
    TITLE "The Doomerang"
    PERFORMER "George Stamatiadis"
    INDEX 00 00:00:00
    INDEX 01 00:02:00
FILE "TY The Tasmanian Tiger Original Game Soundtrack (Track 25).bin" BINARY
  TRACK 25 AUDIO
    TITLE "Diving"
    PERFORMER "George Stamatiadis"
    INDEX 00 00:00:00
    INDEX 01 00:02:00
FILE "TY The Tasmanian Tiger Original Game Soundtrack (Track 26).bin" BINARY
  TRACK 26 AUDIO
    TITLE "Bonus Level"
    PERFORMER "George Stamatiadis"
    INDEX 00 00:00:00
    INDEX 01 00:02:00
FILE "TY The Tasmanian Tiger Original Game Soundtrack (Track 27).bin" BINARY
  TRACK 27 AUDIO
    TITLE "Time Attack 3"
    PERFORMER "George Stamatiadis"
    INDEX 00 00:00:00
    INDEX 01 00:02:00
FILE "TY The Tasmanian Tiger Original Game Soundtrack (Track 28).bin" BINARY
  TRACK 28 AUDIO
    TITLE "Theme And Cinematics"
    PERFORMER "George Stamatiadis"
    INDEX 00 00:00:00
    INDEX 01 00:02:00
FILE "TY The Tasmanian Tiger Original Game Soundtrack (Track 29).bin" BINARY
  TRACK 29 AUDIO
    TITLE "Ship Rex (Demo)"
    PERFORMER "George Stamatiadis"
    INDEX 00 00:00:00
    INDEX 01 00:02:00
FILE "TY The Tasmanian Tiger Original Game Soundtrack (Track 30).bin" BINARY
  TRACK 30 AUDIO
    TITLE "Walk In The Park (Demo)"
    PERFORMER "George Stamatiadis"
    INDEX 00 00:00:00
    INDEX 01 00:02:00
FILE "TY The Tasmanian Tiger Original Game Soundtrack (Track 31).bin" BINARY
  TRACK 31 AUDIO
    TITLE "Gauntlet TY2 (Demo)"
    PERFORMER "George Stamatiadis"
    INDEX 00 00:00:00
    INDEX 01 00:02:00
FILE "TY The Tasmanian Tiger Original Game Soundtrack (Track 32).bin" BINARY
  TRACK 32 AUDIO
    TITLE "Bulls Pen (Demo)"
    PERFORMER "George Stamatiadis"
    INDEX 00 00:00:00
    INDEX 01 00:02:00
FILE "TY The Tasmanian Tiger Original Game Soundtrack (Track 33).bin" BINARY
  TRACK 33 AUDIO
    TITLE "Rex Marks The Spot (2005 Remix Demo)"
    PERFORMER "George Stamatiadis"
    INDEX 00 00:00:00
    INDEX 01 00:02:00
FILE "TY The Tasmanian Tiger Original Game Soundtrack (Track 34).bin" BINARY
  TRACK 34 AUDIO
    TITLE "Theme Park TY2"
    PERFORMER "George Stamatiadis"
    INDEX 00 00:00:00
    INDEX 01 00:02:00
FILE "TY The Tasmanian Tiger Original Game Soundtrack (Track 35).bin" BINARY
  TRACK 35 AUDIO
    TITLE "Sewer TY2"
    PERFORMER "George Stamatiadis"
    INDEX 00 00:00:00
    INDEX 01 00:02:00
FILE "TY The Tasmanian Tiger Original Game Soundtrack (Track 36).bin" BINARY
  TRACK 36 AUDIO
    TITLE "Gauntlet TY2"
    PERFORMER "George Stamatiadis"
    INDEX 00 00:00:00
    INDEX 01 00:02:00
FILE "TY The Tasmanian Tiger Original Game Soundtrack (Track 37).bin" BINARY
  TRACK 37 AUDIO
    TITLE "TY The Tasmanian Tiger Theme 2000 (Demo 2)"
    PERFORMER "George Stamatiadis"
    INDEX 00 00:00:00
    INDEX 01 00:02:00
FILE "TY The Tasmanian Tiger Original Game Soundtrack (Track 38).bin" BINARY
  TRACK 38 AUDIO
    TITLE "TY The Tasmanian Tiger Theme 2015 (Trailer)"
    PERFORMER "George Stamatiadis"
    INDEX 00 00:00:00
    INDEX 01 00:02:00
FILE "TY The Tasmanian Tiger Original Game Soundtrack (Track 39).bin" BINARY
  TRACK 39 AUDIO
    TITLE "Boulder Mini-game"
    PERFORMER "George Stamatiadis"
    INDEX 00 00:00:00
    INDEX 01 00:02:00

    Write Offset: 0

https://cdn.discordapp.com/attachments/ … ndtrack.7z

I get an error while adding the dump:
"Error parsing cuesheet in row 6."
This disc will probably needs to be redumped with an updated version of DIC to obtain a fixed cue file.
Try the latest test version please.
Maybe in the meantime iR0b0t and sarami could also check the website (for cue support) and the logs, if also DIC needs to be fixed.

Plextor: PX-W4012TU, PX-W5224TA, Premium, PX-716SA
HP (Toshiba/Samsung): TS-H353A - Kreon FW
HP (Hitachi/LG): BH40N - crossflashed with LG BH16NS40 FW

TITLE "Main Menu from "TY the Tasmanian Tiger"

This is what causes the error.

"TY

Not sure if quotation marks (") are allowed in CDTEXT

PX-760A (+30), PX-W4824TA (+98), GSA-H42L (+667), GDR-8164B (+102), SH-D162D (+6), SOHD-167T (+12)

I won't be able to dump this since the disc was borrowed, It'll be months before I can ask my friend for the disc back for redumping.