Common Disc Info:
    Title: MECH WARRIOR 2 - 31st Century Combat
    System: IBM PC Compatible
    Media Type: CD-ROM
    Category: Games
    Region: USA
    Languages: English
    Disc Serial: DL124-2

    Ringcode Information:
        Mastering Code (laser branded/etched): MANUFACTURED BY KAO ***2R1056177-01* DL124-2
        Mastering SID Code: IFPI L955
        Data-Side Mould SID Code: IFPI 3G25
        Label-Side Mould SID Code:
        Additional Mould:
        Toolstamp or Mastering Code (engraved/stamped):
    Barcode:
    Error Count: 0
    Comments: Offered Only With Toshiba Personal Computers, Windows 95, Enhanced for the ATI RAGE II.
    Contents:

Version and Editions:
    Version:
    Edition/Release: Original

Extras:
    Primary Volume Descriptor (PVD):

0320 : 20 20 20 20 20 20 20 20  20 20 20 20 20 30 30 30                000
0330 : 30 30 30 30 30 30 30 30  30 30 30 30 30 00 30 30   0000000000000.00
0340 : 30 30 30 30 30 30 30 30  30 30 30 30 30 30 00 30   00000000000000.0
0350 : 30 30 30 30 30 30 30 30  30 30 30 30 30 30 30 00   000000000000000.
0360 : 30 30 30 30 30 30 30 30  30 30 30 30 30 30 30 30   0000000000000000
0370 : 00 01 00 00 00 00 00 00  00 00 00 00 00 00 00 00   ................

Copy Protection:

    Copy Protection:

E:\EREGLIB.DLL: CD Check
E:\MECH2.EX_: CD Check
E:\MW2.DLL: CD Check
E:\MW2SHELL.DLL: CD Check
E:\NETMECHW.DLL: CD Check
E:\DIRECTX\DRIVERS\AUDIO\BIN\CDPLAYER.EXE: CD Check
E:\DIRECTX\DRIVERS\AUDIO\BIN\MPLAYER.EXE: CD Check

Tracks and Write Offsets:
    DAT:

<rom name="MECH2 (Track 01).bin" size="173622288" crc="4bcb6c2e" md5="badb4335170e0f693764b0258754306f" sha1="987e2d5f44526bb6d17641b8304d23f7f8d3a25c" />
<rom name="MECH2 (Track 02).bin" size="24305568" crc="6134d195" md5="721a22ed8df2ad3d039504fa9a8644ed" sha1="182e5be6bcb2036306624a77185cffa2020a48a8" />
<rom name="MECH2 (Track 03).bin" size="24874752" crc="9884806d" md5="bf2d0a7e4da50ab86e4a01ca8f38a8b9" sha1="16d42111676f440321410a99ff430e79afd2e8ae" />
<rom name="MECH2 (Track 04).bin" size="19933200" crc="1f93f458" md5="d1481940aaaea301aee60624c93927eb" sha1="c4b82724480b861f4ecbc1786a9a9c62b158985d" />
<rom name="MECH2 (Track 05).bin" size="17908128" crc="074092d1" md5="b0f692fd4d5f493fd05cb0a06f081ea8" sha1="822309584002430d210102efd6aab94a070c583b" />
<rom name="MECH2 (Track 06).bin" size="24524304" crc="59bb14f2" md5="a4a3212dec7fc5bfa810fc60fa1dd058" sha1="f33e05b354bade11407ff02fdc7a4eb4b3b2794f" />
<rom name="MECH2 (Track 07).bin" size="19022976" crc="35813e66" md5="ab6c181af28f3bd13fbe7479126dc541" sha1="8dc952cf9d29df341bdf502024eaa110b084cf79" />
<rom name="MECH2 (Track 08).bin" size="23308320" crc="d587185d" md5="c602ae1936fd872a07578525065171b6" sha1="b794d458cea4d76d4754b2b09bc402db9a5fab6d" />
<rom name="MECH2 (Track 09).bin" size="18166848" crc="5bdcf70f" md5="6d2b50558a26ae96036ed055c3dddb0a" sha1="497f281c9f84d167f92fbb248a782354614779b6" />
<rom name="MECH2 (Track 10).bin" size="23710512" crc="9773469a" md5="dd8ec04203f2246ef0181c5727d3a0c2" sha1="806ca62f5b1ec17514ec524c9454bc437f2be5b2" />
<rom name="MECH2 (Track 11).bin" size="25573296" crc="001207e1" md5="daef03255433490ae4051f4dc11e871b" sha1="423a3fd97e9c2d325b2bab4485a5170a0a3e1fba" />
<rom name="MECH2 (Track 12).bin" size="23545872" crc="5a881453" md5="994be74150284aca4b0365035b685667" sha1="d61602df4d9671f907054b9b87cfde4a5784b59b" />
<rom name="MECH2 (Track 13).bin" size="23628192" crc="82d4bef5" md5="a749646cb82a16e7da73734877858616" sha1="7e2fff86b1aa4af12946a5a7f28a8935f8e27044" />
<rom name="MECH2 (Track 14).bin" size="25697952" crc="c99ca650" md5="33118cb1fc6408e1669e09ebb11620b9" sha1="88740554b232ac30af87b7c24de6e80b434a84a1" />
<rom name="MECH2 (Track 15).bin" size="24314976" crc="c8eb87c5" md5="2c765c8393299c00f64f29a3f46a75ab" sha1="ac9a5b7b52528b45efd77b8017ff826803c16fe5" />
<rom name="MECH2 (Track 16).bin" size="21981792" crc="5fa987a6" md5="6a83b7fc22af6c7db555f8b5efb65fb3" sha1="b36ad66276ca7814007b73f239da135cefe2dcb7" />
<rom name="MECH2 (Track 17).bin" size="33193776" crc="98c6ee63" md5="12511fad8f882714da0216229870c5d8" sha1="b808546f634554ce1471b4863d3771dc5d8e880e" />
<rom name="MECH2 (Track 18).bin" size="21139776" crc="4a2ab4a4" md5="52e9e73fe6559e03ddc9e0efe0d21d6b" sha1="d7eb09130d25f08d6a4c8c1897b252030a5ac99d" />
<rom name="MECH2 (Track 19).bin" size="27892368" crc="90ae1131" md5="e3b2ff8e41481b7a9dccbdbc5840cd37" sha1="50cf481bee6c349aeed64e90ea16a38a50a5660f" />
<rom name="MECH2 (Track 20).bin" size="24394944" crc="94fbe170" md5="0e6d4e0c5f7c3261f38736f3af958b3d" sha1="3812643fb0601a9326d88b93c0a7e13b305dc6a2" />
<rom name="MECH2 (Track 21).bin" size="22433376" crc="77dca106" md5="03370ca7bcda523f3185edcbff873b81" sha1="4892c399b2a8fdb35d0ec391640c279572aab737" />
<rom name="MECH2 (Track 22).bin" size="22118208" crc="78ebee5e" md5="b954010c131f6b6540be384a3cfe4138" sha1="2eb57914ab216288fcf3d8d6ffc5b938d85b0947" />
<rom name="MECH2 (Track 23).bin" size="20605872" crc="018d3c19" md5="3ebaf2dd0a725acd12a2cf30d1d7f9b8" sha1="c7185b2a8d9e63a424360fb13cb1edb4cb8109b1" />
<rom name="MECH2 (Track 24).bin" size="31973088" crc="ae780fbf" md5="d4ae9e89b9ea3e297ba4624b86e38d10" sha1="1aa00c6f22211d29527486058829491cbd6e34c1" />
<rom name="MECH2 (Track 25).bin" size="22426320" crc="6255f9b6" md5="1dae0363fe8068a6fd326ae730fc1f25" sha1="60a152c9408222dda7104977fba374183edaf3d4" />
<rom name="MECH2 (Track 26).bin" size="20805792" crc="a0575c84" md5="6a0db1d08c0d308fe65add03203ee50c" sha1="73679cca909070025926ba51c68530214300458a" />
<rom name="MECH2 (Track 27).bin" size="22452192" crc="321ee247" md5="38c83cc044cc2ae86dc0ab8ea8c283c5" sha1="f0ef9ebc32a519a854a171471bcbbd3e70849d05" />

    Cuesheet:

FILE "MECH2 (Track 01).bin" BINARY
  TRACK 01 MODE1/2352
    INDEX 01 00:00:00
FILE "MECH2 (Track 02).bin" BINARY
  TRACK 02 AUDIO
    INDEX 00 00:00:00
    INDEX 01 00:02:00
FILE "MECH2 (Track 03).bin" BINARY
  TRACK 03 AUDIO
    INDEX 01 00:00:00
FILE "MECH2 (Track 04).bin" BINARY
  TRACK 04 AUDIO
    INDEX 01 00:00:00
FILE "MECH2 (Track 05).bin" BINARY
  TRACK 05 AUDIO
    INDEX 01 00:00:00
FILE "MECH2 (Track 06).bin" BINARY
  TRACK 06 AUDIO
    INDEX 01 00:00:00
FILE "MECH2 (Track 07).bin" BINARY
  TRACK 07 AUDIO
    INDEX 01 00:00:00
FILE "MECH2 (Track 08).bin" BINARY
  TRACK 08 AUDIO
    INDEX 01 00:00:00
FILE "MECH2 (Track 09).bin" BINARY
  TRACK 09 AUDIO
    INDEX 01 00:00:00
FILE "MECH2 (Track 10).bin" BINARY
  TRACK 10 AUDIO
    INDEX 01 00:00:00
FILE "MECH2 (Track 11).bin" BINARY
  TRACK 11 AUDIO
    INDEX 01 00:00:00
FILE "MECH2 (Track 12).bin" BINARY
  TRACK 12 AUDIO
    INDEX 01 00:00:00
FILE "MECH2 (Track 13).bin" BINARY
  TRACK 13 AUDIO
    INDEX 01 00:00:00
FILE "MECH2 (Track 14).bin" BINARY
  TRACK 14 AUDIO
    INDEX 01 00:00:00
FILE "MECH2 (Track 15).bin" BINARY
  TRACK 15 AUDIO
    INDEX 01 00:00:00
FILE "MECH2 (Track 16).bin" BINARY
  TRACK 16 AUDIO
    INDEX 01 00:00:00
FILE "MECH2 (Track 17).bin" BINARY
  TRACK 17 AUDIO
    INDEX 01 00:00:00
FILE "MECH2 (Track 18).bin" BINARY
  TRACK 18 AUDIO
    INDEX 01 00:00:00
FILE "MECH2 (Track 19).bin" BINARY
  TRACK 19 AUDIO
    INDEX 01 00:00:00
FILE "MECH2 (Track 20).bin" BINARY
  TRACK 20 AUDIO
    INDEX 01 00:00:00
FILE "MECH2 (Track 21).bin" BINARY
  TRACK 21 AUDIO
    INDEX 01 00:00:00
FILE "MECH2 (Track 22).bin" BINARY
  TRACK 22 AUDIO
    INDEX 01 00:00:00
FILE "MECH2 (Track 23).bin" BINARY
  TRACK 23 AUDIO
    INDEX 01 00:00:00
FILE "MECH2 (Track 24).bin" BINARY
  TRACK 24 AUDIO
    INDEX 01 00:00:00
FILE "MECH2 (Track 25).bin" BINARY
  TRACK 25 AUDIO
    INDEX 01 00:00:00
FILE "MECH2 (Track 26).bin" BINARY
  TRACK 26 AUDIO
    INDEX 01 00:00:00
FILE "MECH2 (Track 27).bin" BINARY
  TRACK 27 AUDIO
    INDEX 01 00:00:00

    Write Offset: -22

https://cdn.discordapp.com/attachments/ … 6/MECH2.7z