Match: http://redump.org/disc/45188/
Logs: https://drive.google.com/open?id=1-fgFG … W7LNNCYYFf

Common Disc Info:
    Title: Pitfall: The Mayan Adventure
    Foreign Title (Non-latin): 
    Disc Number / Letter: (OPTIONAL)
    Disc Title: (OPTIONAL)
    System: IBM PC Compatible
    Media Type: CD-ROM
    Category: Games
    Matching IDs: 45188
    Region: USA
    Languages: English
    Disc Serial: PFL844AE-CD

    Ringcode Information:
        Mastering Code (laser branded/etched): MADE IN IRELAND BY SATURN    PFL3844AB    SI2115/B
        Mastering SID Code: IFPI LG01
        Data-Side Mould SID Code: (REQUIRED, IF EXISTS)
        Label-Side Mould SID Code: (REQUIRED, IF EXISTS)
        Additional Mould: (REQUIRED, IF EXISTS)
        Toolstamp or Mastering Code (engraved/stamped): (REQUIRED, IF EXISTS)
    Barcode: 5 390102 424176
    Error Count: 0
    Comments: [T:ISBN]: 0-7630-2251-9
    Contents: (OPTIONAL)

Version and Editions:
    Version: (REQUIRED, IF EXISTS)
    Edition/Release: SoftKey

Extras:
    Primary Volume Descriptor (PVD):

0320 : 20 20 20 20 20 20 20 20  20 20 20 20 20 31 39 39                199
0330 : 38 30 35 31 34 31 30 31  35 32 38 30 30 00 31 39   8051410152800.19
0340 : 39 38 30 35 31 34 31 30  31 35 32 38 30 30 00 30   98051410152800.0
0350 : 30 30 30 30 30 30 30 30  30 30 30 30 30 30 30 00   000000000000000.
0360 : 30 30 30 30 30 30 30 30  30 30 30 30 30 30 30 30   0000000000000000
0370 : 00 01 00 00 00 00 00 00  00 00 00 00 00 00 00 00   ................

Copy Protection:
    Copy Protection: 

Tracks and Write Offsets:
    DAT:

<rom name="PITFALL (Track 01).bin" size="48187776" crc="af122be2" md5="1e13416584739e64b8a8e5aeb158167a" sha1="50a73ddecd9989ef25ca161334bed6598a8424d5" />
<rom name="PITFALL (Track 02).bin" size="5155584" crc="0e35956e" md5="7b60c5847038c84be7100e12b2d8a6af" sha1="bae0eb857c79d73ab3c0e5e733689c3766721a6d" />
<rom name="PITFALL (Track 03).bin" size="7914480" crc="d57febad" md5="11860ec4e7796971e4e025d2fd37fc7d" sha1="f6dab1bf3a9d98454f6547b013e5100f7af6f21d" />
<rom name="PITFALL (Track 04).bin" size="25864944" crc="bea01635" md5="bbbf284c0b0528c80843c43670bb14f0" sha1="1969fba0f35790e08ef00188051f5a4bdcc1bb5d" />
<rom name="PITFALL (Track 05).bin" size="39348960" crc="a309d1f8" md5="34cacf4c05bb6af6f7a2439778f7d123" sha1="bc8098a90c39de74849a45de0f585d6c16b493b5" />
<rom name="PITFALL (Track 06).bin" size="16630992" crc="c74f40dc" md5="fb1ad5bbbfbf496a10bf1687d3ed5687" sha1="98b927eb8f39e55ab6ca737ebaa8b747fdca9ce5" />
<rom name="PITFALL (Track 07).bin" size="43648416" crc="48688dba" md5="ea32a20b07c515eab5a4046a9532b9f9" sha1="d2fe07983606c3ad157a3de9a79334521eb4390b" />
<rom name="PITFALL (Track 08).bin" size="48009024" crc="25a74e0d" md5="59d07e2bc4afd06766659e8f4aba89d2" sha1="487dbaba6881d1410f23a534e13985bc773c7875" />
<rom name="PITFALL (Track 09).bin" size="26904528" crc="899d4b77" md5="7f2b129d481285500540405117b49931" sha1="b49fa2222165456409ee77c5c32c6f9718e7665b" />
<rom name="PITFALL (Track 10).bin" size="17402448" crc="ea0621ba" md5="23ad2456206c305351907e393447a07f" sha1="f341c6ed57a9b0bf7b621be191d42af37321d7c1" />
<rom name="PITFALL (Track 11).bin" size="41228208" crc="c56052f5" md5="34e0be2f7120d23e2a87eda6578f4eac" sha1="4e8ed99007c4bc98c5498cd6146f887d3797fa44" />
<rom name="PITFALL (Track 12).bin" size="31921344" crc="55a406d6" md5="aabd23355401c403939d231458a28487" sha1="5d8ecc8a19e53af33f45a3d6a318fd44280ff5d0" />
<rom name="PITFALL (Track 13).bin" size="34275696" crc="3673ec0d" md5="a5b546f6c80412643012f08de17198c7" sha1="70de9de5c0ca9e5d05cdd5d9cf91da4917894bf1" />
<rom name="PITFALL (Track 14).bin" size="41000064" crc="beba6f6f" md5="6eaadd9a7474059f0f3a4a5e3b0d0ea1" sha1="c5f087a608f0c04f32a7700d0a700368fbaa47c8" />
<rom name="PITFALL (Track 15).bin" size="44215248" crc="c4542a08" md5="22e9735137d96dd98100381948b6906a" sha1="09321633d58fbb439d9780a18ba6008c5a0ab702" />
<rom name="PITFALL (Track 16).bin" size="45565296" crc="b2d4487c" md5="552a1d66f4990fbf62d3faa9dbcc744a" sha1="1709dbd3805fe78700678d0379a3e809638741f5" />
<rom name="PITFALL (Track 17).bin" size="32029536" crc="6ae8c35f" md5="6136a5e22733f4d9b02d90d6e59a0325" sha1="f015103fa52846450e38b7e34f8180ac6d5ce677" />
<rom name="PITFALL (Track 18).bin" size="18312672" crc="231650c9" md5="b247e2c68b1a5368d7308dc6587794e5" sha1="bfe094dd5d42776a27189d0c0478a2acb00118f2" />
<rom name="PITFALL (Track 19).bin" size="23654064" crc="fec87e3c" md5="884d0ccb5bd54ec8118474ee1e8d029b" sha1="1167cf94cafd3fb6bc57a7ca15ee320d33224c29" />
<rom name="PITFALL (Track 20).bin" size="20382432" crc="c2a4d168" md5="b9a614114c8d20c040d983d943e817ef" sha1="acf7bded1f3355a34a7f38714cfe1ae07de4c1b8" />
<rom name="PITFALL (Track 21).bin" size="20088432" crc="f2b8f3b4" md5="f86d896d3195269e5229563fb2800c53" sha1="5f8f6d75b0ff78e285f82f0588582ca2c67de2ef" />
<rom name="PITFALL (Track 22).bin" size="4633440" crc="743322f0" md5="5a56b6ac3c830a1c5f75c5ee8ed566fc" sha1="866db37bac56e8ddc096e7fe1b538589da2d7478" />
<rom name="PITFALL (Track 23).bin" size="24037440" crc="f8dac960" md5="7ebaba8bf2bd28062ff259beb5ce0a91" sha1="6d38599972e75fff9919f96e0c503da0ff04119e" />
<rom name="PITFALL (Track 24).bin" size="7723968" crc="dea54127" md5="80a47a544a42f9ec7785433a002cab5e" sha1="7a5cbaf338e9a2d51eaf5e0f949c1df623a5e80d" />

    Cuesheet:

FILE "PITFALL (Track 01).bin" BINARY
  TRACK 01 MODE2/2352
    INDEX 01 00:00:00
FILE "PITFALL (Track 02).bin" BINARY
  TRACK 02 AUDIO
    INDEX 00 00:00:00
    INDEX 01 00:02:00
FILE "PITFALL (Track 03).bin" BINARY
  TRACK 03 AUDIO
    INDEX 01 00:00:00
FILE "PITFALL (Track 04).bin" BINARY
  TRACK 04 AUDIO
    INDEX 01 00:00:00
FILE "PITFALL (Track 05).bin" BINARY
  TRACK 05 AUDIO
    INDEX 01 00:00:00
FILE "PITFALL (Track 06).bin" BINARY
  TRACK 06 AUDIO
    INDEX 01 00:00:00
FILE "PITFALL (Track 07).bin" BINARY
  TRACK 07 AUDIO
    INDEX 01 00:00:00
FILE "PITFALL (Track 08).bin" BINARY
  TRACK 08 AUDIO
    INDEX 01 00:00:00
FILE "PITFALL (Track 09).bin" BINARY
  TRACK 09 AUDIO
    INDEX 01 00:00:00
FILE "PITFALL (Track 10).bin" BINARY
  TRACK 10 AUDIO
    INDEX 01 00:00:00
FILE "PITFALL (Track 11).bin" BINARY
  TRACK 11 AUDIO
    INDEX 01 00:00:00
FILE "PITFALL (Track 12).bin" BINARY
  TRACK 12 AUDIO
    INDEX 01 00:00:00
FILE "PITFALL (Track 13).bin" BINARY
  TRACK 13 AUDIO
    INDEX 01 00:00:00
FILE "PITFALL (Track 14).bin" BINARY
  TRACK 14 AUDIO
    INDEX 01 00:00:00
FILE "PITFALL (Track 15).bin" BINARY
  TRACK 15 AUDIO
    INDEX 01 00:00:00
FILE "PITFALL (Track 16).bin" BINARY
  TRACK 16 AUDIO
    INDEX 01 00:00:00
FILE "PITFALL (Track 17).bin" BINARY
  TRACK 17 AUDIO
    INDEX 01 00:00:00
FILE "PITFALL (Track 18).bin" BINARY
  TRACK 18 AUDIO
    INDEX 01 00:00:00
FILE "PITFALL (Track 19).bin" BINARY
  TRACK 19 AUDIO
    INDEX 01 00:00:00
FILE "PITFALL (Track 20).bin" BINARY
  TRACK 20 AUDIO
    INDEX 01 00:00:00
FILE "PITFALL (Track 21).bin" BINARY
  TRACK 21 AUDIO
    INDEX 01 00:00:00
FILE "PITFALL (Track 22).bin" BINARY
  TRACK 22 AUDIO
    INDEX 01 00:00:00
FILE "PITFALL (Track 23).bin" BINARY
  TRACK 23 AUDIO
    INDEX 01 00:00:00
FILE "PITFALL (Track 24).bin" BINARY
  TRACK 24 AUDIO
    INDEX 01 00:00:00

    Write Offset: -12